#TITLE:BASS, HOUSE, RAVE;
#SUBTITLE:;
#ARTIST:yomoha;
#TITLETRANSLIT:;
#SUBTITLETRANSLIT:;
#ARTISTTRANSLIT:;
#GENRE:;
#CREDIT:;
#BANNER:BASS, HOUSE, RAVE.png;
#BACKGROUND:BASS, HOUSE, RAVE-bg.png;
#LYRICSPATH:;
#CDTITLE:;
#MUSIC:BASS, HOUSE, RAVE.ogg;
#OFFSET:-0.000000;
#SAMPLESTART:27.428572;
#SAMPLELENGTH:12.000000;
#SELECTABLE:YES;
#BPMS:0.000000=140.000000
;
#STOPS:
;
#BGCHANGES:;
#KEYSOUNDS:;
#ATTACKS:;

//---------------dance-single - BLANK.----------------
#NOTES:
     dance-single:
     BLANK.:
     Easy:
     11:
     0.399378,0.486061,0.238265,0.103248,0.067509,352.000000,322.000000,30.000000,13.000000,0.000000,0.000000,0.399378,0.486061,0.238265,0.103248,0.067509,352.000000,322.000000,30.000000,13.000000,0.000000,0.000000:
0000
0000
0000
0000
,
0000
0000
0000
0000
,
0000
0000
0000
0000
,
0000
0000
0000
0000
,
1000
0000
1000
0000
,
0001
0000
0010
0100
,
1000
0000
1000
0000
,
0010
0100
0010
1001
,
0000
0001
0000
0100
0000
1000
0000
0010
,
0000
0001
0000
0100
0000
1000
0000
0010
,
0000
0001
0000
0010
0000
1000
0000
0100
,
0000
0000
0001
0000
0000
0000
0010
0000
0001
0000
0000
1000
0000
0000
0001
0000
,
1000
1000
0001
0001
,
0100
0100
0010
0010
,
1000
0100
0010
0001
1000
0100
0010
0001
,
0000
0000
0000
0000
1000
0001
1000
0001
,
0000
0000
0010
0001
0100
0000
1010
0000
,
0001
0000
0010
0001
0100
0000
0010
0000
,
1000
0000
0100
1000
0100
0000
0010
0001
,
0010
0000
0100
1000
0100
0010
0001
0000
,
1000
0000
0100
1000
0010
0000
0101
0000
,
1000
0000
0100
1000
0010
0100
0001
0000
,
1000
0000
0001
1000
0100
0000
1000
0001
,
0100
0010
0100
0010
1000
0001
1000
0000
,
0100
0100
0020
0000
1000
0000
0100
0000
,
0001
0100
1000
0130
,
0001
0000
0001
0100
1000
0000
1000
0100
,
0001
0000
0001
0100
1000
0000
1001
0000
,
0200
0001
0010
1000
,
0010
0001
0010
1300
,
0001
0010
0100
0000
1000
0100
0010
0000
,
0001
0000
0000
1000
0000
0000
0001
0000
0100
0000
0100
0000
0010
0000
0000
0000
,
2000
0000
3100
0000
,
0002
0000
0103
0000
,
2000
3010
0002
0013
,
2000
0000
3100
0000
0001
1000
0001
0000
,
0011
0011
1100
1100
,
1010
1010
0101
0101
,
1000
0001
0100
0010
1000
0001
0100
0010
,
0000
0000
1000
0110
,
0002
0003
0101
0000
0011
0000
0110
0000
,
1100
1010
1100
1001
,
0001
0010
0000
0100
0000
0000
1000
0010
0000
0100
0000
0000
,
0001
0010
0000
0100
0000
0000
1000
0001
0000
1001
0000
0000
,
2000
3000
1010
0000
1100
0000
0110
0000
,
0011
0101
0011
1100
,
1000
0100
0000
0010
0000
0000
0001
0100
0000
0010
0000
0000
,
1000
0100
0000
0010
0001
0000
2000
0000
0000
3002
0000
0000
,
0013
0010
0000
0010
0000
0001
0000
0100
,
0000
1000
0000
0010
0000
0001
1000
0000
,
0100
0000
0001
0100
1000
0000
1000
0010
,
0001
0000
1000
0100
0001
1000
0001
0000
,
0010
1000
0100
0001
,
0010
1000
0100
0001
,
0010
0100
0010
0000
0100
0010
0100
0000
,
0000
0000
0000
0000
0000
0000
0000
0000
0001
0000
0000
1001
0000
0000
0000
0000
,
1000
0000
0000
0100
0000
0000
0001
0000
1000
0000
0000
0010
0000
0000
0001
0000
,
1000
0000
0000
0100
0000
0000
0001
0000
1000
0000
0010
0000
0001
0000
0000
0000
,
0100
1000
0010
0001
,
0100
0000
1000
0000
0001
1000
0001
0000
,
0001
0000
0000
0010
0000
0000
1000
0000
0001
0000
0000
0100
0000
0000
1000
0000
,
0001
0000
0000
0010
0000
0000
1000
0000
0001
0000
0100
0000
1000
0000
0000
0000
,
1000
0100
0001
0010
,
1000
0001
1000
0000
0001
1000
0001
0000
,
0100
0100
0002
0000
0010
0000
1000
0000
,
0100
0010
1000
0103
,
0001
0010
0100
0000
1000
0010
0100
0000
,
0001
0010
0100
0000
1000
0001
1000
0000
,
2000
0010
0001
0100
,
0100
0010
0001
3100
,
1000
0100
0010
0001
1000
0010
0100
0001
,
0000
0000
0000
0000
,
1001
0000
0000
0000
;

//---------------dance-single - BLANK.----------------
#NOTES:
     dance-single:
     BLANK.:
     Medium:
     12:
     0.537799,0.543245,0.182670,0.182670,0.202526,474.000000,451.000000,23.000000,23.000000,0.000000,0.000000,0.537799,0.543245,0.182670,0.182670,0.202526,474.000000,451.000000,23.000000,23.000000,0.000000,0.000000:
0000
0000
0000
0000
,
0000
0000
0000
0000
,
0000
0000
0000
0000
,
0000
0000
0000
0000
,
1000
1000
0100
0100
,
0001
0000
0001
0000
1000
0010
0001
0000
,
0001
0001
0100
0100
,
0110
1000
0100
0100
0010
0010
0001
0001
,
0000
0001
0100
1000
0100
0010
0100
0001
,
0010
1000
0010
0001
0010
0100
0010
0001
,
0100
0010
1000
0001
0100
0010
1000
0001
,
0010
0100
1000
0010
0100
0100
0010
0010
,
2000
0000
0000
0100
0000
0000
3100
0000
0002
0000
0000
0100
0000
0000
0103
0000
,
2000
0000
0000
0010
0000
0000
3010
0000
0002
0000
0000
0010
0000
0000
0013
0000
,
1000
1000
0001
0001
0100
0100
0010
0010
,
1000
0000
1000
0000
0001
1000
0001
1000
,
0000
0000
0101
0010
1100
0000
1001
0000
,
1100
0000
0000
0001
1000
0000
0010
0000
0101
0000
0000
0000
0100
0000
0001
0000
,
1000
0100
0001
0100
1000
0100
0001
0100
,
1000
0010
0001
0010
1000
1000
0001
0001
,
0200
0300
1010
0100
0011
0000
1001
0000
,
0011
0000
0000
1000
0001
0000
0100
0000
1010
0000
0000
0000
0010
0000
1000
0000
,
0001
0010
1000
0010
0001
0010
1000
0010
,
0001
0100
0010
0100
0001
0001
1000
1000
,
0100
0010
0002
0000
1000
0000
0010
0000
,
1000
0100
1000
0013
,
0001
0000
0110
1000
0100
0000
0110
0001
,
0100
0000
0110
1000
0001
0100
0010
0000
,
2000
0100
0001
0010
,
3002
0100
2003
0010
,
3001
1000
0010
0100
0001
1000
0100
0010
,
0001
0000
0000
1000
0000
0000
0001
0000
0100
0000
0000
0000
0010
0000
1000
0000
,
0001
0000
0000
0010
0000
0000
0100
0000
0011
0000
0000
0010
0000
0000
0100
0000
,
1000
0000
0000
0010
0000
0000
0100
0000
1010
0000
0000
0010
0000
0000
0100
0000
,
0001
0000
0000
0100
0000
0000
0010
0000
0101
0000
0000
0100
0000
0000
0010
0000
,
1000
0000
0000
0100
0000
0000
0010
0000
1100
0000
0000
0100
0000
0000
0010
0000
,
0001
0000
0000
0100
0010
0000
1000
0000
0001
0000
0000
0010
0100
0000
1000
0000
,
0010
0000
0000
1000
0001
0000
0100
0000
0010
0000
0000
1000
0001
0000
0010
0000
,
0100
1000
0010
0100
0001
0010
0100
1000
,
0002
0000
0000
0000
0000
0000
0103
0000
0100
0010
0000
0010
,
2000
0000
0000
3001
0000
0001
0010
0000
0010
1000
0000
1000
,
0001
0000
0001
0100
0000
0100
1000
0000
1000
0010
0000
0010
,
0200
1000
0320
0001
,
0230
0000
0000
1000
0000
0000
0301
1000
0001
1000
0000
0000
,
0110
0000
0000
1000
0000
1000
0100
0000
0100
0001
0000
0001
,
1000
0000
1000
0010
0000
0010
0001
0000
0001
0100
0000
0100
,
0020
0001
0230
1000
,
0301
0000
0010
0000
0001
0000
1000
0000
0100
0000
1000
0000
0002
0000
0000
0000
0000
0000
0013
0000
0000
0010
0000
0000
,
0100
0100
0000
0001
0100
1000
0100
0001
,
0100
1000
0010
0001
0010
1000
0010
0001
,
1000
0100
0010
1000
0001
0010
0100
0001
,
1000
0010
0100
1000
0001
1000
0001
0000
,
1000
0010
0001
0010
1000
0010
0001
0010
,
1000
0100
0001
0100
1000
0100
0001
0100
,
1000
0010
0100
1000
0001
0010
0100
0001
,
1000
0000
0000
1000
0000
0000
0100
0000
0110
0000
0000
1001
0000
0000
0001
0000
,
0101
0000
0000
0100
1000
0000
0100
0000
0001
0000
0000
0100
1000
0000
0100
0000
,
0001
0000
0000
0010
1000
0000
0010
0000
0001
0000
0001
0000
1000
0000
0000
0000
,
0100
1000
0001
1000
0100
1000
0001
1000
,
0010
0100
0001
0100
0010
1000
0100
0000
,
1100
0000
0000
0100
0001
0000
0100
0000
1000
0000
0000
0100
0001
0000
0100
0000
,
1000
0000
0000
0010
0001
0000
0010
0000
1000
0000
1000
0000
0001
0000
0000
0000
,
0010
0100
0001
0100
0010
0100
0001
0100
,
1000
0100
0001
0100
1000
0001
0100
0100
,
0010
0010
2000
0000
0100
0000
0010
0000
,
3002
0000
0010
0000
1000
0000
0103
0100
,
1000
0100
0010
1000
0001
0010
0100
0001
,
1000
0010
0100
1000
0010
0001
0010
0000
,
2000
0010
3002
0010
,
2003
0100
3002
0100
,
1003
0100
0001
0100
1000
0010
0001
0010
,
1000
0000
0000
1000
0000
0000
0001
0000
0010
0000
0000
0010
0000
0000
0100
0000
,
1000
0000
0000
0000
;

//---------------dance-single - BLANK.----------------
#NOTES:
     dance-single:
     BLANK.:
     Hard:
     14:
     0.672816,0.771980,0.135017,0.087364,0.829958,593.000000,576.000000,17.000000,11.000000,0.000000,0.000000,0.672816,0.771980,0.135017,0.087364,0.829958,593.000000,576.000000,17.000000,11.000000,0.000000,0.000000:
0000
0000
0000
0000
,
0000
0000
0000
0000
,
0000
0000
0000
0000
,
0000
0000
0000
0000
,
0000
0000
1000
0100
0000
0000
1000
0000
0000
0000
1000
0010
0000
0000
1000
0000
,
0000
0000
1000
0001
0000
0000
1000
0000
0000
0000
0010
0000
0100
0000
0001
0000
,
0000
0000
0001
0010
0000
0000
0001
0000
0000
0000
0001
1000
0000
0000
0001
0000
,
0100
0000
0010
1000
0010
1000
0001
0000
0100
0001
0100
0001
1000
0010
1000
0000
,
0000
0000
1000
0100
0000
0000
0100
0010
0000
0000
0010
0001
0000
0000
0001
0100
,
0000
0000
0100
0001
0000
0000
0001
0010
0000
0000
0010
0001
0000
0000
0001
1000
,
0000
0000
1000
0010
0000
0000
0010
0100
0000
0000
0100
0001
0000
0000
0001
0010
,
0000
0000
0010
0100
0000
0000
1000
0001
1000
0000
0010
0100
0010
0000
1000
0000
,
0002
0000
0000
0010
0000
0000
0013
0000
0200
0000
0000
0010
0000
0000
0310
0000
,
0002
0000
0000
0100
0000
0000
0103
0000
0020
0000
0000
1000
0000
0000
1030
0000
,
0001
0010
0001
0000
1000
0010
1000
0000
0001
0100
0001
0000
1000
0100
1000
0000
,
0001
0000
0000
0000
0001
0000
0000
0000
0100
0010
0100
0010
1000
0001
1000
0000
,
0000
0000
0000
0000
0011
0000
1000
0000
1100
0000
0000
0001
1000
0000
0001
0000
,
0100
0000
0000
0010
1000
0000
0001
0000
0010
0000
0000
0000
0100
0000
0100
0000
,
1000
0000
0001
0010
0000
0000
1000
0010
0000
0000
0001
0010
0000
0000
1000
0010
,
0000
0000
0001
0010
0000
0000
0001
1000
0001
0000
0100
0000
0010
0000
1000
0000
,
0001
0000
0000
0000
1010
0000
0001
0000
0101
0000
0000
1000
0001
0000
1000
0000
,
0100
0000
0000
0010
0001
0000
1000
0000
0010
0000
0000
0000
0100
0000
0100
0000
,
0001
0000
1000
0010
0000
0000
0001
0010
0000
0000
1000
0010
0000
0000
0001
0010
,
0100
0000
0001
0010
0100
0000
1000
0000
0010
0000
0010
0000
0100
0000
0001
0000
,
1000
0100
0020
0000
0001
0000
1000
0000
,
0100
0000
0001
0000
1030
0000
0001
0001
,
0100
0000
0010
1000
0000
0100
0000
0100
0000
0000
0010
0001
0000
0100
0000
0100
,
0000
0000
0010
1000
0000
0100
0000
0100
0010
0000
0001
0000
1000
0000
0000
0000
,
0000
0001
0010
0000
0000
0010
0100
0000
0000
0100
1000
0000
0000
1000
0001
0000
,
0000
0001
0100
0000
0000
1000
0100
0000
0000
0001
0010
0000
0000
0001
1000
0000
,
0001
0000
0100
0000
0010
0100
0010
0000
1000
0000
0100
0000
0010
0100
0010
0000
,
0001
0000
0000
1000
0000
0000
0010
0000
0100
0000
0001
1000
0001
0000
1000
0100
,
1000
0000
0000
0010
0100
0000
0100
0000
0001
0000
0000
0010
0100
0000
0100
0000
,
1000
0000
0000
0100
0010
0000
0010
0000
0001
0000
0000
0100
0010
0000
0010
0000
,
1000
0000
0000
0001
0100
0000
0100
0000
0001
0000
0000
1000
0100
0000
0100
0000
,
1000
0000
0010
1000
0010
0000
0100
0001
0100
0000
0001
1000
0001
0000
0010
0000
,
0100
0000
1000
0100
0000
0000
0010
0000
0001
0000
0100
0010
0000
0000
1000
0000
,
0001
0000
0010
0100
0000
0000
0100
0000
1000
0000
0100
0010
0000
0000
0010
0000
,
0001
1000
0001
1000
0001
1000
0001
1000
0001
1000
0001
1000
0001
1000
0001
1000
,
0010
0000
0000
0000
0000
0000
0000
0000
0000
0100
0000
0000
0010
0000
0000
0000
0000
0000
0100
0000
0000
0000
0000
0000
1001
0000
0000
0000
0000
0000
0000
0000
1000
0000
0000
0000
0001
0000
0000
0000
0100
0000
0000
0000
0010
0000
0000
0000
,
2000
0000
0000
3100
0010
0000
0100
1000
0000
0100
0001
0000
,
0100
1000
0000
0100
0010
0000
0001
0100
0000
0010
1000
0001
,
0010
1000
0000
0010
0001
1000
0010
0001
0000
0010
1000
0001
,
0010
1000
0000
0010
0001
0000
1000
0100
0010
0001
0000
0000
,
1002
0000
0000
0013
0100
0000
0010
1000
0000
0010
0001
0000
,
0100
1000
0000
0100
0001
0000
0100
1000
0000
0100
0010
1000
,
0100
0010
0000
0100
0010
0001
0100
0010
0000
0100
0010
1000
,
0002
0000
0023
0000
0130
1000
0100
0010
,
0001
0000
1001
0000
0001
0100
0000
0000
0010
1000
0000
0000
0001
0010
0000
0000
,
0100
1000
0000
0000
0001
0100
0000
0000
0010
1000
0000
0000
0002
0000
1003
0000
,
0100
0000
0000
0010
0001
0000
1000
0000
1000
0000
0000
0010
1000
0000
0001
0000
,
0001
0000
0000
0010
0001
0000
1000
0010
1000
0000
0001
0100
0001
0000
0000
0000
,
1010
0000
0001
0000
1000
0100
0000
0000
0010
0001
0000
0000
1000
0010
0000
0000
,
0100
0010
0000
0000
0100
1000
0000
0000
0100
0001
0000
0000
1000
0001
1000
0000
,
0010
0000
0010
0000
1000
0100
1000
0000
0010
0000
0010
0000
0100
0001
0100
0000
,
0010
0000
0000
0010
0000
0000
1000
0000
0001
0000
0000
0010
0100
0000
1000
0000
,
0011
0000
0000
0100
1000
0000
0100
0000
1001
0000
0000
0100
1000
0000
0100
0000
,
0011
0000
0000
0100
1000
0000
0100
0000
0110
0000
0001
1000
0001
0000
0000
0000
,
1000
0000
0001
0100
0000
0000
1000
0100
0000
0000
0001
0100
0000
0000
1000
0100
,
0000
0000
0001
0100
0000
0000
0010
1000
0010
0000
0100
0001
0100
0001
1000
0000
,
1010
0000
0000
0100
0001
0000
0100
0000
1001
0000
0000
0100
0001
0000
0100
0000
,
1010
0000
0000
0100
0001
0000
0100
0000
0110
0000
1000
0001
1000
0000
0100
0000
,
0010
0000
0001
0010
0000
0000
0100
0010
0000
0000
0100
1000
0000
0000
0010
1000
,
0001
0000
0010
0001
1000
0000
0010
0000
0100
0000
0100
0000
0001
1000
0001
1000
,
0010
0000
0110
0000
0001
0000
1000
0100
0000
0000
0010
1000
0000
0000
0001
0100
,
0000
0000
0010
0001
0000
0000
1000
0010
0000
0000
0100
1000
0200
0000
0301
0000
,
0010
0000
0001
1000
0000
0010
0000
1000
0000
0000
1000
0001
0000
0010
0000
0001
,
0000
0000
0001
1000
0000
0010
0000
1000
0001
0000
0100
0010
0100
0000
0001
0000
,
1000
0000
0001
0100
0000
0000
0010
0001
0000
0000
1000
0100
0000
0000
0010
1000
,
0000
0000
1000
0100
0000
0000
0010
1000
0000
0000
0001
0100
0000
0000
0010
0001
,
1000
0100
1000
0100
1000
0100
1000
0100
0010
0001
0010
0001
0010
0001
0010
0001
,
1000
0000
0000
0010
0000
0000
0100
0000
0001
0000
0000
0100
0000
0000
0010
0000
,
1000
0000
0000
0000
;

//---------------dance-single - BLANK.----------------
#NOTES:
     dance-single:
     BLANK.:
     Challenge:
     16:
     0.880447,0.857755,0.333572,0.285919,1.290604,776.000000,734.000000,42.000000,36.000000,0.000000,0.000000,0.880447,0.857755,0.333572,0.285919,1.290604,776.000000,734.000000,42.000000,36.000000,0.000000,0.000000:
// measure 0
0000
0000
0000
0000
,  // measure 1
0000
0000
0000
0000
,  // measure 2
0000
0000
0000
0000
,  // measure 3
0000
0000
0000
0000
,  // measure 4
0000
0000
0001
1000
0000
0000
0001
0000
0000
0000
0001
1000
0000
0000
0001
0000
,  // measure 5
0000
0000
0001
0100
0000
0000
0001
0000
0000
0000
0020
0000
0130
0000
1000
0000
,  // measure 6
0000
0000
1000
0001
0000
0000
1000
0000
0000
0000
1000
0001
0000
0000
0100
0000
,  // measure 7
0010
0000
1000
0001
0100
0010
0100
0001
1000
0010
0100
0010
1000
0001
1000
0000
,  // measure 8
0200
0000
0310
0001
0010
0000
0010
0100
0010
0000
0010
1000
0010
0000
0010
0001
,  // measure 9
0100
0000
0100
1000
0100
0000
0100
0010
0100
0000
0100
0001
0100
0000
0100
0001
,  // measure 10
1000
0000
1000
0100
1000
0000
1000
0001
1000
0000
1000
0010
1000
0000
1000
0100
,  // measure 11
0010
0000
0001
0010
0100
0000
1000
0001
0010
0001
0100
0010
1000
0100
0010
0000
,  // measure 12
0002
0000
0000
0010
0000
0000
0013
0000
2000
0000
0000
0010
0000
0000
3010
0000
,  // measure 13
0002
0000
0000
0100
0000
0000
0103
0000
2000
0000
0000
0100
0000
0000
3100
0000
,  // measure 14
0001
1000
0001
1000
0010
0100
0010
0100
0001
1000
0001
1000
0001
1000
0001
1000
,  // measure 15
0100
0000
0000
0000
0100
0000
0000
0000
0100
0010
0100
0010
0001
0100
1000
0000
,  // measure 16
0220
0000
0330
0000
1001
0000
0010
0000
1100
0000
0000
0100
0001
0000
0100
0000
,  // measure 17
1010
0000
0000
0001
0010
0000
0001
0000
0100
0000
0100
0000
0020
0000
0032
0000
,  // measure 18
1003
0000
0100
0010
1000
0000
0100
0010
1000
0000
0010
0100
1000
0000
0010
0100
,  // measure 19
1000
0000
0100
0001
1000
0000
0100
0001
1000
0010
0100
0010
0001
0010
0100
0000
,  // measure 20
0220
0000
0330
0000
1001
0000
0010
0000
0101
0000
0000
0100
1000
0000
0100
0000
,  // measure 21
0011
0000
0000
1000
0100
0000
1000
0000
0001
0000
0010
0000
0020
0000
0230
0000
,  // measure 22
0301
0000
0100
0010
0001
0000
0100
0010
0001
0000
0010
0100
0001
0000
0010
0100
,  // measure 23
0001
0100
0010
0001
1000
0010
0100
1000
0001
0010
0100
0001
0010
0001
0100
0010
,  // measure 24
1000
0000
1001
0000
0001
1000
0100
0010
0000
0010
0100
1000
0000
0001
0100
0010
,  // measure 25
0000
0010
0100
0001
0000
1000
0001
0010
0000
0100
0010
0001
2000
0000
3002
0000
,  // measure 26
0103
0000
0100
1000
0100
0001
0010
0100
1000
0000
0100
0001
0100
1000
0010
0100
,  // measure 27
0001
0000
0100
1000
0100
0001
0010
0100
1000
0001
0100
0010
1000
0100
0010
0000
,  // measure 28
0001
1000
0010
0100
0000
0100
0010
1000
0000
0001
0010
0100
0000
0100
0010
0001
,  // measure 29
0000
1000
0001
0100
0000
0100
0001
1000
0000
0001
1000
0100
0000
0100
1000
0001
,  // measure 30
0100
0001
1000
0010
1000
0100
0010
0001
0100
0010
0100
0001
1000
0010
0100
0001
,  // measure 31
0010
0000
0000
0010
0000
0000
0001
0000
0100
0001
0100
0001
1000
0010
1000
0000
,  // measure 32
0201
0000
0000
1000
0000
0000
0310
0000
1200
0000
0000
0001
0000
0000
0310
0000
,  // measure 33
0021
0000
0000
1000
0000
0000
0130
0000
1020
0000
0000
0001
0000
0000
0130
0000
,  // measure 34
0201
0000
0000
1000
0000
0000
0310
0000
1020
0000
0000
0100
0000
0000
0031
0000
,  // measure 35
0021
0000
0000
0100
0000
0000
1030
0000
1200
0000
0000
0001
0000
0000
1300
0000
,  // measure 36
1100
0000
0010
0001
0000
0010
0001
0000
0101
0000
0010
1000
0000
0010
1000
0000
,  // measure 37
1001
0000
0100
0010
0000
0100
0010
0000
1001
0000
0010
0100
0000
0010
0100
0000
,  // measure 38
1001
0000
1001
0000
0110
0000
0110
0000
1000
0001
0100
0010
1000
0001
0100
0010
,  // measure 39
1000
0000
0000
0000
0000
0000
0000
0000
0000
0001
0000
0000
0000
0000
0000
0000
0000
0000
0010
0000
0000
0000
0000
0000
0100
0000
0000
0000
0000
0000
0000
0000
1000
0000
0000
0000
0100
0000
0000
0000
0010
0000
0000
0000
0100
0000
0000
0000
,  // measure 40
2000
0000
3001
0100
1000
0100
0010
1000
0010
0100
1000
0100
,  // measure 41
0010
1000
0001
0100
0001
1000
0010
1000
0001
0100
0010
0100
,  // measure 42
1000
0100
0010
1000
0100
0010
1000
0010
0100
1000
0010
0100
,  // measure 43
0001
0010
0100
0001
0100
0010
1000
0010
0100
1000
0100
0010
,  // measure 44
0002
0000
1003
0010
0001
0010
0100
0001
0100
0010
0001
0010
,  // measure 45
0100
0001
1000
0010
1000
0001
0100
0010
1000
0001
1000
0100
,  // measure 46
0001
0100
1000
0001
0100
1000
0001
0010
1000
0001
0010
1000
,  // measure 47
0010
0000
0000
0000
0001
0000
0000
0000
1000
0000
0000
0000
0100
0000
0000
0000
0010
0000
0000
0000
0001
0000
0000
0000
0100
0000
0000
0010
0000
0000
0100
0000
0000
0010
0000
0000
1000
0000
0000
0001
0000
0000
1000
0000
0000
0000
0000
0000
,  // measure 48
0110
0000
0110
0000
1001
0000
0001
0100
0000
0010
0001
0010
0000
0100
0001
0100
,  // measure 49
0000
0010
0001
0010
0000
0100
0001
0100
0000
0010
1000
0100
0020
0000
0032
0000
,  // measure 50
1003
0000
0100
0010
0001
0000
0110
0000
0001
0000
0100
0010
1000
0000
0110
0000
,  // measure 51
1000
0000
0100
0010
0001
0000
0100
0001
1000
0010
1000
0001
0100
0010
1000
0000
,  // measure 52
0110
0000
1000
0100
0000
0010
1000
0010
0000
0100
1000
0100
0000
0010
1000
0010
,  // measure 53
0000
0100
1000
0100
0000
0010
0100
0010
0000
0001
0010
0001
0000
1000
0001
1000
,  // measure 54
0010
0100
0010
0100
0001
1000
0001
1000
0010
0100
0001
1000
0100
0010
0001
1000
,  // measure 55
0010
0000
0000
0010
0000
0000
0100
0000
1010
0000
0000
0101
0000
0000
1000
0000
,  // measure 56
0110
0000
0000
1000
0100
0000
0001
0000
0110
0000
0000
0001
0100
0000
1000
0000
,  // measure 57
0110
0000
0000
1000
0100
0000
0001
0000
0110
0000
0002
0000
2003
0000
3002
0000
,  // measure 58
0103
0000
1000
0100
0010
0000
0100
0001
0010
0000
1000
0010
0100
0000
0010
0001
,  // measure 59
0100
0000
1000
0100
0010
0000
0100
0001
0010
0001
0100
0010
1000
0001
1000
0000
,  // measure 60
0110
0000
0000
0001
0010
0000
0001
0000
0110
0000
0000
1000
0010
0000
1000
0000
,  // measure 61
0110
0000
0000
0001
0010
0000
0001
0000
0110
0000
2000
0000
3002
0000
2003
0000
,  // measure 62
3100
0000
0001
0100
0010
0000
0100
1000
0010
0000
0001
0010
0100
0000
0010
1000
,  // measure 63
0001
0010
0100
0010
0001
1000
0010
0100
0001
1000
0001
0100
0001
0010
0001
0010
,  // measure 64
0100
0000
1001
0000
1000
0001
0010
0001
0000
0001
1000
0010
0000
1000
0010
1000
,  // measure 65
0000
1000
0001
0010
0000
0001
0010
0001
0000
1000
0001
0100
0020
0000
2030
0000
,  // measure 66
3100
0000
0001
0100
0000
1000
0010
0100
0010
0000
0001
0010
0000
1000
0100
0010
,  // measure 67
0100
0000
0001
0100
0000
1000
0010
0100
0001
0010
0001
0100
0010
1000
0001
0000
,  // measure 68
0001
1000
0001
1000
0000
0001
0010
1000
0000
1000
0010
0100
0000
1000
0010
0001
,  // measure 69
0000
0001
0010
0100
0000
0001
0010
1000
0000
1000
0010
0100
0000
1000
0010
0100
,  // measure 70
0001
0010
0001
1000
0010
1000
0001
0100
0001
1000
0010
0100
0001
1000
0100
0010
,  // measure 71
0001
0000
0000
1000
0000
0000
0010
0000
0100
0000
0000
0100
0000
0000
0001
0000
,  // measure 72
1000
0000
0000
0000
;
