#TITLE:在るが儘に;
#SUBTITLE:;
#ARTIST:Des-ROW・組スペシアルr;
#TITLETRANSLIT:Aru ga mama ni;
#SUBTITLETRANSLIT:;
#ARTISTTRANSLIT:;
#GENRE:;
#CREDIT:;
#MUSIC:Aru ga mama ni.ogg;
#BANNER:Aru ga mama ni.png;
#BACKGROUND:Aru ga mama ni-bg.png;
#CDTITLE:;
#SAMPLESTART:50.721;
#SAMPLELENGTH:15.000;
#SELECTABLE:YES;
#OFFSET:0.667;
#BPMS:0.000=180.973;
#STOPS:;
#BGCHANGES:-4.000=Aru ga mama ni.avi=1.000=0=0=0=StretchNoLoop====,
99999.000=-nosongbg-=1.000=0=0=0=StretchNoLoop====
;
#FGCHANGES:;

//--------------- dance-single - ----------------
#NOTES:
     dance-single:
     :
     Beginner:
     5:
     0,0,0,0,0:
0000
0000
0000
0000
,
0000
0000
0000
0000
,
0000
0000
0000
0000
,
0000
0000
0000
0000
,
0000
0000
0000
0000
,
0000
0000
0000
0000
,
0000
0000
0000
0000
,
1000
0000
0001
0000
,
1000
1000
1000
0000
,
0001
0000
1000
0000
,
0001
0001
0001
0000
,
0100
0000
0010
0000
,
1000
0000
1001
0000
,
0100
0000
0010
0000
,
0001
0000
1001
0000
,
0100
0000
0010
0000
,
1000
1000
1000
0000
,
0100
0000
0010
0000
,
0001
0001
0001
0000
,
0100
0000
0110
0000
,
0010
0000
0110
0000
,
1000
1000
0100
0000
,
0010
0010
0001
0000
,
1000
0000
0001
0000
,
1000
1000
1000
0000
,
0001
0000
1000
0000
,
0001
0001
0001
0000
,
0100
0000
0100
0000
,
0010
0000
0010
0000
,
1000
1000
0100
0000
,
0010
0010
0001
0000
,
0100
0000
0001
0000
,
1000
0000
0100
0000
,
0010
0000
0001
0000
,
1000
0000
0010
0000
,
0100
0000
0001
0000
,
1000
0000
0100
0000
,
0010
0010
0010
0010
,
0010
0010
0010
0000
,
0001
0000
1000
0000
,
0001
0000
1000
0000
,
0100
0100
0010
0000
,
0001
0000
1001
0000
,
1000
0000
0001
0000
,
1000
0000
0001
0000
,
0100
0100
0010
0000
,
1000
0000
1001
0000
,
0001
0001
0010
0000
,
0100
0000
0100
0000
,
1000
1000
0010
0000
,
0100
0000
0100
0000
,
0001
0000
0010
0000
,
1000
0000
0010
0000
,
0001
0000
0010
0000
,
0001
0001
0001
0000
,
2000
0000
0000
3001
,
0002
0000
0000
1003
,
2000
0000
0000
0000
,
0000
0000
3000
0000
,
0020
0000
0000
0000
,
0130
0000
0100
0000
,
0200
0000
0000
0000
,
0310
0000
0010
0000
,
1000
1000
0100
0000
,
0010
0000
0010
0000
,
0001
0001
0100
0000
,
0010
0000
0010
0000
,
1000
0000
0001
0000
,
1000
0000
0001
0000
,
1000
1000
1000
1000
,
0001
0001
0001
0001
,
0000
0000
0000
0000
,
0000
0000
0000
0000
,
1000
0000
0010
0000
,
0100
0100
0001
0000
,
0100
0000
0010
0000
,
1000
1000
1000
0000
,
0001
0000
0010
0000
,
0100
0100
1000
0000
,
0100
0000
0010
0000
,
0001
0001
1000
1000
,
1000
0000
0010
0000
,
0100
0100
0001
0000
,
1000
0000
0100
0000
,
0010
0000
0010
0000
,
0001
0000
0100
0000
,
0010
0000
0010
0000
,
1000
1000
1000
1000
,
0001
0001
0001
0001
;

//--------------- dance-single - ----------------
#NOTES:
     dance-single:
     :
     Easy:
     10:
     0,0,0,0,0:
0000
0000
0000
0000
,
0000
0000
0000
0000
,
0000
0000
0000
0000
,
0000
0000
0000
0000
,
0000
0000
0000
0000
,
0000
0000
0000
0000
,
0000
0000
0000
0000
,
2000
0000
0000
3002
0000
0000
0203
0000
,
0000
0320
0000
0000
0100
0000
0130
0000
,
0002
0000
0000
2003
0000
0000
3200
0000
,
0000
0320
0000
0000
0001
0000
0031
0000
,
1000
0010
0100
0001
,
1000
0100
0010
1001
,
0001
0100
0010
1000
,
0100
0100
0010
0110
,
0001
0100
0010
1000
,
0001
1000
0100
1001
,
0001
0100
0001
0010
,
0001
0100
0010
0110
,
1000
0100
1000
0100
,
0001
0100
1000
0100
,
0010
0010
0001
0001
,
1000
0000
0010
0000
0100
0010
0100
0000
,
0001
0010
0001
0100
,
0010
1000
0010
1001
,
1000
0100
1000
0010
,
0100
0000
0001
0000
0000
1000
0001
0000
,
0010
0010
0100
0100
,
1000
0100
0010
0001
,
0100
0110
1000
0010
,
0100
0000
0110
0000
0001
1000
0001
0000
,
1000
0001
1001
0110
,
1000
0100
0010
0010
,
0001
1000
0010
0100
,
0001
0010
0100
0100
,
0010
0001
1000
0010
,
0100
0001
1000
1000
,
1010
0011
1010
0011
,
0101
1010
2002
3003
,
0001
0010
1000
0010
,
0001
0010
0001
1000
,
0010
1000
0010
0001
,
0010
1000
1001
0000
,
0001
0100
1000
0100
,
0001
0100
0001
0010
,
1000
0010
1000
0010
,
0001
1000
1001
0000
,
0001
0100
0010
1000
,
0100
1000
0100
0000
0010
0001
0010
0000
,
0001
1000
0010
0100
,
0001
0010
0001
0000
1000
0100
1000
0000
,
0100
0000
0010
0000
0001
0010
0001
0000
,
0100
0000
0010
0000
1000
0010
1000
0000
,
0100
0010
0001
0100
,
0010
0100
0010
0000
0110
0000
0000
0000
,
1000
0100
1000
0010
,
1000
0100
1000
0010
,
1000
0000
0100
0000
0010
0010
0000
0100
,
0000
0100
0010
0000
0001
0001
0001
0000
,
0001
0100
0001
0010
,
0001
0100
0001
0010
,
0001
0000
0100
0000
0100
0010
0000
0010
,
0000
0100
0100
0000
0010
0010
0010
0000
,
1000
0100
0001
0100
,
1000
0100
0001
0100
,
1000
0010
0001
0010
,
1000
0010
0001
0010
,
2000
0000
0000
3002
0000
0000
2003
0000
,
0000
3002
0000
0000
0103
0000
0110
0000
,
1000
0000
1000
0100
0000
0010
0001
0000
,
0001
0100
0000
0010
1000
0000
1000
0001
,
0020
0000
0000
0230
0000
0000
2300
0000
,
0000
3002
0000
0000
0103
0000
0110
0000
,
2000
0000
0000
3020
0000
0000
0230
0000
,
0000
0302
0000
0000
0103
0000
0110
0000
,
1000
0000
1000
0100
0000
0010
0001
0000
,
0001
0100
0000
0010
1000
0010
1000
0000
,
0002
0000
0000
0023
0000
0000
0230
0000
,
0000
2300
0000
0000
3100
0000
0110
0000
,
0001
0000
0001
0010
0000
0100
1000
0000
,
1000
0100
0000
0010
0001
0000
0001
0000
,
0100
0000
0100
0010
0000
1000
0100
0000
,
0100
0010
0000
0001
0100
0000
0100
0000
,
0010
1000
0001
1001
,
0001
0010
0001
0000
1000
0010
1000
0000
,
1001
0000
0000
0110
0000
0000
1000
0000
,
1000
0100
0010
0000
0001
0100
0010
0000
,
1000
0000
1000
0010
0000
0001
0010
0000
,
1000
0010
0000
0001
0010
0000
2000
0000
,
3000
0000
0000
0000
;

//--------------- dance-single - ----------------
#NOTES:
     dance-single:
     :
     Medium:
     14:
     0,0,0,0,0:
0000
0000
0000
0000
,
0000
0000
0000
0000
,
0000
0000
0000
0000
,
0000
0000
0000
0000
,
0000
0000
0000
0000
,
0000
0000
0000
0000
,
0000
0000
0000
0000
,
1001
0000
0001
0010
0000
0010
1000
0000
,
0010
0001
0010
0000
0001
0100
0010
0010
,
1000
0000
1000
0100
0000
0100
0001
0000
,
0100
1000
0100
1000
0001
0100
0010
0000
,
1000
0001
0100
0000
0001
1000
0100
0100
,
0000
0010
0010
0000
0001
0100
0010
0000
,
1001
0000
1000
1100
0000
0001
0101
0000
,
0001
0011
0000
1000
1010
0000
0101
0000
,
0001
1000
0100
0000
1000
0001
0100
0100
,
0000
0010
0010
0000
1000
0100
0010
0000
,
1001
0000
0001
0100
0010
1000
0010
0000
,
1000
0100
0010
0001
0010
0010
0010
0000
,
0101
0000
1100
0000
0001
0100
0101
0000
,
1000
0010
1000
0000
0001
0010
0001
0000
,
1000
0100
1000
0100
0010
0001
0010
0001
,
0100
0001
0100
0010
1000
1000
1000
0000
,
0101
0011
0101
1100
,
0001
0100
0010
1000
0001
0001
0001
0000
,
0010
0001
0010
0001
0100
0010
0100
0010
,
1000
0100
1000
0100
0010
0001
0010
0000
,
0001
0100
0001
0100
0001
0010
0001
0010
,
1000
0010
0001
0000
1000
0100
0001
0000
,
0100
1000
0100
1000
0010
1000
0001
0100
,
0001
0010
0001
0100
0010
0010
0010
0000
,
1100
1010
1100
0101
,
0001
0010
0001
0100
0010
0000
1001
0000
,
1000
0010
1000
0100
0010
0001
0100
0001
,
0010
0100
1000
0010
0100
0000
1001
0000
,
0001
0100
0001
0100
0010
1000
0001
0000
,
1000
0100
1000
0100
0010
0001
1000
0000
,
0001
0010
0001
0100
0001
0010
0001
0100
,
1000
0001
0010
1000
0001
0000
0010
0010
,
2001
0000
3100
0002
0000
0103
1000
0200
,
0000
1300
0010
2000
0000
3010
0001
0020
,
0000
0130
0001
0100
0010
1000
0001
0020
,
0000
0130
0100
0010
0001
1000
0001
0000
,
1001
0000
0001
0200
0000
1300
0100
2000
,
0000
3100
0001
0200
0000
0310
0001
0020
,
0000
1030
0010
1000
0100
0010
0001
2000
,
0000
3010
0010
0010
0010
0100
0001
1000
,
0100
0000
0010
0001
0010
0001
1000
0200
,
0000
0301
0100
2000
0000
0001
3001
0000
,
0101
0000
2010
0000
3001
0100
1000
0200
,
0000
0301
0010
0100
2000
0000
3002
0000
,
0103
0010
1000
1000
0100
0010
0001
0010
,
0100
0010
0001
0001
0100
0010
1000
0010
,
1000
0100
0010
0001
0100
0010
1000
0100
,
0010
0010
0010
0010
0010
0000
1001
0000
,
0001
0100
0000
1000
0100
0001
0000
1000
,
0100
0001
0000
1000
0010
0001
0000
1000
,
0010
0001
0010
1000
0010
1000
0001
0010
,
0000
0100
0100
0010
0001
0100
0010
1000
,
0100
0001
0000
1000
0010
0001
0000
1000
,
0010
0001
0000
1000
0100
0001
0000
1000
,
0100
0001
0100
1000
0100
1000
0010
0100
,
0000
0001
0100
0010
1000
0001
0001
0001
,
1000
0100
0010
0100
0010
0001
1000
0000
,
0001
0100
0010
0100
0010
1000
0001
0000
,
1000
0100
0001
0100
1000
0100
1000
0010
,
0000
0001
0010
1000
0010
1000
0001
0100
,
0020
0000
1000
0230
0000
0001
0320
0000
,
1000
0230
0000
0001
0310
0000
0110
0000
,
1000
0100
0001
0100
0001
0100
1000
0100
,
1000
0010
1000
0010
0001
0010
0001
0010
,
2000
0000
0000
3200
0000
0000
0320
0000
,
0000
0032
0000
0000
1003
0000
1001
0000
,
0002
0000
0013
0200
0000
1300
0020
0000
,
1030
0100
2000
0000
3010
0010
0010
0000
,
0202
0000
0303
0012
0000
1003
2100
0000
,
3010
0100
0100
0100
0001
0100
0010
0010
,
2000
0000
3100
0020
0000
0031
0200
0000
,
0301
0010
0002
0000
0103
0100
0100
0000
,
0010
1000
0010
1000
0100
1000
0100
0001
,
0100
0001
0100
1000
0100
1000
0010
0100
,
0002
0000
0013
0200
0000
1300
0020
0000
,
0130
0001
0200
0000
0310
0010
0010
0000
,
1000
0001
0001
1000
0100
0100
0010
0001
,
0100
0000
0000
0010
0000
0000
0010
0000
0000
1000
0000
0000
0001
0000
0000
0000
0001
0000
1000
0000
0000
0000
1000
0000
,
0002
0000
0003
0220
0000
0330
1000
0100
,
0010
0010
0010
0010
0100
0100
0100
0100
,
1000
0010
1000
0010
0001
0010
0001
1000
,
0100
1000
0100
0001
0100
0001
2000
0000
,
3000
0000
0000
0000
;

//--------------- dance-single - ----------------
#NOTES:
     dance-single:
     :
     Hard:
     17:
     0,0,0,0,0:
0000
0000
0000
0000
,
0000
0000
0000
0000
,
0000
0000
0000
0000
,
0000
0000
0000
0000
,
0000
0000
0000
0000
,
0000
0000
0000
0000
,
0000
0000
0000
0000
,
1100
0000
0001
0101
0000
1000
1010
0000
,
0001
0000
0010
0000
0001
0000
0000
0000
0100
0000
0100
0000
0010
0000
1000
0001
,
1000
0000
0100
0010
0000
0010
1001
0000
,
1000
0000
0010
0100
0010
0100
0010
0100
0010
0000
0100
0000
0001
0000
0000
0000
,
1000
0100
1000
0100
0000
0010
0001
0100
0001
0100
0010
1000
,
0001
0100
0001
0100
0010
1000
0100
0010
0001
1000
0000
0000
,
0010
1000
0100
1000
0000
0100
0010
0001
0100
0001
0000
0010
,
0100
1000
0100
0010
0001
0010
0001
1000
0000
1001
0000
0000
,
0001
0100
0001
0100
0010
1000
0001
0100
0001
0100
0010
1000
,
0100
0010
0100
0010
0001
1000
0100
0010
0100
0010
0000
0000
,
0001
0100
0001
0100
0001
0100
0010
1000
0001
0010
0001
1000
,
0100
1000
0100
1000
0100
0010
0001
0100
0010
1000
0000
0000
,
1100
0000
0000
0000
0000
0000
0101
0000
0000
0100
0000
0000
0010
0000
1000
0000
0000
0000
0101
0000
0000
0000
0000
0000
,
1000
0100
1000
0200
0000
0310
0001
0100
0001
0200
0000
0310
,
1000
0001
1000
0001
0100
0001
1000
0100
1000
0001
0010
0001
,
0010
0100
0010
0001
1000
0010
1000
0010
0100
0001
0000
0000
,
0011
0000
0001
0100
0001
0000
1010
0000
1000
0100
0000
1000
,
0010
0100
0010
0100
0001
0010
0100
0010
0100
0010
0000
0000
,
0001
0100
0010
1000
0001
1000
0100
0010
0001
1000
0000
0001
,
0100
0010
1000
0010
1000
0001
0100
0010
1000
0001
0000
0000
,
1000
0000
0000
0100
0000
0000
1000
0000
0000
0010
0000
0000
1000
0000
0100
0000
1000
0000
0100
0000
0000
0000
0010
0000
,
0001
0000
0001
0100
0000
0010
1000
0000
1000
0100
0000
0000
,
0010
0001
0010
0001
0100
0010
1000
0001
0100
0001
0100
0010
,
1000
0000
0100
0000
0010
0000
0100
0000
0010
0000
0001
0000
1000
0000
0000
1000
0000
0000
1000
0000
0000
0000
0000
0000
,
0101
1100
0101
1010
,
1000
0100
0010
0100
0010
0001
1000
0000
1000
0001
0000
0001
,
0100
0010
0100
0010
1000
0100
1000
0010
0100
0010
0100
0001
,
0010
0001
0100
0010
1000
0100
0010
0000
0010
0100
0000
0100
,
0010
0001
0010
0001
0100
0001
1000
0010
1000
0010
0000
0100
,
0001
0100
0001
0010
0000
0100
1000
0010
1000
0010
0000
0010
,
1000
0100
0010
0001
0100
0010
1000
0100
0010
0001
0100
0010
,
1000
0100
1000
0100
0010
0001
0010
0001
2000
0000
0000
0000
3000
0000
0000
0000
,
1001
0000
0001
0100
1000
0100
0001
0100
,
0010
0001
0010
1000
0010
1000
0100
0010
,
1000
0010
0001
1000
0010
0001
1000
0200
,
0000
0000
0301
0000
0010
0000
0100
0000
0010
0000
0100
1000
0100
0000
0000
0000
,
1001
0000
1000
0010
0001
0010
1000
0010
,
0100
0010
0100
1000
0100
0001
0010
0100
,
0010
0100
0010
1000
0010
0001
1000
0020
,
0000
0000
0130
0001
1000
0001
1000
0001
1000
0000
0100
0000
0100
0000
0010
0000
,
0100
0000
0010
0001
0010
0001
1000
0010
,
0001
0010
1000
0010
1000
0001
0010
0000
,
0100
0000
0110
0000
1000
0100
0010
0001
,
0000
0000
0001
0000
0100
0000
0010
0000
1000
0000
0001
0000
1000
0001
1000
0001
,
1000
0010
0001
1000
0100
0001
1000
0010
,
1000
0100
0001
1000
0010
0001
0100
0001
,
0010
0000
1000
0000
0001
0000
0100
0000
1000
0000
0100
0000
1000
0100
1000
0100
,
0010
0001
0010
0001
1000
0001
1000
0001
1000
0000
0000
0000
0000
0000
0000
0000
,
0001
0100
0001
0100
0010
0001
0010
0001
,
1000
0100
1000
0100
0010
1000
0010
1000
,
0100
0100
0010
0000
0001
0001
1000
1000
,
0000
0010
1001
0000
0001
0100
0010
0010
,
1000
0100
1000
0100
0010
1000
0010
1000
,
0001
0100
0001
0100
0010
0001
0010
0001
,
0100
0100
0010
0000
1000
1000
0001
0001
,
0000
0000
0010
0000
0001
0000
0100
0000
0010
0000
1000
0000
0001
1000
0001
1000
,
0001
0100
0010
1000
0001
0100
0110
0000
,
1000
0100
0010
0001
1000
0100
0110
0000
,
0001
0100
0010
0100
0010
1000
0001
0010
,
0000
0100
1000
0100
1000
1000
0001
0001
,
0100
0000
0000
0000
0010
1000
0001
0000
0000
0000
0010
0001
1000
0000
0000
0000
,
0010
1000
0001
0000
0000
0000
0010
0001
1000
0000
0010
0000
0100
0000
0001
0000
,
1000
0001
1000
0001
1000
0001
1000
0001
1000
0001
1000
0001
1000
0001
1000
0001
,
1000
0001
1000
0001
1000
0001
1000
0001
1000
0000
0100
0000
0100
0000
0020
0000
,
0000
0000
0000
0000
,
0000
0000
0030
1001
,
0002
0000
0103
0020
0000
0130
2000
0000
,
3100
0001
0020
0000
0130
0100
0100
0000
,
2001
0000
3010
0002
0000
0013
2000
0000
,
3100
0000
0010
0000
0010
0000
0001
1000
0001
0000
0100
0000
0010
0000
0010
0000
,
2000
0000
3100
0020
0000
0130
0002
0000
,
0103
0000
1000
0000
0020
0000
0000
0000
0130
0000
0100
0000
0100
0000
0001
0010
,
0001
0000
1000
0100
1000
0000
0010
0000
0100
0001
0100
0000
0010
0000
1000
0010
,
1000
0000
0100
0000
0010
0001
0010
0001
0010
0001
0010
0001
0010
0000
0001
0000
,
0200
0000
0310
0002
0000
0013
2000
0000
,
3001
0010
0200
0000
0310
0010
0010
0001
,
1000
0010
1000
0010
1000
0000
0100
0000
0001
0000
1000
0000
0010
0000
0001
0010
,
0001
0000
0000
0100
0000
0000
1000
0000
0000
0100
0000
0000
0001
0000
0010
0000
0100
0000
0010
0000
0100
0000
1000
0000
,
0002
0000
0000
0000
0103
0000
0020
0000
0000
0000
1030
0000
0001
1000
0001
1000
,
0100
0010
0100
0010
0001
1000
0001
1000
0010
0100
0010
0100
0001
1000
0001
1000
,
0100
0000
1000
0010
1000
0000
0100
0000
1000
0010
1000
0000
0100
0000
1000
0010
,
1000
0000
0100
0000
1000
0000
0010
0000
1000
0100
1000
0100
0010
0001
0010
0001
;
