#VERSION:0.83;
#TITLE:AD INFINITUM;
#SUBTITLE:;
#ARTIST:The Stupendium;
#TITLETRANSLIT:;
#SUBTITLETRANSLIT:;
#ARTISTTRANSLIT:;
#GENRE:;
#ORIGIN:;
#CREDIT:;
#BANNER:AD INFINITUM.png;
#BACKGROUND:AD INFINITUM-bg.png;
#PREVIEWVID:;
#JACKET:AD INFINITUM-jacket.png;
#CDIMAGE:;
#DISCIMAGE:;
#LYRICSPATH:;
#CDTITLE:CDtitle.png;
#MUSIC:AD INFINITUM.ogg;
#OFFSET:-0.003000;
#SAMPLESTART:0.003000;
#SAMPLELENGTH:13.250000;
#SELECTABLE:YES;
#BPMS:0.000=35.000,
8.000=140.000,
77.500=280.000,
91.500=140.000;
#STOPS:70.000=0.429,
219.500=0.825;
#DELAYS:;
#WARPS:;
#TIMESIGNATURES:0.000=4=4;
#TICKCOUNTS:0.000=4;
#COMBOS:0.000=1;
#SPEEDS:0.000=1.000=0.000=0;
#SCROLLS:0.000=1.000;
#FAKES:;
#LABELS:0.000=Song Start;
#BGCHANGES:0.000=AD INFINITUM.avi=1.000=1=0=1===CrossFade==,
99999=-nosongbg-=1.000=0=0=0 // don't automatically add -songbackground-
;
#KEYSOUNDS:;
#ATTACKS:
;

//---------------dance-single - ----------------
#NOTEDATA:;
#CHARTNAME:;
#STEPSTYPE:dance-single;
#DESCRIPTION:;
#CHARTSTYLE:;
#DIFFICULTY:Beginner;
#METER:3;
#RADARVALUES:0.145650,0.188167,0.025703,0.000000,0.000000,119.000000,116.000000,3.000000,0.000000,0.000000,0.000000,0.000000,0.000000,0.000000,0.145650,0.188167,0.025703,0.000000,0.000000,119.000000,116.000000,3.000000,0.000000,0.000000,0.000000,0.000000,0.000000,0.000000;
#CREDIT:Pandy G. Pamton;
#NOTES:
// measure 0
0000
0000
0000
0000
,  // measure 1
0000
0000
0000
0000
,  // measure 2
0001
0000
1000
0000
,  // measure 3
0100
0000
1000
0000
,  // measure 4
0010
0000
1000
0000
,  // measure 5
0100
0000
1000
0001
,  // measure 6
1000
0000
0010
0000
,  // measure 7
1000
0000
0100
0000
,  // measure 8
1000
0000
1000
0000
,  // measure 9
1000
0000
0000
0000
,  // measure 10
0001
0000
0100
0000
,  // measure 11
0001
0000
0010
0000
,  // measure 12
0001
0000
1000
0000
,  // measure 13
0100
0000
1000
1000
,  // measure 14
1000
0000
0001
0000
,  // measure 15
0100
0000
0110
0000
,  // measure 16
0010
0000
0100
0000
,  // measure 17
0001
1000
0000
0100
,  // measure 18
0000
0000
0000
0000
,  // measure 19
0000
0000
0000
1000
0000
0000
0000
0000
,  // measure 20
0000
0000
0000
0000
,  // measure 21
0000
0000
0000
0000
,  // measure 22
0000
0000
0000
0000
,  // measure 23
0000
0000
0001
0000
,  // measure 24
0001
0000
0001
0000
,  // measure 25
0000
0000
1000
0000
,  // measure 26
1000
0000
1000
0000
,  // measure 27
0000
0000
0010
0000
,  // measure 28
0010
0000
0010
0000
,  // measure 29
0000
0000
0100
0000
,  // measure 30
0100
0000
0100
0100
,  // measure 31
0100
0000
0010
0000
,  // measure 32
1000
0000
0001
0000
,  // measure 33
0010
0000
0100
0000
,  // measure 34
0010
0000
0001
0000
,  // measure 35
1000
0000
0010
0000
,  // measure 36
0100
0000
0010
0000
,  // measure 37
0100
0000
0010
0000
,  // measure 38
1000
0000
0001
0000
,  // measure 39
1000
0001
1000
0000
,  // measure 40
0010
0000
0100
0000
,  // measure 41
0000
0000
0010
0000
,  // measure 42
1000
0000
0100
0000
,  // measure 43
1000
0000
0001
0000
,  // measure 44
0100
0000
0001
0000
,  // measure 45
0010
0010
0100
0000
,  // measure 46
0010
0000
0001
0000
,  // measure 47
1000
0000
0010
0000
,  // measure 48
0100
0000
0001
0000
,  // measure 49
1000
0000
0100
0000
,  // measure 50
1000
0000
0010
0000
,  // measure 51
0100
0000
0010
0000
,  // measure 52
1000
0000
0001
0000
,  // measure 53
0010
0000
0100
0000
,  // measure 54
0010
0000
0001
1000
,  // measure 55
0010
0000
1000
0000
,  // measure 56
0001
0000
0100
0000
,  // measure 57
0010
0000
1000
0000
,  // measure 58
0100
0100
0010
0010
,  // measure 59
0001
0000
1000
0000
,  // measure 60
0100
0000
1000
0000
,  // measure 61
0010
0000
0100
0000
,  // measure 62
0000
0000
0110
1001
;

//---------------dance-single - ----------------
#NOTEDATA:;
#CHARTNAME:;
#STEPSTYPE:dance-single;
#DESCRIPTION:;
#CHARTSTYLE:;
#DIFFICULTY:Easy;
#METER:7;
#RADARVALUES:0.305988,0.456978,0.188488,0.051406,0.000000,250.000000,228.000000,22.000000,6.000000,0.000000,0.000000,0.000000,0.000000,0.000000,0.305988,0.456978,0.188488,0.051406,0.000000,250.000000,228.000000,22.000000,6.000000,0.000000,0.000000,0.000000,0.000000,0.000000;
#CREDIT:Pandy G. Pamton;
#NOTES:
0000
0000
0000
0000
,
0000
0000
0000
0000
,
0001
0010
0001
0100
,
0010
1000
0100
0010
,
0100
0100
1000
1000
,
0001
0000
0100
0000
0010
1000
0010
0000
,
1000
0001
0200
0320
,
2030
0000
3001
0000
0010
0010
0100
0000
,
0010
0001
0010
0001
,
0010
0000
0100
1000
0010
0000
0000
0000
,
0100
0010
1000
1001
,
0001
1000
0010
0100
,
0001
0000
0010
0000
0100
1000
1000
0000
,
0001
1000
0010
1000
,
1100
0000
1000
0000
0001
0100
0001
0000
,
0100
0000
0010
0000
1000
0001
1001
0000
,
0001
1000
0010
1000
,
0001
0010
0000
0100
,
0000
1000
0000
0010
,
0000
0000
0000
1001
0000
0000
0000
0000
,
0000
0000
0000
0000
,
0000
0000
0000
0000
,
0000
0000
0000
0000
0000
0000
0000
0110
,
0000
0000
0001
1000
,
0001
1000
0001
0001
,
0001
0000
1000
0001
,
1000
0001
1000
1000
,
1000
0000
0010
0100
,
0010
0100
0010
0010
,
0010
0000
0100
0010
,
1000
0001
1000
0100
,
0020
0000
0130
0100
,
1000
1100
1000
1000
,
0001
0101
0001
0001
,
0010
0110
0100
0100
,
1000
1100
1001
0110
,
1001
0110
1001
0110
,
1001
0002
1003
1000
,
1001
0110
1000
0100
,
0010
0001
0010
0000
0001
0000
0100
0000
,
0010
0000
1000
0001
1000
0000
0000
0000
,
0000
0001
1000
0100
,
0001
0100
1000
0010
,
0100
0000
0001
0000
0010
0000
0100
2000
,
0000
0001
3001
0000
1000
0000
0100
0000
,
0010
0010
0010
0000
0100
0000
1000
0000
,
0001
0010
0001
0100
,
0010
1000
0001
0010
,
1000
0010
1000
0001
,
1000
0100
0010
0100
,
1000
0010
0100
0001
,
1000
0100
1000
0001
,
0100
0001
0100
0000
0010
0000
1000
0000
,
0100
0000
0010
0001
0010
0000
0001
0000
,
0100
0000
0010
1000
0100
0000
0010
0000
,
0010
0100
1000
0001
,
1000
0010
0110
0000
,
0100
0001
1000
0100
,
1000
0010
1000
0001
,
0010
0100
0010
0011
,
0010
0001
0100
0000
,
0010
1000
0100
0110
,
0000
0000
0000
0000
0001
1000
0110
0000
;

//---------------dance-single - ----------------
#NOTEDATA:;
#CHARTNAME:;
#STEPSTYPE:dance-single;
#DESCRIPTION:;
#CHARTSTYLE:;
#DIFFICULTY:Medium;
#METER:11;
#RADARVALUES:0.417367,0.485786,0.368409,0.257030,0.004284,341.000000,298.000000,43.000000,30.000000,0.000000,0.000000,0.000000,0.000000,0.000000,0.417367,0.485786,0.368409,0.257030,0.004284,341.000000,298.000000,43.000000,30.000000,0.000000,0.000000,0.000000,0.000000,0.000000;
#CREDIT:Pandy G. Pamton;
#NOTES:
0000
0000
0000
0000
,
0000
0000
0000
0000
,
1000
0000
0100
0000
1000
0010
0001
0010
,
0000
0100
0001
0000
0010
0000
0100
0000
,
0011
0000
1000
0000
0001
0001
0001
0000
,
1000
0000
0001
0000
0100
0010
1000
0001
,
0010
0000
0100
0000
0010
0001
0100
1000
,
0100
0001
1000
0000
0001
0001
0001
0020
,
0000
0031
0100
0020
0000
0130
0001
0010
,
1000
0010
0001
1000
1001
0000
0000
0000
,
1000
0000
0100
0000
0010
0100
1100
0000
,
0100
0000
1000
0000
0010
0100
0100
0010
,
0100
0000
0001
0000
0010
0110
0110
0000
,
0010
0000
0001
0000
1000
0001
0100
0000
,
0101
0000
0001
0000
1000
0001
0010
0000
,
0100
0000
0010
0000
0001
0011
1100
0000
,
0100
1000
0010
0000
0100
0001
0010
0000
,
0100
0010
0001
1000
0000
0000
0001
0000
,
1000
0010
1000
0001
,
0010
0000
0100
2200
0000
0000
0000
0000
,
0000
0000
0000
0000
,
0000
0000
0000
0000
,
0000
0000
0000
0000
3300
0000
0000
0001
,
0000
0000
1000
0001
,
1000
0000
0001
0000
1000
0100
0010
0001
,
2000
3000
0001
1000
,
0001
0000
1000
0000
0001
0010
0100
1000
,
0002
0003
1000
0001
,
1000
0000
0001
0000
1000
0100
0010
0001
,
2000
3000
0002
0023
,
0230
0000
2300
0000
3001
0010
0100
2000
,
0002
0000
0000
3003
0101
0000
1010
0000
,
0001
0010
0011
0000
0110
0000
1100
0000
,
1000
0100
0110
0000
1100
0000
1010
0000
,
0010
0100
0101
0000
0011
0000
0110
0000
,
0100
0010
0011
0000
1001
0000
0110
0000
,
1001
0110
1001
0101
,
1002
0000
0203
0000
0301
0010
0010
0001
,
0110
0000
1001
0000
0001
0010
1000
0010
,
0001
0001
0001
0000
2000
0000
3002
0000
,
0203
0000
1300
0100
0002
0000
0100
0000
,
0103
0010
0100
0000
0010
0000
1001
1001
,
0001
0000
0010
0010
0100
0000
1000
0000
,
0100
0010
0001
1000
0001
0000
0010
0200
,
0000
0310
1001
0000
0001
0000
0010
0000
,
0100
0100
0100
0000
0010
0001
0100
0010
,
1000
0001
0010
0100
1000
0000
0100
0000
,
1000
0010
0201
0310
,
2100
3010
2001
3010
,
0201
0310
0021
0130
,
1020
0000
0130
0000
0001
1000
0010
1000
,
0001
0010
0100
1000
0001
0001
0001
0000
,
1000
0000
0001
0000
0100
0100
0100
0000
,
0001
0000
1000
0000
0010
0000
1000
0100
,
0010
0000
0011
1100
0100
0000
1000
0010
,
0100
0000
0010
0000
1000
0000
0001
0010
,
0100
0000
0010
0000
2200
3300
0000
0000
,
0100
0000
1000
0000
0010
0000
0100
0001
,
1000
0001
0010
0001
1000
0010
1000
0001
,
0010
0000
0100
0000
0010
0001
0100
0010
,
0000
1000
0000
0001
1000
0000
0001
0000
,
0010
0001
0100
0010
1000
0100
0010
0001
,
0000
0000
0000
0000
0000
0000
0000
0000
1000
0001
1000
0000
0220
0000
0000
0000
,
0330
0000
0000
0000
;

//---------------dance-single - ----------------
#NOTEDATA:;
#CHARTNAME:;
#STEPSTYPE:dance-single;
#DESCRIPTION:;
#CHARTSTYLE:;
#DIFFICULTY:Hard;
#METER:13;
#RADARVALUES:0.538539,0.619495,0.291300,0.162786,0.162786,440.000000,406.000000,34.000000,19.000000,0.000000,0.000000,0.000000,0.000000,0.000000,0.538539,0.619495,0.291300,0.162786,0.162786,440.000000,406.000000,34.000000,19.000000,0.000000,0.000000,0.000000,0.000000,0.000000;
#CREDIT:Pandy G. Pamton;
#NOTES:
0000
0000
0000
0000
,
0000
0000
0000
0000
0000
0000
0000
0000
0000
0000
0000
0000
0000
0000
0000
0000
0000
0000
0000
0000
0000
0000
0000
0000
0000
0000
0000
0000
0000
0000
0000
1000
,
0001
1000
1000
0001
0010
0001
0100
0002
,
0000
0000
0103
0000
0010
0000
1000
0000
0100
0000
0010
0000
0001
0000
0000
1000
,
0100
0000
0000
0010
0001
0000
0000
0010
0100
0000
1000
0000
1000
0000
0001
0000
,
0010
0000
1000
0000
0010
0000
0001
0000
1000
0010
1000
0001
0010
0001
1000
0000
,
0001
0000
0100
0000
0010
0000
1000
0000
0001
0010
0100
0000
1000
0000
0100
0000
,
1000
0000
0010
0000
0001
0000
0010
0000
1000
0010
1000
0010
0100
0000
0002
0000
,
0000
0013
0100
2000
0000
3100
0010
0001
,
0010
0100
0010
1001
0110
0000
0000
0000
,
0001
0100
0010
1000
0001
0010
0010
0001
,
0100
1000
0100
0001
0101
1010
1100
0100
,
1000
0000
0001
0100
0000
1000
0100
0000
0010
0000
0110
0000
0110
0000
1000
0000
,
0001
0010
0001
1000
0001
0100
0001
1100
,
0021
0000
0130
1000
0001
0100
1000
0100
,
0010
1000
0001
0010
0100
1100
0011
0001
,
1000
0000
0001
0100
0000
0010
1000
0001
0000
0001
0010
0000
0100
0000
0000
0000
,
0010
0000
0001
0000
0100
0000
0020
0000
0000
0000
0030
0000
1000
0000
0000
0001
,
0000
0010
0000
0000
0100
0000
0000
0100
,
0000
0100
0010
0002
0000
0000
0000
0000
,
0000
0000
0000
0000
,
0000
0000
0000
0000
,
0000
0000
0000
0000
0000
0000
0000
1003
,
0000
0020
0000
0000
0130
0000
0001
0000
,
0010
0001
1000
1000
,
1000
0001
0100
0001
,
1000
0100
1000
1000
,
1000
0001
1000
0010
,
1000
0001
0010
0010
,
0010
0000
0001
0000
0010
0100
1000
0100
,
0010
0001
0010
0100
0010
0001
0100
0002
,
2000
0000
0000
0003
3001
1000
0001
0001
,
0100
0010
1010
0000
1000
0010
0100
0001
,
0010
0100
0010
0001
1000
0100
0010
0100
,
1000
0010
0100
0001
0010
0001
0100
0001
,
1000
0100
0010
0001
0011
0000
1100
0000
,
0101
1100
0011
1100
,
1001
0000
0001
0000
0100
0010
1000
0001
,
0020
0000
0230
0000
1300
0100
0001
0100
,
1000
1000
1000
0000
0002
0000
0203
0000
,
2300
0000
3100
0001
0011
0000
0000
0000
,
0000
0100
0010
0001
1000
1000
0101
0101
,
0100
0100
0010
0010
1000
0010
0001
0010
,
1000
0000
0001
0000
0010
0000
0100
0000
0010
0000
0001
0000
1000
0000
0001
1000
,
0001
1000
0001
0000
0010
0000
0100
0000
0010
0000
0001
0000
1000
0000
0010
0000
,
0110
0101
0110
0000
0100
0100
0010
0010
,
1000
1000
0001
0001
1000
0100
0010
0001
,
1000
0100
0010
0001
2001
0000
0010
0000
,
0100
3001
1002
0100
,
0013
0000
0000
0001
1000
0000
0000
1000
0010
0000
0000
0010
0100
0000
0000
0100
,
0001
0000
0000
0001
1000
0000
0000
1000
0001
0000
0010
0000
1000
0000
0010
0000
,
0100
0010
0001
1000
0001
0001
0001
1000
,
0100
0001
0100
1000
0010
1000
0001
0010
,
1000
0010
0001
0100
0010
1000
1100
0011
,
1000
0100
0110
1001
1000
0001
0100
0110
,
0100
0000
0001
0000
1000
0000
0100
0000
0010
0000
0001
0100
0010
0000
1000
0000
,
0001
0000
1000
0000
0100
0000
0010
0100
2000
0000
0000
0000
3000
0000
0000
0000
,
0001
0000
1000
0000
0100
0000
0010
0000
0100
0000
1000
0010
0100
0000
0010
0000
,
1000
0000
0001
0100
0001
0100
0001
0000
1000
0100
1000
0100
1000
0000
0001
0000
,
1000
0000
0010
0000
0100
0000
0001
0000
0010
0000
0100
0010
0001
0000
1000
0000
,
0000
0000
0101
0000
0000
0000
1000
0000
1000
0000
0000
1000
0000
0000
1000
0000
,
0001
0000
0010
0000
0100
0000
0010
0000
0001
0000
1000
0100
0010
0000
0100
0000
,
1000
0100
1000
0000
0001
0100
0001
0000
0100
0010
1000
0000
0202
0000
0303
0000
;

//---------------dance-single - ----------------
#NOTEDATA:;
#CHARTNAME:;
#STEPSTYPE:dance-single;
#DESCRIPTION:;
#CHARTSTYLE:;
#DIFFICULTY:Challenge;
#METER:16;
#RADARVALUES:0.739267,0.890608,0.274165,0.634007,0.783941,604.000000,572.000000,32.000000,74.000000,56.000000,0.000000,3.000000,0.000000,0.000000,0.739267,0.890608,0.274165,0.634007,0.783941,604.000000,572.000000,32.000000,74.000000,56.000000,0.000000,3.000000,0.000000,0.000000;
#CREDIT:Pandy G. Pamton;
#DISPLAYBPM:*;
#NOTES:
0000
0000
0000
0000
,
0000
0000
0000
0000
0000
0000
0000
0000
0000
0000
0000
0000
0000
0000
0000
0000
0000
0000
0000
0000
0000
0000
0000
0000
0000
0000
0000
0000
0000
0000
0000
0001
,
1010
0000
1000
0010
0100
0000
0001
0000
0010
0000
0001
0000
1000
0000
0002
0000
,
0000
0000
0013
0001
0100
0001
1000
0000
0010
0100
0010
1000
0010
0100
0000
0001
,
1000
0100
0010
0100
1000
0001
1000
0001
0100
0001
0100
0010
1000
0001
0100
0010
,
1000
0001
0010
0100
0010
0001
1000
0001
2000
3200
0302
0203
2300
3002
1003
0000
,
0100
0010
0100
0010
0001
0000
1000
0000
0200
0320
0032
0003
0200
0000
0320
0000
,
2030
0000
3002
0000
0010
0000
0010
0000
0013
0100
1000
0100
0010
0000
0002
0000
,
0000
0013
0100
0010
0001
1000
0002
0000
0000
0000
0103
0001
1000
0100
1000
0001
,
0010
0000
0000
0100
0000
0000
1000
0000
0000
0001
0000
0000
1000
0000
0000
0000
0000
0000
0100
0000
0000
0000
0000
0000
1001
0000
0000
0001
0000
0000
1000
0000
0000
0001
0000
0000
0400
0000
0004
0000
0000
0000
0000
0000
0303
0000
0000
0000
,
1000
0100
0010
0001
0010
0100
0010
0001
1000
0000
0001
0100
1000
0000
0100
0000
,
0010
0000
0100
0001
0010
0001
1000
0100
0010
0000
1100
0000
1010
0000
0010
0000
,
0100
0000
0001
0010
0000
0100
0010
0000
0001
0000
1001
0000
1001
0000
1000
0100
,
1000
0000
0100
0010
0100
1000
0010
0100
0001
0000
1000
0000
0010
0000
0100
0000
,
0001
0000
0010
0000
0100
0010
0001
0010
0100
0000
1000
0000
1001
0000
0001
0000
,
0100
0001
0010
0001
1000
0100
1000
0010
1000
0001
0020
0000
0230
0000
1300
0100
,
0010
0001
1000
0001
0000
0100
0010
1000
0000
0001
0010
0000
0100
0000
0000
0000
,
0010
0001
0100
0010
1000
0000
2002
0000
0000
3003
0000
0000
0110
0000
0000
0100
,
0000
0001
0000
0000
0010
0000
0000
0010
,
0000
0010
0100
0000
MMMM
0000
MMMM
0000
,
MMMM
MMMM
MMMM
MMMM
,
MMMM
MMMM
MMMM
MMMM
,
MMMM
0000
MMMM
0000
MMMM
0000
MMMM
0102
,
0000
0000
1003
0001
1000
0000
0100
0000
,
0010
0000
0100
0000
1000
0010
0100
0010
,
1000
0001
1000
0100
,
1000
0000
0001
0000
0010
0001
0100
0001
,
1000
0001
1000
1000
,
0001
0000
0001
0000
0100
0001
0010
0001
,
1000
0000
0001
0000
2000
3200
0302
0203
,
2300
3020
0032
0023
2030
3020
0230
0302
,
2000
0000
0000
0000
0000
0000
0000
3003
0001
0100
0001
0010
0001
1000
0001
1000
,
0100
0010
0001
1000
0001
0000
0000
0000
1000
0010
1000
0010
0100
0010
1000
0010
,
0100
0001
0010
0100
1000
0000
0100
1000
0010
0100
0010
1000
0010
0100
0001
0010
,
0100
1000
0100
1000
0001
0000
0100
0001
0100
0010
1000
0001
0100
0010
1000
0001
,
0100
0001
0010
0100
1000
0000
0001
0000
1200
0000
0000
0000
0001
0000
0000
0000
,
2300
0000
3020
0000
0002
0003
2000
3000
,
0200
0000
0330
0000
2001
0000
0000
0000
3001
0010
0100
1000
0001
0000
0010
0000
,
1001
0000
0000
0000
0110
0000
0000
0000
0001
0000
0001
0100
0010
0000
0100
0000
,
0020
0000
2030
0000
3002
0000
0010
0000
0013
0100
0010
0000
0100
0000
1000
0010
,
0100
0000
0001
0000
1000
0001
1000
0001
0100
0000
0002
0003
1000
0002
0000
0000
,
0013
0000
0001
0000
1000
0100
1000
0001
2001
0000
3010
0000
1002
0000
0103
0000
,
0021
0000
0130
0000
2100
0000
3010
0000
0110
0000
0001
0000
0100
0000
0010
0100
,
0001
0000
0010
0000
1000
0010
0001
0000
0001
0010
1000
0010
0001
0000
4000
0000
,
0000
0000
3010
0100
0010
0000
0010
0100
0010
1000
0010
0100
0001
0010
0100
1000
,
0001
0000
1000
0000
0110
0000
0000
0000
0001
0001
0100
0010
0100
0100
0010
1000
,
0001
0001
0010
0100
0010
0010
0001
1000
0010
0100
0010
0100
0010
0100
0010
0100
,
0001
1000
0001
1000
0001
0100
0010
1000
0001
0000
1000
0100
0010
0001
0010
0100
,
0010
0001
0100
0001
2000
0000
3010
0000
0002
0000
0013
0100
1000
0000
0100
0010
,
0001
0000
0010
0001
0101
0000
0010
1000
1100
0000
0010
0100
1000
0100
0000
0010
,
0011
0000
1000
0001
0100
0000
1020
0000
0130
0000
0021
0000
0130
0000
2001
0000
,
3002
0000
0203
0000
2300
0000
0200
3300
1100
0000
0101
0000
1001
0000
1000
0100
,
1000
0000
0100
0000
0010
0000
0001
0000
1000
0000
0010
0100
0001
0010
0100
1000
,
0001
0000
0001
0100
0010
0000
0100
0000
0010
0000
0010
0100
0001
0000
0010
0000
,
0100
0000
1000
0010
0220
0330
2002
3003
1000
0000
0010
1000
0001
0000
1000
0000
,
0001
0000
0001
0010
0100
0000
0100
0010
0001
0000
1000
0010
0100
0000
1001
0000
,
1000
0000
0000
0100
0000
0000
0010
0000
0000
0001
0000
0000
0010
0001
0200
0000
0000
0000
0300
0000
0000
0000
0000
0000
,
0010
0000
0010
0100
0001
0000
0001
1000
0100
0000
0100
1000
0002
0000
2003
0000
,
3010
0000
0001
0010
1000
0010
0001
1000
0001
0010
1000
0010
0001
0000
1000
0000
,
0001
0000
0001
0100
0010
0000
0010
1000
0100
0000
0100
1000
0020
0000
0230
0000
,
0301
0000
1000
0000
0000
0000
0100
0000
1000
0000
0000
1000
0000
0000
1000
0000
,
0001
0000
1000
0010
0100
0000
0100
0010
1000
0000
1000
0001
0020
0000
0230
0000
,
1300
0001
1000
0000
0001
1000
0001
0000
0020
0230
2300
0000
0002
0000
0000
0000
,
3003
0000
0000
0000
;
