#TITLE:year of the wanter;
#SUBTITLE:;
#ARTIST:hell orbs;
#TITLETRANSLIT:;
#SUBTITLETRANSLIT:;
#ARTISTTRANSLIT:;
#GENRE:;
#CREDIT:;
#BANNER:year of the wanter.png;
#BACKGROUND:year of the wanter-bg.png;
#LYRICSPATH:;
#CDTITLE:;
#MUSIC:year of the wanter.mp3;
#OFFSET:-0.224000;
#SAMPLESTART:35.769608;
#SAMPLELENGTH:12.000000;
#SELECTABLE:YES;
#BPMS:0.000000=169.000000
;
#STOPS:
;
#BGCHANGES:;
#KEYSOUNDS:;
#ATTACKS:;

//---------------dance-single - ----------------
#NOTES:
     dance-single:
     :
     Hard:
     14:
     0.608428,0.756132,0.226769,0.269288,0.155903,601.000000,569.000000,32.000000,38.000000,0.000000,0.000000,0.608428,0.756132,0.226769,0.269288,0.155903,601.000000,569.000000,32.000000,38.000000,0.000000,0.000000:
0000
0000
0000
0000
,
0000
0000
0000
0000
,
0000
0000
0000
0000
,
0000
0000
0000
0000
,
0000
0000
0000
0000
,
0000
0000
0000
0000
,
0000
0000
0000
0000
,
0000
0000
0000
0000
,
0000
0000
0000
0000
,
2000
0000
0000
0000
3010
0000
1000
0001
0010
0000
0010
0000
0100
0000
0010
0000
,
0002
0000
0000
0000
1003
0000
0001
0100
0010
0000
1000
0000
0100
0000
0100
0000
,
0200
0000
0000
0000
0310
0000
0001
0100
0010
0000
0100
0000
0001
0000
1000
0000
,
0020
0000
2030
0000
3001
0100
0101
0000
,
1200
0000
0000
0000
0310
0000
0001
0010
0100
0000
0010
0000
0001
0000
1000
0000
,
0200
0000
0000
0000
0310
0000
0001
0100
0001
0000
1000
0000
0010
0000
0100
0000
,
0001
1000
0100
0000
1000
0001
0100
0000
,
0202
0000
0303
0000
2020
0000
3030
0000
0001
0010
0100
1000
0001
0000
0000
0000
,
0100
0000
0100
0000
0100
0010
0100
0010
,
0100
1000
0100
1000
0100
0001
0100
0000
,
0010
0000
0010
0000
0010
1000
0010
1000
,
0010
0001
0010
0000
0010
1000
0010
0000
,
0100
0010
0100
0000
0100
1000
0100
0000
,
0100
0001
0010
0100
0010
0000
0010
0001
,
2000
0100
0100
3100
,
0002
0010
0010
0013
,
0001
0110
1000
0110
,
0001
0101
0010
1100
,
0001
0011
0100
1010
,
0100
0000
1001
0000
0001
1000
0100
1000
,
0001
0010
0001
0010
0100
1000
0100
1000
,
0001
0100
0001
0100
0010
1000
0010
1000
,
0002
0000
2003
0000
3001
0010
0100
1000
,
0010
0000
0100
0000
0010
0000
0100
0000
0001
1000
0001
1000
0001
1000
0001
1000
,
0001
0010
1000
0000
0001
0100
1000
0000
,
1000
0010
0001
0000
1000
0100
0001
0000
,
1000
0100
0010
0000
0001
0100
0010
0000
,
0110
1010
0101
1010
,
0001
0010
0100
0000
0010
0100
1000
0000
,
1000
0010
0100
0000
0010
0100
0001
0000
,
1000
0001
0100
0000
0100
0010
1000
0000
,
0001
0010
0100
0010
0001
0010
0100
1000
,
0001
0100
0001
1000
0001
0100
0001
1000
,
0010
1000
0100
1000
0010
0100
1000
0100
,
0001
0010
0100
0010
0001
1000
0000
0000
,
0011
1100
0101
1010
,
0001
0010
0002
0000
1003
0100
0020
0000
,
0130
0001
2000
0000
3010
0001
0200
0000
,
0301
0010
0100
1000
0001
0100
0010
1000
,
0001
0000
0100
0000
0010
0000
0100
0000
0010
1000
0010
1000
0010
1000
0010
1000
,
0001
0100
0000
0010
1000
1000
0000
0010
,
0100
0000
0000
0000
0001
0000
1000
0000
0000
0000
0001
0010
0000
0000
0000
0000
,
0100
1000
0000
0001
1000
0100
0000
1000
,
0010
0000
0000
0000
0200
0000
0000
0000
0301
0010
0001
0010
0001
0000
1000
0000
,
0010
0100
0000
0001
0100
0010
0000
1000
,
0001
0000
0100
0001
0000
0010
0010
0000
,
0200
0000
0000
2300
0000
0000
3020
0000
,
0130
0000
0001
0000
0010
0100
0010
0100
0010
0000
0001
0000
1000
0000
0000
0000
,
1010
0001
0100
0001
1000
0010
0100
0100
,
0001
0000
0000
0000
0010
0000
0100
0000
0000
0000
0010
0001
0000
0000
0000
0000
,
1000
0100
0010
0001
1000
0010
0100
0100
,
0001
0000
0000
0000
0002
2000
0003
3000
0010
0100
0010
0100
0010
0100
0010
0100
,
0001
2000
0000
3100
2000
0000
3010
2000
,
0000
3100
2000
0000
3010
1000
0100
1000
,
0001
0020
0000
0130
0020
0000
0032
2000
,
0000
0000
0000
3003
,
0001
0000
0100
0010
1000
0000
0001
0000
0010
0000
0100
0000
0010
0000
0010
0000
,
0001
0000
1000
0001
0100
0000
0010
0000
1000
0000
0010
0000
0100
0000
0000
0000
,
0001
0000
1000
0001
0010
0000
0100
0000
0010
0000
0001
0000
1000
0000
1000
0000
,
0010
0000
0100
0010
1000
0000
0001
0000
0010
0000
0100
0000
1000
0000
0000
0000
,
0001
0000
1000
0100
1000
0000
0001
0000
0100
0000
0010
0000
1000
0000
1000
0000
,
0001
0000
0010
0100
0010
0000
0001
0000
1000
0000
0000
0000
0110
0000
0000
0000
,
0001
0000
0100
0001
1000
0000
0100
0000
1000
0000
0010
0000
0100
0000
0100
0000
,
0001
0000
0011
0100
0000
1010
0100
0000
,
0001
0000
1000
0100
0010
0000
0100
0000
1000
0000
0001
0000
0100
0000
0001
0000
,
0010
0000
0100
0010
0001
0000
1000
0000
0010
0000
0000
0000
1010
0000
0000
0000
,
0100
0000
0001
1000
0100
0000
0010
0000
0001
0000
1000
0000
0010
0000
1000
0000
,
0100
0000
0010
0001
0100
0000
0010
0000
1000
0000
0001
0000
1000
0000
0000
0000
,
0001
0000
0100
0001
0010
0000
1000
0000
0010
0000
0001
0000
1000
0000
1000
0000
,
0001
0000
0010
0001
0100
0000
1000
0000
0100
0000
0001
0000
0010
0000
0000
0000
,
0100
0000
1000
0010
0100
0000
1000
0000
0100
0000
0001
0000
0010
0000
0010
0000
,
0110
0000
0000
0000
0001
0000
1000
0000
0010
0100
0010
0100
0010
0100
0010
0100
,
0002
0000
0000
0000
,
1003
0100
0010
0000
1001
0000
0001
0100
,
0010
0000
0010
0100
0001
0100
0010
0000
,
1010
0110
0101
0000
,
1000
0000
0100
0010
0001
0010
0001
1000
,
0000
0010
0100
0010
1000
0000
0000
0000
,
0001
0100
0010
0010
0010
1000
0010
0000
,
0100
0001
0100
0010
0000
0110
0000
0000
,
0001
0000
1000
0001
0000
1000
0001
0000
,
0100
0000
0010
0100
0000
0010
0100
0100
,
0100
0000
0001
0010
0000
0001
0010
0000
,
0100
1000
0010
0010
0010
0100
0001
0000
,
1000
0000
0100
1000
0000
0100
1000
0100
,
0010
0000
0001
0100
0000
0001
0100
0000
,
0220
0000
0330
2002
,
0000
0000
0000
0000
,
3003
0000
0000
0000
;

//---------------dance-single - ----------------
#NOTES:
     dance-single:
     :
     Challenge:
     16:
     0.731936,0.926784,0.538575,0.276374,0.294091,723.000000,647.000000,76.000000,39.000000,20.000000,0.000000,0.731936,0.926784,0.538575,0.276374,0.294091,723.000000,647.000000,76.000000,39.000000,20.000000,0.000000:
// measure 0
0000
0000
0000
0000
,  // measure 1
0000
0000
0000
0000
,  // measure 2
0000
0000
0000
0000
,  // measure 3
0000
0000
0000
0000
,  // measure 4
0000
0000
0000
0000
,  // measure 5
0000
0000
0000
0000
,  // measure 6
0000
0000
0000
0000
,  // measure 7
0000
0000
0000
0000
,  // measure 8
0000
0000
0000
0000
,  // measure 9
1200
0000
0000
0000
0310
0000
0001
0010
0100
0000
0010
0000
0001
1000
0001
1000
,  // measure 10
0020
0000
0130
0101
0010
1000
1100
1100
,  // measure 11
0120
0000
0000
0000
0031
0000
1000
0010
0100
0000
0001
0000
1000
0100
0001
0100
,  // measure 12
0002
0000
0103
0101
0000
0020
0200
0330
,  // measure 13
1001
0000
0110
0000
0000
0000
0001
1000
0100
0000
0010
0000
1000
0010
0100
0010
,  // measure 14
0001
1000
0001
0100
0001
0000
1001
1001
,  // measure 15
0001
1000
0100
1000
0001
0100
0010
1000
,  // measure 16
1010
0000
0000
0000
0020
0000
0000
0000
1030
0100
0010
0001
1000
0000
0010
0000
,  // measure 17
1000
0000
1000
0001
1000
0010
1000
0100
,  // measure 18
1000
0001
1000
0000
1000
0001
1000
0000
,  // measure 19
0001
0000
0001
1000
0001
0100
0001
0010
,  // measure 20
0001
1000
0001
0000
0001
0010
0100
1000
,  // measure 21
0100
0010
0100
0000
0100
1000
0100
0100
,  // measure 22
0010
0001
0010
0100
0010
0000
0010
0100
,  // measure 23
1000
0000
1000
0001
1000
0010
1000
0100
,  // measure 24
1100
0000
0000
0000
0011
0000
0000
0000
1000
0100
0010
0001
1000
0000
0020
0000
,  // measure 25
0031
0010
1010
0000
1000
0100
0101
0000
,  // measure 26
0001
0010
1010
0000
1000
0100
0101
0000
,  // measure 27
0100
1000
1010
0000
0010
0001
0101
0000
,  // measure 28
0100
1000
1010
0000
0010
0001
0101
0000
,  // measure 29
0100
0010
1010
0000
0010
1000
1100
0000
,  // measure 30
0100
0010
0011
0000
0010
0001
0101
0000
,  // measure 31
0001
1000
0001
1000
0010
0100
0010
0100
,  // measure 32
0101
0000
1001
0000
1100
0000
1001
0000
0001
1000
0001
1000
0010
0100
0010
0100
,  // measure 33
0001
0100
0001
0100
0010
0100
0010
0100
,  // measure 34
1000
0100
1000
0100
0010
0100
0010
0100
,  // measure 35
0001
0010
0001
0010
0100
0010
0100
0010
,  // measure 36
1000
0010
0001
0000
1010
0000
0101
0000
,  // measure 37
1000
0100
1000
0100
0010
0100
0010
0100
,  // measure 38
0001
0100
0001
0100
0010
0100
0010
0100
,  // measure 39
1000
0100
0010
0100
1000
0100
0001
0100
,  // measure 40
0100
0010
0001
0000
1001
0001
0101
0000
,  // measure 41
2000
0000
3001
0010
1000
0010
0001
0010
,  // measure 42
2000
3000
0002
0003
0100
0010
0001
1000
,  // measure 43
0010
0100
0010
0100
0001
1001
0000
0000
,  // measure 44
0100
0001
0011
0000
0100
1000
1001
1000
,  // measure 45
0100
0000
0110
0000
0001
0100
0010
0000
,  // measure 46
1010
0000
0100
0000
0101
0000
0010
0000
1000
0000
0100
0000
0010
0001
0010
0000
,  // measure 47
0100
0010
0001
1000
0100
0010
0001
1000
,  // measure 48
1010
0000
1001
0000
0011
0000
1001
0000
0001
0010
0100
1000
0001
0010
0100
1000
,  // measure 49
0010
0010
0000
0100
0001
0010
0010
0100
,  // measure 50
1000
0000
0000
0000
0001
0000
1000
0000
0000
0000
0010
0100
0000
0000
0000
0000
,  // measure 51
1010
0000
0000
1000
0001
0100
0100
0010
,  // measure 52
1000
0000
0000
0000
0002
2000
0003
3000
0100
0010
0100
0010
0001
1000
0100
0010
,  // measure 53
0001
1000
0000
0001
0100
0010
0000
1000
,  // measure 54
0001
0000
0011
0100
0000
1010
0100
0000
,  // measure 55
0001
2000
0000
3010
0200
0000
0310
1000
,  // measure 56
0100
0000
0000
0000
0000
0000
0100
0000
0000
0000
0000
0000
0010
0000
0000
0001
0000
0000
0100
0000
0000
1000
0000
0000
0100
0000
0000
0000
0000
0000
0001
0000
0010
0000
0100
0000
1000
0000
0000
0000
0000
0000
0001
0000
0000
0000
0000
0000
,  // measure 57
0110
0000
0100
1000
0001
0000
0100
0000
0010
0100
0001
0000
001M
0000
M010
0000
,  // measure 58
1000
0000
0100
0010
0100
0000
1000
0000
0010
0000
0101
0000
0010
0000
0000
0000
,  // measure 59
0011
0000
0001
1000
0010
0000
0100
0000
0001
1000
0001
0000
010M
0000
M100
0000
,  // measure 60
1000
0000
0010
1000
0100
0010
0100
0000
1000
0100
0010
0001
1000
0100
1000
0001
,  // measure 61
0200
0010
0300
0200
0010
0300
2000
0100
,  // measure 62
3000
0000
2000
0000
0100
0000
3000
0000
0100
0010
0100
0010
0001
0000
1000
0000
,  // measure 63
0020
0100
0030
0020
0100
0030
0002
2000
,  // measure 64
0000
0000
0000
0000
0000
0000
0000
0000
0000
0000
0000
0000
3003
0000
0000
1000
0100
0010
0001
0000
0000
1000
0000
0000
,  // measure 65
1001
0000
0001
0100
0010
0000
1000
0000
0100
0010
0100
0000
1M00
0000
10M0
0000
,  // measure 66
0100
0001
1001
0101
0010
1010
1001
0000
,  // measure 67
0011
0000
1000
0001
0010
0000
0100
0000
1000
0100
0010
0000
00M1
0000
0M01
0000
,  // measure 68
0100
0000
0010
0000
0001
1000
0001
0000
0100
0010
0100
0010
1000
0000
0001
0000
,  // measure 69
0101
0000
0010
0000
1010
0000
0002
0000
0013
0100
0010
0000
1000
0000
0001
0000
,  // measure 70
0201
0000
0310
0000
0001
0000
1010
0000
0010
0100
0010
0000
1000
0000
0000
0000
,  // measure 71
1100
0000
0001
1000
0100
0000
0001
0000
0100
0010
0001
0000
1000
0000
0001
0000
,  // measure 72
1001
0000
0000
0000
0101
0000
0100
0010
0001
0010
1000
0000
0010
1000
0100
0000
,  // measure 73
1100
0000
1000
0001
0100
0000
0010
1000
0010
0100
0001
0000
001M
0000
M010
0000
,  // measure 74
1000
0000
0100
0010
0100
0000
1000
0000
0001
0000
1100
0000
0101
0000
0000
0000
,  // measure 75
0011
0000
1000
0010
0100
0000
0001
0010
0100
0010
0001
0000
001M
0000
M010
0000
,  // measure 76
1000
0000
0001
0100
0001
0000
1000
0000
0100
0010
0100
1000
0100
0010
0001
1000
,  // measure 77
0010
0000
0110
0000
0001
0000
1000
0000
0100
0010
0100
0000
10M0
0000
1M00
0000
,  // measure 78
0100
0000
0001
0010
0100
0000
0010
0000
0001
1000
0001
0000
0100
0000
0000
0000
,  // measure 79
0011
0000
0010
0100
1000
0000
0100
0010
0001
0010
0100
0000
00M1
0000
0M01
0000
,  // measure 80
0101
0000
0000
0000
1100
0000
1001
0000
1000
0100
0010
0001
1000
0100
0010
0001
,  // measure 81
2000
0000
0000
0000
,  // measure 82
3010
0100
0010
0000
0110
0000
0010
1000
,  // measure 83
0200
0000
0310
0001
1000
0001
0020
0000
,  // measure 84
0031
1100
0011
0000
,  // measure 85
0201
0000
0310
1000
0010
0100
0001
2000
,  // measure 86
0000
3100
0010
0001
1000
0000
0000
0000
,  // measure 87
1000
0020
0100
0100
0130
0001
0010
0000
,  // measure 88
0001
0010
0100
1000
0000
0001
0000
0000
,  // measure 89
0200
0000
0010
0000
0000
0310
2000
0000
,  // measure 90
0100
0000
0000
0100
0000
0000
3100
0000
,  // measure 91
0020
0000
0001
0000
0000
0001
0000
0000
,  // measure 92
0031
0200
0010
0010
0310
1000
0100
0000
,  // measure 93
0020
0000
0001
0000
0000
0031
0200
0000
,  // measure 94
0310
1000
0010
0100
0000
0101
0010
0000
,  // measure 95
2000
0000
0000
0002
,  // measure 96
0000
0000
0000
0000
0000
0000
3003
MMMM
;
