#VERSION:0.83;
#TITLE:skymie;
#SUBTITLE:;
#ARTIST:MN XenX ~Xephyr~;
#TITLETRANSLIT:;
#SUBTITLETRANSLIT:;
#ARTISTTRANSLIT:;
#GENRE:HAPPY HARDCORE;
#ORIGIN:;
#CREDIT:;
#BANNER:skymie.png;
#BACKGROUND:skymie-bg.png;
#PREVIEWVID:;
#JACKET:skymie-jacket.png;
#CDIMAGE:;
#DISCIMAGE:;
#LYRICSPATH:;
#CDTITLE:cdtitle.png;
#MUSIC:skymie.ogg;
#OFFSET:-0.033628;
#SAMPLESTART:50.627998;
#SAMPLELENGTH:11.676000;
#SELECTABLE:YES;
#BPMS:0.000=185.003;
#STOPS:;
#DELAYS:;
#WARPS:;
#TIMESIGNATURES:0.000=4=4;
#TICKCOUNTS:0.000=4;
#COMBOS:0.000=1;
#SPEEDS:0.000=1.000=0.000=0;
#SCROLLS:0.000=1.000;
#FAKES:;
#LABELS:0.000=Song Start;
#BGCHANGES:;
#KEYSOUNDS:;
#ATTACKS:
;

//---------------dance-single - ----------------
#NOTEDATA:;
#CHARTNAME:;
#STEPSTYPE:dance-single;
#DESCRIPTION:;
#CHARTSTYLE:;
#DIFFICULTY:Challenge;
#METER:15;
#RADARVALUES:0.778631,1.008997,0.211530,0.225632,0.416009,773.000000,743.000000,30.000000,32.000000,0.000000,0.000000,0.000000,0.000000,0.000000,0.778631,1.008997,0.211530,0.225632,0.416009,773.000000,743.000000,30.000000,32.000000,0.000000,0.000000,0.000000,0.000000,0.000000;
#CREDIT:TonyAkita;
#NOTES:
// measure 0
0000
0000
0000
0000
,  // measure 1
0000
0000
0000
0000
,  // measure 2
0000
0000
0000
0000
,  // measure 3
0000
0000
0000
0000
,  // measure 4
1000
0001
0010
0001
1000
0001
0010
0001
,  // measure 5
1000
0010
0001
0010
1000
0010
0100
0001
,  // measure 6
1000
0001
0010
0001
1000
0001
0010
0001
,  // measure 7
1000
0000
0010
0000
0001
0000
0010
0000
0100
0001
0000
0000
1000
0100
0000
0000
,  // measure 8
0010
0001
1000
0001
0010
0001
1000
0001
,  // measure 9
0100
1000
0100
0001
0100
1000
0100
0010
,  // measure 10
1010
1000
0001
0000
0011
0001
1000
0000
,  // measure 11
0001
0100
0000
0000
1000
0100
0000
0000
0010
1000
0000
0000
0001
0000
0010
0100
,  // measure 12
1000
0000
0001
0000
0100
0000
0010
0100
0010
0000
0001
0000
0010
0000
1000
0000
,  // measure 13
0001
0010
1000
0010
0001
0010
0100
1000
,  // measure 14
0001
0100
1000
0100
0001
0100
0010
1000
,  // measure 15
0001
0000
0010
0000
1000
0000
0010
0000
0100
1000
0000
0000
0001
0100
0000
0000
,  // measure 16
0010
0000
1000
0000
0010
0000
0100
0010
0100
0000
1000
0000
0100
0000
0001
0000
,  // measure 17
1000
0100
0001
0100
1000
0100
0010
0001
,  // measure 18
0011
0001
1000
0001
1001
1000
0001
1000
,  // measure 19
0100
1000
0100
1000
0100
0001
0100
0001
0100
0010
0100
0010
0001
1000
0001
1000
,  // measure 20
0002
0000
0000
0003
,  // measure 21
1000
0000
0001
0000
1000
0000
0001
0000
0010
0100
0010
0100
0010
0000
0000
0000
,  // measure 22
0002
0000
0023
0000
,  // measure 23
0230
0000
2300
0000
,  // measure 24
3020
0000
0230
0000
,  // measure 25
0302
0000
2003
0000
,  // measure 26
3002
0000
0023
0000
,  // measure 27
0230
0000
2300
0000
,  // measure 28
3002
0000
0203
0000
,  // measure 29
0310
1000
0000
0000
0001
0010
0000
0000
0100
1000
0000
0000
0001
0100
0000
0000
,  // measure 30
1010
0000
0010
0000
0100
0000
0001
0100
0000
0001
0100
0000
0000
0000
0001
1000
,  // measure 31
0100
0000
0010
0000
0001
0000
1000
0001
0000
1000
0001
0000
0010
0000
0001
0000
,  // measure 32
0011
0000
0010
0000
0100
0000
1000
0100
0000
1000
0100
0000
0000
0000
1000
0001
,  // measure 33
0100
1000
0000
0000
0100
0001
0000
0000
0100
0010
0000
0000
1000
0001
0000
0000
,  // measure 34
0011
0000
0001
0000
1000
0000
0100
0010
0000
0100
0010
0000
0000
0000
0100
0000
,  // measure 35
1100
0000
1000
0000
0001
0000
0100
0010
0000
0100
0010
0000
1000
0000
0001
0000
,  // measure 36
0011
0001
1000
0000
1010
1000
0001
0000
,  // measure 37
0101
0000
1100
0000
0001
1000
0001
1000
,  // measure 38
0020
0000
0000
0000
,  // measure 39
1030
0000
1000
0000
0001
0000
0001
0000
0010
0100
0010
0100
0010
0000
0000
0000
,  // measure 40
0001
0000
0010
0000
1000
0000
0010
0100
1000
0000
0100
0000
0001
0000
0100
1000
,  // measure 41
0001
0000
0100
0000
1000
0000
0100
0000
0001
0000
0100
0000
0010
1000
0010
0000
,  // measure 42
1000
0000
0010
0000
0001
0000
0010
0100
0001
0000
0100
0000
1000
0000
0100
0001
,  // measure 43
1000
0000
0100
0000
0001
0000
0100
0000
0010
0001
0000
0000
1000
0010
0000
0000
,  // measure 44
0001
0000
0010
0000
1000
0000
0010
0100
0001
0000
0100
0000
1000
0000
0100
0001
,  // measure 45
1000
0100
0001
0100
0010
0001
1000
0010
,  // measure 46
0100
0001
0010
0001
0100
0010
1000
0000
,  // measure 47
1010
1001
0011
0110
,  // measure 48
1000
0100
0010
0100
1000
0001
0100
0010
,  // measure 49
1000
0001
0000
0000
0001
1000
0000
0000
1000
0010
0000
0000
0010
0100
0000
0000
,  // measure 50
0001
0100
0010
0100
0001
1000
0100
0010
,  // measure 51
0001
0010
0001
0000
1000
0001
1000
0000
0010
1000
0010
1000
0010
0000
0100
0000
,  // measure 52
0001
0100
0010
0100
0001
1000
0100
0010
,  // measure 53
0001
0010
1000
0010
0100
1000
0001
0100
,  // measure 54
0010
1000
0010
1000
0010
0001
0010
0001
,  // measure 55
0010
1000
0010
1000
0001
0010
0001
0010
0100
1000
0100
1000
0001
0100
0001
0100
,  // measure 56
0010
0000
0000
1010
0000
0000
0000
0001
,  // measure 57
0010
0000
0000
0011
0000
0000
0100
0000
,  // measure 58
1000
0000
0000
1100
0000
0000
0000
0001
,  // measure 59
0100
0000
0000
0101
0000
0000
0010
0000
,  // measure 60
1000
0010
1000
0010
0000
0100
0001
0000
,  // measure 61
0101
0000
0000
1100
0000
0000
1001
0000
,  // measure 62
0001
0010
0001
0010
0000
0100
1000
0000
,  // measure 63
0001
0000
1000
0000
0001
0000
1000
0000
0010
0100
0001
0000
0100
0000
0010
1000
,  // measure 64
0002
0000
0010
0013
0000
0001
1000
0000
,  // measure 65
0010
0100
0001
0100
0010
0000
1000
0000
,  // measure 66
2000
0000
0010
3010
0000
1000
0001
0000
,  // measure 67
0010
0100
1000
0100
0010
0000
0001
0000
,  // measure 68
2000
0000
0001
3001
0000
1000
0010
0000
,  // measure 69
0100
0001
0100
0010
1000
0000
0001
0000
,  // measure 70
1000
0001
1000
0001
0010
0100
0010
0100
,  // measure 71
1000
0100
1000
0000
0001
0100
0001
0000
0100
0010
0100
0010
1000
0001
1000
0001
,  // measure 72
0020
0000
0000
0030
,  // measure 73
0001
0000
0001
0000
1000
0000
1000
0000
0010
0100
0010
0100
0010
0000
0000
0000
,  // measure 74
1000
0000
0010
0000
0001
0000
0010
0100
0001
0000
0100
0000
1000
0000
0100
0001
,  // measure 75
1000
0000
0100
0000
0001
0000
0100
0000
1000
0000
0100
0000
0010
0001
0010
0000
,  // measure 76
0001
0000
0010
0000
1000
0000
0010
0100
1000
0000
0100
0000
0001
0000
0100
1000
,  // measure 77
0001
0000
0100
0000
1000
0000
0100
0000
0010
1000
0000
0000
0001
0010
0000
0000
,  // measure 78
1000
0000
0010
0000
0001
0000
0010
0100
1000
0000
0100
0000
0001
0000
0100
1000
,  // measure 79
0001
0100
1000
0100
0010
1000
0001
0010
,  // measure 80
0100
1000
0010
1000
0100
0010
0001
0000
,  // measure 81
0011
1001
1010
0110
,  // measure 82
0001
0100
0010
0100
0001
1000
0100
0010
,  // measure 83
0001
1000
0000
0000
1000
0001
0000
0000
0001
0010
0000
0000
0010
0100
0000
0000
,  // measure 84
1000
0100
0010
0100
1000
0001
0100
0010
,  // measure 85
1000
0010
1000
0000
0001
1000
0001
0000
0010
0001
0010
0001
0010
0000
0100
0000
,  // measure 86
1000
0100
0010
0100
1000
0001
0100
0010
,  // measure 87
1000
0010
0001
0010
0100
0001
1000
0100
,  // measure 88
0010
0001
0010
0001
0010
1000
0010
1000
,  // measure 89
0010
0001
0010
0001
1000
0010
1000
0010
0100
0001
0100
0001
1000
0100
1000
0100
,  // measure 90
0020
0001
0031
1000
0020
0100
0130
0001
,  // measure 91
1000
0100
0001
0100
0010
0001
0010
1000
,  // measure 92
0020
0100
0130
1000
0002
0100
0103
0010
,  // measure 93
1000
0010
1000
0000
0001
1000
0001
0000
0010
0001
0010
0001
0010
0000
1000
0000
,  // measure 94
0020
0001
0031
1000
0020
0100
0130
0001
,  // measure 95
1000
0100
0001
0100
0010
1000
0010
0001
,  // measure 96
0010
0100
0010
0100
1000
0001
1000
0001
,  // measure 97
0100
0001
0100
0001
0100
1000
0100
1000
0100
0010
0100
0010
1000
0001
1000
0001
,  // measure 98
1000
0000
0001
0010
0000
0100
1000
0001
,  // measure 99
0101
1000
1100
0100
,  // measure 100
0010
0000
0001
1000
0000
0010
1000
0010
,  // measure 101
0100
1000
0100
0001
0100
0010
1000
0000
,  // measure 102
0002
0000
0023
0000
,  // measure 103
0230
0000
2300
0000
,  // measure 104
3020
0000
0230
0300
,  // measure 105
0100
0001
0000
0000
1000
0100
0000
0000
0010
0001
0000
0000
1000
0010
0000
0000
,  // measure 106
0110
0000
0000
0000
;

//---------------dance-single - ----------------
#NOTEDATA:;
#CHARTNAME:;
#STEPSTYPE:dance-single;
#DESCRIPTION:;
#CHARTSTYLE:;
#DIFFICULTY:Hard;
#METER:12;
#RADARVALUES:0.597320,0.672665,0.317295,0.253836,0.098714,593.000000,548.000000,45.000000,36.000000,0.000000,0.000000,0.000000,0.000000,0.000000,0.597320,0.672665,0.317295,0.253836,0.098714,593.000000,548.000000,45.000000,36.000000,0.000000,0.000000,0.000000,0.000000,0.000000;
#CREDIT:TonyAkita;
#NOTES:
0000
0000
0000
0000
,
0000
0000
0000
0000
,
0000
0000
0000
0000
,
0000
0000
0000
0000
,
2000
0001
0010
3001
,
1000
0100
0001
0100
,
0020
0001
1000
0031
,
1000
0000
0001
0000
0100
0010
1000
0000
,
0002
1000
0010
1003
,
0001
0100
1000
0100
,
1010
0001
0011
1000
,
0100
0010
0001
0000
0010
0100
1000
0000
,
0001
0100
1000
0100
0001
0100
0010
1000
,
0000
0010
0100
0001
0000
1000
0000
0001
,
0000
0010
0100
1000
0000
0001
0000
1000
,
0000
0010
0000
0100
0101
0000
1100
0000
,
1000
0100
0001
0100
1000
0100
0010
0001
,
0000
0010
0100
1000
0000
0001
0000
0100
,
0010
1000
0010
1000
0010
0001
0010
0001
,
0010
1000
0000
0000
0010
0100
0000
0000
0001
0100
0000
0000
0001
1000
0000
0000
,
2002
0000
0000
3003
,
1000
0001
1000
0001
0010
0100
0010
0100
,
2000
0000
3020
0000
,
0230
0000
0302
0000
,
0023
0000
0230
0000
,
2300
0000
3002
0000
,
2003
0000
3020
0000
,
0230
0000
0302
0000
,
0023
0000
0230
0000
,
1300
0001
0000
0000
0001
1000
0000
0000
1000
0001
0000
0000
0001
0010
0000
0000
,
0011
0000
0010
0100
0000
1000
0000
0001
,
0000
1000
0010
0100
0000
0000
0000
0001
,
0101
0000
1000
0100
0000
0010
0000
0001
,
0000
0010
0100
1000
1100
0000
0101
0000
,
1100
0000
0100
0010
0000
0001
0000
1000
,
1010
0000
0010
0100
0000
0001
0000
1000
,
1100
0001
0101
0100
,
0010
1000
0010
1000
0010
0001
0010
0001
,
0020
0000
0000
0030
,
1000
1000
0001
0001
0010
0010
0100
0100
,
1000
0010
1000
0010
0000
0001
0010
1000
,
0000
0001
0100
1000
0000
0100
0010
1000
,
0001
0010
0001
0010
0000
1000
0010
0001
,
0000
0000
1000
0000
0010
0000
0100
0000
0001
1000
0000
0000
0001
1000
0000
0000
,
0001
0100
0001
0100
0000
1000
0100
0001
,
0000
1000
0010
0001
0000
0010
0100
0001
,
0101
0000
1001
0000
1000
0100
0010
0000
,
0200
0001
1000
0301
,
1100
0000
0001
0100
0000
0010
0001
0010
,
1000
1010
0001
0011
,
1001
0000
1000
0001
0000
0010
0100
1000
,
0001
0100
1000
0100
0001
0100
0010
0000
,
1010
0000
0001
0010
0000
0100
1000
0100
,
0000
0001
0100
1000
0000
0001
0100
0010
,
1000
0010
1000
0010
0001
0010
0001
0010
,
1000
0001
0000
0000
0001
1000
0000
0000
1000
0001
0000
0000
0001
0010
0000
0000
,
1100
0000
0000
1001
0000
0000
0000
0000
,
0101
0000
0000
1001
0000
0000
0010
0000
,
1010
0000
0000
1001
0000
0000
0000
0001
,
0011
0000
0000
1001
0000
1000
0000
0001
,
0100
0000
0010
0001
0000
0010
1000
0000
,
1010
0000
0000
1001
0000
0000
1000
0000
,
0100
0000
0010
1000
0000
0010
0001
0000
,
0010
0100
0010
0100
1000
0100
0001
0100
,
0010
0000
0001
1000
0000
0001
0010
0000
,
0100
0000
1000
0010
0100
0000
0001
0000
,
1001
0000
1000
0001
0000
1000
0010
0000
,
0100
0000
0001
0010
0100
0000
1000
0000
,
1100
0000
0100
0001
0000
0100
1000
0000
,
0100
0000
0010
0001
0100
0000
0001
0000
,
0010
0001
0010
0001
0010
1000
0010
1000
,
0010
0100
1000
0100
0001
0100
1000
0100
,
0220
0000
0000
0330
,
0001
0001
1000
1000
0010
0010
0100
0100
,
0001
0010
0001
0010
0000
1000
0010
0001
,
0000
1000
0100
0001
0000
0100
0010
0001
,
1000
0010
1000
0010
0000
0001
0010
1000
,
0000
0000
0001
0000
0010
0000
0100
0000
1000
0001
0000
0000
1000
0001
0000
0000
,
1000
0100
1000
0100
0000
0001
0100
1000
,
0000
0001
0010
1000
0000
0010
0100
1000
,
1100
0000
1001
0000
0001
0100
0010
0000
,
0200
1000
0001
1300
,
0101
0000
1000
0100
0000
0010
1000
0010
,
0001
0011
1000
1010
,
1001
0000
0001
1000
0000
0010
0100
0001
,
1000
0100
0001
0100
1000
0100
0010
0000
,
0011
0000
1000
0010
0000
0100
0001
0100
,
0000
1000
0100
0001
0000
0100
0010
1000
,
0001
0010
0001
0010
1000
0010
1000
0010
,
0100
1000
0000
0000
1000
0001
0000
0000
0001
1000
0000
0000
1000
0010
0000
0000
,
0020
0000
0130
0001
0020
0000
0130
1000
,
0001
0100
1000
0100
0001
0100
0010
0000
,
0200
0000
0301
0010
0200
0000
1300
0010
,
0100
0100
0001
0001
1000
0100
0010
0000
,
0002
0000
0013
0100
2000
0000
3010
0100
,
0001
1000
0100
0010
0000
0100
1000
0001
,
0100
1000
0100
1000
0100
0001
0100
0001
,
1000
0001
0000
0000
0001
1000
0000
0000
1000
0001
0000
0000
0001
0010
0000
0000
,
0011
0000
0010
0100
0000
1000
0001
0100
,
0010
1010
0001
0011
,
1100
0000
0100
0010
0000
0001
1000
0010
,
0001
0010
1000
0010
0100
0001
0010
0000
,
0200
0000
2300
0000
,
3020
0000
0032
0000
,
0023
0000
2030
3000
,
0001
1000
0000
0000
1000
0001
0000
0000
0001
1000
0000
0000
1000
0001
0000
0000
,
1001
0000
0000
0000
;

//---------------dance-single - ----------------
#NOTEDATA:;
#CHARTNAME:;
#STEPSTYPE:dance-single;
#DESCRIPTION:;
#CHARTSTYLE:;
#DIFFICULTY:Medium;
#METER:9;
#RADARVALUES:0.493569,0.597924,0.331397,0.148071,0.017627,490.000000,443.000000,47.000000,21.000000,0.000000,0.000000,0.000000,0.000000,0.000000,0.493569,0.597924,0.331397,0.148071,0.017627,490.000000,443.000000,47.000000,21.000000,0.000000,0.000000,0.000000,0.000000,0.000000;
#CREDIT:TonyAkita;
#NOTES:
0000
0000
0000
0000
,
0000
0000
0000
0000
,
0000
0000
0000
0000
,
0000
0000
0000
0000
,
1000
0001
0010
0001
,
0100
1000
0100
0001
,
1000
0100
0001
0100
,
0010
0000
0001
0000
0010
0100
1000
0000
,
0010
1000
0001
1000
,
0100
0001
0100
1000
,
1100
0001
0101
0010
,
1010
0000
0011
0000
1000
0001
1000
0001
,
0010
0000
0100
0000
1000
0100
0010
0001
,
0000
1000
0000
0010
0000
0001
0000
0010
,
0000
1000
0000
0100
0000
0001
0000
0100
,
0000
1000
0000
0000
1001
0000
0011
0000
,
0010
0000
0100
0000
1000
0100
0010
0001
,
0000
1000
0000
0010
0000
0001
0000
0010
,
0100
0001
0100
0000
0010
1000
0010
0000
,
0100
0010
0100
0010
1000
0001
1000
0000
,
2002
0000
0000
3003
,
1000
0001
1000
0000
0010
0100
0010
0000
,
2000
0000
0000
0000
,
3010
0000
0100
0000
,
0002
0000
0000
0000
,
0013
0000
0100
0000
,
2000
0000
0000
0000
,
3001
0000
0100
0000
,
0010
0000
1000
0000
,
0010
0010
0100
0100
,
0101
0000
0000
0000
0001
0000
0000
0001
0000
0000
0001
0000
0000
0000
1000
0000
,
0100
0000
0000
0000
0010
0000
0000
0010
0000
0000
0010
0000
0000
0000
0100
0000
,
1100
0000
0000
0000
1000
0000
0000
1000
0000
0000
1000
0000
0000
0000
0001
0000
,
0100
0100
1010
0011
,
1010
0000
0000
0000
1000
0000
0000
1000
0000
0000
1000
0000
0000
0000
0000
0000
,
0011
0000
0000
0000
0001
0000
0000
0001
0000
0000
0001
0000
0000
0000
0000
0000
,
1100
0000
0101
0000
,
1100
0000
0011
0000
1000
0010
1000
0010
,
0200
0000
0000
0300
,
1000
0100
0001
0010
,
0100
1000
0100
0010
0000
1000
0000
0010
,
0000
0001
0010
0100
0000
0000
0000
1000
,
0001
0100
0010
0100
0000
0001
0000
1000
,
0000
0100
0010
0001
1000
0000
0001
0000
,
0010
0001
0010
0100
0000
0001
0000
0100
,
0000
1000
0100
0010
0000
0000
0001
0010
,
0100
0000
1000
0000
0001
0100
0010
0000
,
2000
0001
0001
3001
,
1010
0000
1000
0001
0000
0010
0100
0000
,
1000
0100
0001
0100
,
1100
0000
0100
0010
0000
0001
0010
0100
,
1000
0001
1000
0010
1000
0001
0010
0000
,
0011
0000
0001
1000
0000
0010
0100
0001
,
0000
0100
0010
1000
0000
0001
0000
0010
,
0100
1000
0100
0000
0010
0001
0010
0000
,
0011
1001
1010
0110
,
0101
0000
0000
1001
0000
0000
0000
0000
,
1100
0000
0000
1001
0000
0000
0001
0000
,
0011
0000
0000
1001
0000
0000
0000
1000
,
0010
0000
0000
1001
0000
0110
0000
0001
,
0002
0000
0000
0013
0000
0000
0000
0000
,
0200
0000
0000
1300
0000
0000
0001
0000
,
2000
0000
0000
3010
0000
0000
0000
0100
,
0001
1000
0001
0010
0001
1000
0010
0000
,
0101
0000
0001
0010
0000
0100
1000
0000
,
0000
0000
0100
0010
0001
0000
1000
0000
,
1010
0000
1000
0010
0000
0100
0001
0000
,
0000
0000
0100
0010
1000
0000
0001
0000
,
0011
0000
0001
0010
0000
1000
0010
0000
,
0000
0000
0001
0010
0100
0000
1000
0000
,
0001
0100
0001
0000
0100
0010
0100
0000
,
0010
1000
0010
1000
0001
0010
0100
1000
,
0020
0000
0000
0030
,
0001
0010
1000
0100
,
0010
0001
0010
0100
0000
0001
0000
0100
,
0000
1000
0100
0010
0000
0000
0000
0001
,
1000
0010
0100
0010
0000
1000
0000
0001
,
0000
0010
0100
1000
0001
0000
1000
0000
,
0100
1000
0100
0010
0000
1000
0000
0010
,
0000
0001
0010
0100
0000
0000
1000
0100
,
0010
0000
0001
0000
1000
0010
0100
0000
,
0002
1000
1000
1003
,
0011
0000
0001
1000
0000
0010
0100
0000
,
0001
0100
1000
0100
,
0101
0000
0100
0010
0000
1000
0010
0100
,
0001
1000
0001
0010
0001
1000
0010
0000
,
1010
0000
1000
0001
0000
0010
0100
1000
,
0000
0100
0010
0001
0000
1000
0000
0010
,
0100
0001
0100
0000
0010
1000
0010
0000
,
1010
1001
0011
0110
,
2000
3100
0020
0031
,
1000
0010
0001
0010
,
2000
3010
0200
0301
,
0100
0010
1000
0010
0100
0001
0010
0000
,
0002
0013
0200
1300
,
0001
0100
1000
0100
,
0010
1000
0010
0000
0100
0001
0100
0000
,
0101
1001
1100
0110
,
0002
0000
0010
0000
,
0013
0100
0001
0100
,
2000
0000
0010
0000
,
3010
0000
0100
0000
1000
0100
0001
0000
,
0002
0000
1000
0000
,
0010
0000
1000
0003
,
0001
0100
0010
1000
,
0010
0100
0010
0000
1000
0001
1000
0000
,
1001
0000
0000
0000
;

//---------------dance-single - ----------------
#NOTEDATA:;
#CHARTNAME:;
#STEPSTYPE:dance-single;
#DESCRIPTION:;
#CHARTSTYLE:;
#DIFFICULTY:Easy;
#METER:6;
#RADARVALUES:0.316287,0.373703,0.098714,0.218581,0.000000,314.000000,300.000000,14.000000,31.000000,0.000000,0.000000,0.000000,0.000000,0.000000,0.316287,0.373703,0.098714,0.218581,0.000000,314.000000,300.000000,14.000000,31.000000,0.000000,0.000000,0.000000,0.000000,0.000000;
#CREDIT:TonyAkita;
#NOTES:
0000
0000
0000
0000
,
0000
0000
0000
0000
,
0000
0000
0000
0000
,
0000
0000
0000
0000
,
1000
0000
0001
0000
,
1000
0000
0001
0000
,
0010
0000
0100
0000
,
0010
0000
0100
1000
,
0010
0000
1000
0000
,
0001
0000
1000
0000
,
1010
0000
0011
0000
,
1000
0001
1000
0001
,
0010
0000
0100
1000
,
0000
0001
0000
0100
,
0000
0001
0000
0010
,
0000
0100
1000
0001
,
0100
0000
0010
1000
,
0000
0001
0000
0010
,
0001
0001
1000
1000
,
0010
0001
0010
1000
,
0220
0000
0000
0330
,
0001
0001
1000
1000
,
0002
0000
0000
0003
,
0020
0000
0000
0030
,
0200
0000
0000
0300
,
2000
0000
0000
3000
,
0002
0000
0000
0003
,
0200
0000
0000
0300
,
0020
0000
0000
0030
,
1000
1000
0001
0001
,
1001
0000
1000
0000
,
0010
0000
0100
0000
,
1001
0000
0001
0000
,
0010
0000
0001
1000
,
1001
0000
0001
0000
,
0101
0000
1000
0000
,
1100
0000
0101
0000
,
1000
1000
0001
0001
,
0200
0000
0000
0300
,
0001
0010
0100
1000
,
0001
0100
1000
0100
,
0010
1000
0001
0000
,
1000
0100
0001
0100
,
0010
0001
1000
1000
,
0001
0100
1000
0100
,
0010
1000
0001
0010
,
0100
0000
1000
0000
0001
0100
0010
0000
,
2000
0000
0000
3000
,
0010
1000
0010
0100
,
0001
0001
1000
1000
,
0100
1000
0100
0010
,
1000
0010
0001
0011
,
0010
0001
0010
0100
,
1000
0001
0100
0010
,
1000
1000
0001
0001
,
0100
1000
0100
0001
,
0202
0000
0000
0303
0000
0000
0000
0000
,
1000
0000
0000
1000
0000
0000
1000
0000
,
2200
0000
0000
3300
0000
0000
0000
0000
,
0001
0001
1000
1000
,
0002
0000
0000
0013
0000
0000
0000
0000
,
0002
0000
0000
1003
0000
0000
1000
0000
,
2000
0000
0000
3010
0000
0000
0000
0000
,
1000
0001
1000
0001
,
1000
0100
0010
0100
,
0000
0001
0100
1000
,
0001
0100
0010
0100
,
0000
1000
0100
0001
,
1000
0100
0010
0001
,
0000
0010
1000
0010
,
0001
0100
0010
1000
,
0001
0001
1000
1000
,
0200
0000
0000
0300
,
1000
0010
0100
0001
,
1000
0100
0001
0100
,
0010
0001
1000
0000
,
0001
0100
1000
0100
,
0010
1000
0001
0001
,
1000
0100
0001
0100
,
0010
0001
1000
0010
,
0100
0000
0001
0000
1000
0100
0010
0000
,
0002
0000
0000
0003
,
0010
0001
0010
0100
,
1000
1000
0001
0001
,
0100
0001
0100
0010
,
0001
0010
1000
1010
,
0010
1000
0010
0100
,
0001
1000
0100
0010
,
0001
0001
1000
1000
,
0100
0001
0100
1000
,
0002
0003
2000
3000
,
0010
0010
0100
0100
,
0002
0003
2000
3000
,
0100
0001
0100
1000
,
0200
0300
0020
0030
,
0002
0003
2000
3000
,
0010
0100
0001
1000
,
0100
0100
0010
0010
,
0002
0000
0000
0003
,
0001
0000
1000
0000
,
2000
0000
0000
3000
,
0010
0010
0010
0010
,
0020
0000
0000
0030
,
0100
0000
0001
0000
,
1000
0000
0100
0000
,
0010
0010
0100
0100
,
1001
0000
0000
0000
;

//---------------dance-single - ----------------
#NOTEDATA:;
#CHARTNAME:;
#STEPSTYPE:dance-single;
#DESCRIPTION:;
#CHARTSTYLE:;
#DIFFICULTY:Beginner;
#METER:4;
#RADARVALUES:0.221603,0.373703,0.183326,0.105765,0.000000,220.000000,194.000000,26.000000,15.000000,0.000000,0.000000,0.000000,0.000000,0.000000,0.221603,0.373703,0.183326,0.105765,0.000000,220.000000,194.000000,26.000000,15.000000,0.000000,0.000000,0.000000,0.000000,0.000000;
#CREDIT:TonyAkita;
#NOTES:
0000
0000
0000
0000
,
0000
0000
0000
0000
,
0000
0000
0000
0000
,
0000
0000
0000
0000
,
1000
0000
1000
0000
,
1000
0000
1000
0000
,
0001
0000
0001
0000
,
0001
0000
0100
0100
,
0100
0000
0001
0000
,
0001
0000
0001
0000
,
1001
0000
0110
0000
,
1001
0000
1000
1000
,
1000
0000
0010
0000
,
0010
0000
0100
0000
,
0100
0000
0010
0000
,
0010
0000
1000
1000
,
1000
0000
1000
0000
,
0001
0000
0001
0000
,
1001
0000
0110
0000
,
1001
0000
0110
0000
,
1001
0000
0000
0000
,
0001
0001
0001
0001
,
0002
0000
0000
0003
,
0000
0000
0000
0000
,
2000
0000
0000
3000
,
0000
0000
0000
0000
,
0020
0000
0000
0030
,
0000
0000
0000
0000
,
0200
0000
0000
0300
,
0000
0000
0010
0010
,
0010
0000
1000
0000
,
0001
0000
0010
0000
,
1001
0000
0001
0000
,
1000
0000
0010
0010
,
0010
0000
0000
0000
,
1001
0000
0000
0000
,
0110
0000
1001
0000
,
0110
0000
1001
0000
,
2000
0000
0000
3000
,
1000
1000
1000
1000
,
1000
0000
0010
0000
,
1000
0000
0000
0000
,
0001
0000
0010
0000
,
0001
0000
1000
1000
,
1000
0000
0100
0000
,
1000
0000
0000
0000
,
0001
0000
1000
0000
,
2002
0000
3003
0000
,
0001
0000
0010
0000
,
0001
0001
0001
0000
,
1000
0000
0010
0000
,
1000
1000
1000
0000
,
0001
0000
1000
0000
,
0100
0100
0100
0000
,
0110
0000
1001
0000
,
0001
0001
0001
0001
,
0001
0000
0000
0000
,
1001
0000
0000
0000
,
0110
0000
0000
0000
,
1001
0000
0000
0000
,
2000
0000
0000
3000
,
0000
0000
0000
0000
,
0002
0000
0000
0003
,
0000
0000
0100
0100
,
0100
0000
0000
0000
,
0010
0000
0000
0000
,
0100
0000
0000
0000
,
0001
0000
1000
0000
,
0100
0000
0000
0000
,
0010
0000
0000
0000
,
0100
0000
0010
0000
,
0001
0000
1000
0000
,
2002
0000
3003
0000
,
1000
1000
1000
1000
,
1000
0000
0010
0000
,
1000
0000
0000
0000
,
0001
0000
0010
0000
,
0001
0000
1000
1000
,
1000
0000
0100
0000
,
1000
0000
0000
0000
,
0001
0000
1000
0000
,
2002
0000
3003
0000
,
0001
0000
0010
0000
,
0001
0001
0001
0000
,
1000
0000
0010
0000
,
1000
1000
1000
0000
,
0001
0000
1000
0000
,
0100
0100
0100
0000
,
0110
0000
1001
0000
,
0001
0001
0001
0001
,
0001
0000
0100
0000
,
0010
0000
0100
0000
,
0001
0000
1000
0000
,
0001
0000
0010
0010
,
0010
0000
0100
0000
,
1000
0000
0100
0000
,
0110
0000
1001
0000
,
0001
0001
0001
0001
,
0001
0000
0000
0000
,
1000
0000
0010
0000
,
1000
0000
0000
0000
,
0100
0000
0010
0000
,
0002
0000
0003
0000
,
2000
0000
3000
0000
,
0010
0000
0100
0000
,
0001
0001
0001
0001
,
0001
0000
0000
0000
;
