#VERSION:0.83;
#TITLE:ototsu dekoboko;
#SUBTITLE:;
#ARTIST:megawolf77;
#TITLETRANSLIT:;
#SUBTITLETRANSLIT:;
#ARTISTTRANSLIT:;
#GENRE:TECHNO RAVE FUSION;
#ORIGIN:;
#CREDIT:;
#BANNER:ototsudekoboko.png;
#BACKGROUND:ototsudekoboko-bg.png;
#PREVIEWVID:;
#JACKET:ototsudekoboko-jacket.png;
#CDIMAGE:;
#DISCIMAGE:;
#LYRICSPATH:;
#CDTITLE:cdtitle.png;
#MUSIC:ototsudekoboko.ogg;
#OFFSET:-0.032018;
#SAMPLESTART:19.105000;
#SAMPLELENGTH:12.715000;
#SELECTABLE:YES;
#BPMS:0.000=151.001;
#STOPS:;
#DELAYS:;
#WARPS:;
#TIMESIGNATURES:0.000=4=4;
#TICKCOUNTS:0.000=4;
#COMBOS:0.000=1;
#SPEEDS:0.000=1.000=0.000=0;
#SCROLLS:0.000=1.000;
#FAKES:;
#LABELS:0.000=Song Start;
#BGCHANGES:;
#KEYSOUNDS:;
#ATTACKS:
;

//---------------dance-single - ----------------
#NOTEDATA:;
#CHARTNAME:;
#STEPSTYPE:dance-single;
#DESCRIPTION:;
#CHARTSTYLE:;
#DIFFICULTY:Hard;
#METER:13;
#RADARVALUES:0.559502,0.688872,0.350257,0.151247,0.274633,492.000000,448.000000,44.000000,19.000000,0.000000,0.000000,0.000000,0.000000,0.000000,0.559502,0.688872,0.350257,0.151247,0.274633,492.000000,448.000000,44.000000,19.000000,0.000000,0.000000,0.000000,0.000000,0.000000;
#CREDIT:TonyAkita;
#NOTES:
0000
0000
0000
0000
,
0000
0000
0000
0000
,
0000
0000
0000
0000
,
0000
0000
0000
0000
,
2000
0000
0000
0010
0000
0010
0000
0000
,
3002
0000
0000
0010
0000
0010
0000
0000
,
2003
0000
0000
0100
0000
0100
0000
0000
,
3001
0000
0100
0010
0000
0100
0001
0000
1000
0000
0001
0000
1001
0000
0000
0000
,
0001
1000
0100
0001
0000
0100
0010
0100
,
1000
0001
0100
1000
0000
0100
0010
0100
,
0001
1000
0100
0010
0000
0001
0010
0001
,
1000
0000
0010
0100
0000
0010
1000
0000
0010
0100
0001
0000
1000
0000
0000
0000
,
0001
1000
0010
0001
0000
0010
0100
0010
,
1000
0001
0010
1000
0000
0010
0100
0010
,
0001
1000
0010
0100
0000
0001
0100
0001
,
1000
0000
0100
0010
0000
0100
1000
0000
0100
0010
0001
0000
1000
0000
0000
0000
,
0002
0000
0000
0013
0000
0000
1100
0000
,
2000
0000
0000
3010
0000
0000
0101
0000
,
0002
0000
0000
1003
0000
0000
1100
0000
,
2000
0000
0000
3001
0000
0000
0101
0000
,
0001
1000
0001
1000
0000
0010
0101
0000
,
1000
0001
1000
0001
0000
0010
1100
0000
,
0001
0100
0001
0010
0000
0100
1001
0000
,
1000
0100
1000
0010
0000
0100
0001
0010
,
0011
0000
1001
0000
0101
0000
1010
0000
1001
0000
1100
0000
,
1000
0000
0100
0010
0000
0100
1000
0000
0001
0000
0100
0010
0000
0100
0001
0000
,
0200
0000
0000
0000
,
0310
0000
0010
0000
1000
0001
1001
0000
,
1000
0100
0010
0001
0000
1000
0010
0001
,
1000
0100
0001
1000
0000
1000
1000
0001
,
0001
0100
0010
1000
0000
0001
0010
1000
,
0001
0100
1000
0001
0000
0001
0001
1000
,
1000
0100
1000
0001
0000
0010
0010
0010
,
0001
0100
0001
1000
0000
0010
0010
0010
,
1000
1000
0001
0001
0010
0010
0100
0100
,
1000
0000
0001
0100
0000
0001
1000
0000
0001
0010
0000
0000
0001
1000
0001
1000
,
0010
0000
0000
1010
0000
0000
0000
0000
0000
0000
0001
0000
0100
0000
1000
0000
,
0010
0000
0000
0011
0000
0000
0001
0000
0010
0000
1000
0000
0010
0100
0000
0000
,
1000
0000
0000
1100
0000
0000
0000
0000
0000
0000
0001
0000
0010
0000
1000
0000
,
0100
0000
0000
0101
0000
0000
1001
0000
0000
0000
1000
0000
0010
0000
1000
0000
,
0002
0000
0000
0010
0000
0000
0010
0000
0000
0013
0000
0000
0100
0000
1000
0000
,
0002
0000
0000
0100
0000
0000
0103
0000
0010
0000
1000
0000
1001
0000
0000
0000
,
0010
0000
1000
0000
0010
0000
0100
0001
0000
0000
0001
0000
0010
0000
0100
1000
,
0000
0000
1000
0000
0010
0000
0100
0001
0000
0000
1000
0001
1000
0001
1000
0001
,
0010
0000
0001
0010
0000
0100
0010
0000
0001
0000
0010
0000
0100
0000
1000
0000
,
0010
0000
1000
0010
0000
0100
0010
0000
1000
0000
0010
0000
0100
0000
0001
0000
,
1000
0000
0100
0001
0000
0100
1000
0000
0100
0000
0010
0000
0100
0000
1000
0000
,
0001
0000
0100
1000
0000
0100
0001
0000
0100
0000
0010
0000
0100
0000
0001
0000
,
2000
0100
0000
0100
0000
3100
0000
0010
,
0002
0100
0000
0100
0000
0103
0000
0010
,
1010
0000
1000
0001
0000
0000
0000
0000
0011
0000
0001
1000
0000
0000
0000
0000
,
0010
0000
1000
0010
0000
0100
0010
0000
0001
0010
0000
0100
0010
0100
0010
0100
,
0020
0000
0000
0001
0000
1000
0000
0030
,
0000
1010
0000
1001
0000
1100
0000
0001
,
0020
0000
1000
0000
0001
0000
1000
0030
,
0100
0000
1000
0001
0000
1000
0001
0000
0000
0000
0100
0000
0010
0000
0000
0000
,
1000
0001
0010
1000
0000
0010
0100
0010
,
0001
1000
0010
0001
0000
0010
0100
0010
,
1000
0001
0010
0100
0000
1000
0100
1000
,
0001
0000
0100
0010
0000
0100
0001
0000
0100
0010
1000
0000
0001
0000
0000
0000
,
1000
0001
0100
1000
0000
0100
0010
0100
,
0001
1000
0100
0001
0000
0100
0010
0100
,
1000
0001
0100
0010
0000
1000
0010
1000
,
0001
0000
0010
0100
0000
0010
0001
0000
0010
0100
1000
0000
0001
0000
0000
0000
,
0002
0000
0000
0013
0000
0000
1100
0000
,
2000
0000
0000
3010
0000
0000
0101
0000
,
0002
0000
0000
1003
0000
0000
1100
0000
,
2000
0000
0000
3001
0000
0000
0101
0000
,
0001
1000
0000
1100
0000
0100
0011
0000
,
1000
0001
0000
0101
0000
0100
1010
0000
,
1100
0100
0010
0000
0101
0100
0010
0000
,
1010
0000
0011
0000
1000
0001
1000
0001
,
0011
0000
1001
0000
0101
0000
1010
0000
1001
0000
1100
0000
,
1000
0000
0100
0010
0000
0100
1000
0000
0001
0000
0100
0010
0000
0100
0001
0000
,
1000
0001
1000
0001
0020
0000
0000
0000
0000
0000
0000
0000
0000
0000
0000
0000
,
0000
0030
0000
0000
;

//---------------dance-single - ----------------
#NOTEDATA:;
#CHARTNAME:;
#STEPSTYPE:dance-single;
#DESCRIPTION:;
#CHARTSTYLE:;
#DIFFICULTY:Medium;
#METER:9;
#RADARVALUES:0.408254,0.449264,0.382099,0.127366,0.115426,359.000000,311.000000,48.000000,16.000000,0.000000,0.000000,0.000000,0.000000,0.000000,0.408254,0.449264,0.382099,0.127366,0.115426,359.000000,311.000000,48.000000,16.000000,0.000000,0.000000,0.000000,0.000000,0.000000;
#CREDIT:TonyAkita;
#NOTES:
0000
0000
0000
0000
,
0000
0000
0000
0000
,
0000
0000
0000
0000
,
0000
0000
0000
0000
,
2000
0000
0000
3010
0000
0000
0000
0000
,
2000
0000
0000
3001
0000
0000
0000
0000
,
0002
0000
0000
0013
0000
0000
0000
0000
,
0100
0000
0000
0100
0000
0000
0100
0000
0000
0000
1000
0000
1100
0000
0000
0000
,
0001
0000
0100
0000
1000
0100
0001
0000
,
1000
0000
0100
0000
0001
0100
1000
0000
,
0100
0000
0010
0000
0001
0010
0100
0000
,
1000
0000
0000
1000
0000
0000
1000
0000
0000
0000
0000
0000
1001
0000
0000
0000
,
0000
0101
0000
1001
0000
0011
0000
0001
,
1000
0000
0010
0000
0001
0010
1000
0000
,
0000
1010
0000
1001
0000
1100
0000
1000
,
0001
0000
0000
0001
0000
0000
0001
0000
0000
0000
0000
0000
0110
0000
0000
0000
,
2000
0000
0000
3010
0000
0000
0101
0000
,
0002
0000
0000
0013
0000
0000
1100
0000
,
2000
0000
0000
3001
0000
0000
0101
0000
,
0002
0000
0000
1003
0000
0000
1100
0000
,
0001
0000
0100
0010
0000
0100
0001
0000
,
1000
0000
0100
0010
0000
0100
1000
0000
,
0001
0000
0010
1000
0000
0010
0001
0000
,
1000
0000
0100
0001
0000
0100
1000
0000
,
0001
0000
0001
0000
0001
0000
1000
0000
1000
0000
1000
0000
,
0010
0000
0000
0101
0000
0000
0001
0000
0010
0000
0000
1100
0000
0000
1000
0000
,
0020
0000
0000
0000
,
0130
0000
0100
0000
0001
1000
1001
0000
,
1000
0000
0010
0000
0100
0001
0100
0000
,
0001
0000
0010
0000
0100
1000
0100
0000
,
1000
0000
0001
0000
0100
1000
0100
0000
,
0001
0000
1000
0000
0100
0001
0100
0000
,
0010
0000
0001
0001
0000
1000
1000
1000
,
0010
0000
1000
1000
0000
0001
0001
0001
,
0100
0101
1100
0101
,
0001
0000
0000
1000
0000
0000
0001
0000
0000
1000
0000
0000
0010
0000
0010
0000
,
0010
0000
0000
1010
0000
0000
0000
0000
0000
0000
0001
0000
0001
0000
0001
0000
,
1000
0000
0000
1100
0000
0000
0000
0000
1000
0000
0001
0000
1000
0000
0000
0000
,
0001
0000
0000
0101
0000
0000
0000
0000
0000
0000
1000
0000
1000
0000
1000
0000
,
0001
0000
0000
0011
0000
0000
0000
0000
0001
0000
0010
0000
0100
0000
1000
0000
,
0001
0000
0100
0000
1000
0000
0100
0001
,
1000
0000
0100
0000
0001
0100
1000
0000
,
0100
0010
0100
1000
0000
0001
0100
0010
,
0000
1000
0100
0010
0000
0001
1000
0001
,
0100
0000
0000
0100
0000
0000
0100
0000
0000
0000
1010
0000
0000
0000
0001
0000
,
0010
0000
0000
0010
0000
0000
0010
0000
0000
0000
1100
0000
0000
0000
1000
0000
,
0001
0000
0000
0001
0000
0000
0001
0000
0000
0000
0101
0000
0000
0000
0001
0000
,
1000
0000
0000
1000
0000
0000
1000
0000
0000
0000
1100
0000
0000
0000
0001
0000
,
0100
0010
0000
1000
0000
0001
0000
1000
,
0100
0010
0000
0001
0000
1000
0000
0001
,
0101
0000
1100
0000
,
0001
0000
0000
1000
0000
0000
0001
0000
0000
1000
0000
0000
0010
0000
0010
0000
,
0020
0000
0000
0030
,
0000
1010
0000
1001
0000
1100
0000
0010
,
0002
1000
1000
1003
,
0101
0000
0000
1100
0000
0001
1000
0000
,
0001
0000
0010
0000
1000
0010
0001
0000
,
1000
0000
0010
0000
0001
0010
1000
0000
,
0010
0000
0100
0000
0001
0100
0010
0000
,
1000
0000
0000
1000
0000
0000
1000
0000
0000
0000
0000
0000
1001
0000
0000
0000
,
0000
0011
0000
1001
0000
0101
0000
0001
,
2000
0000
0000
0100
0000
0100
3000
0000
,
0000
1100
0000
1001
0000
1010
0000
1000
,
0001
0000
0000
0001
0000
0000
0001
0000
0000
0000
0000
0000
1001
0000
0000
0000
,
0002
0000
0000
0103
0000
0000
1010
0000
,
2000
0000
0000
3100
0000
0000
0011
0000
,
0002
0000
0000
1003
0000
0000
1100
0000
,
2000
0000
0000
3001
0000
0000
0101
0000
,
0000
0001
0000
0100
0000
0010
1000
0000
,
0000
1000
0000
0100
0000
0010
0001
0000
,
0000
1000
0000
0001
0000
0100
0010
0000
,
1000
0100
0010
0001
,
1000
0000
1000
0000
1000
0000
0001
0000
0001
0000
0001
0000
,
0010
0000
0000
1100
0000
0000
1000
0000
0010
0000
0000
0101
0000
0000
0001
0000
,
1000
0100
0020
0000
0000
0000
0000
0000
,
0000
0030
0000
0000
;

//---------------dance-single - ----------------
#NOTEDATA:;
#CHARTNAME:;
#STEPSTYPE:dance-single;
#DESCRIPTION:;
#CHARTSTYLE:;
#DIFFICULTY:Easy;
#METER:5;
#RADARVALUES:0.277476,0.359412,0.175129,0.135327,0.067663,244.000000,222.000000,22.000000,17.000000,0.000000,0.000000,0.000000,0.000000,0.000000,0.277476,0.359412,0.175129,0.135327,0.067663,244.000000,222.000000,22.000000,17.000000,0.000000,0.000000,0.000000,0.000000,0.000000;
#CREDIT:TonyAkita;
#NOTES:
0000
0000
0000
0000
,
0000
0000
0000
0000
,
0000
0000
0000
0000
,
0000
0000
0000
0000
,
1000
0000
0000
0010
0000
0000
0000
0000
,
1000
0000
0000
0001
0000
0000
0000
0000
,
0100
0000
0000
0001
0000
0000
0000
0000
,
0010
0010
0010
0010
,
0001
0000
0000
1000
0000
0000
0100
0000
,
1000
0000
0000
0001
0000
0000
0100
0000
,
0001
0000
0000
0010
0000
0000
0100
0000
,
1000
1000
0001
1001
,
1000
0000
0000
0010
0000
0000
1000
0000
,
0001
0000
0000
0010
0000
0000
0001
0000
,
1000
0000
0000
0010
0000
0000
0100
0000
,
0001
0001
1000
1001
,
2000
0000
0000
3010
0000
0000
0100
0000
,
0002
0000
0000
0013
0000
0000
0001
0000
,
2000
0000
0000
3100
0000
0000
0010
0000
,
0002
0000
0000
1003
0000
0000
0001
0000
,
0100
0000
0000
1010
0000
0000
1000
0000
,
0100
0000
0000
0011
0000
0000
0001
0000
,
1000
0000
0000
1100
0000
0000
1000
0000
,
0001
0000
0000
0101
0000
0000
0000
0000
,
0001
0000
0001
0000
0001
0000
1000
0000
1000
0000
1000
0000
,
0010
0000
0100
0000
,
2002
0000
0000
3003
,
0000
0000
0000
0000
,
0001
0100
1000
0100
,
0010
1000
0001
1000
,
0100
0001
0100
0010
,
0001
1000
0001
1001
,
1000
1000
1000
0000
,
0001
0001
0001
0000
,
0100
0100
0100
0100
,
0010
0000
0000
1000
0000
0000
0001
0000
0000
1000
0000
0000
0001
0000
0000
0000
,
0020
0000
0000
0030
,
0200
0000
0000
0300
,
2000
0000
0000
3000
,
0002
0000
0000
0003
,
0100
0000
0000
0001
0000
0000
0100
0000
0000
0010
0000
0000
1000
0000
0000
0000
,
0100
0000
0000
1000
0000
0000
0100
0000
0010
0000
0000
0000
0011
0000
0000
0000
,
1000
1000
0001
0001
,
0100
0100
0010
0010
,
1000
0010
0001
0010
,
1000
0100
0001
0100
,
1000
0001
0010
0001
,
1000
0010
1000
1001
,
0001
0000
0000
0001
0000
0000
0001
0000
0000
0000
0101
0000
0000
0000
0000
0000
,
1000
0000
0000
1000
0000
0000
1000
0000
0000
0000
1100
0000
0000
0000
0000
0000
,
0100
0000
0010
0000
,
0001
0000
0000
1000
0000
0000
0001
0000
0000
1000
0000
0000
0001
0000
0000
0000
,
0200
0000
0000
0300
,
0000
0010
0000
0010
0000
0010
0000
0010
,
1000
0001
1000
0010
,
0101
0000
0000
1001
0000
0000
1100
0000
,
0001
0000
0000
0010
0000
0000
0001
0000
,
1000
0000
0000
0010
0000
0000
1000
0000
,
0001
0000
0000
0100
0000
0000
0010
0000
,
1000
1000
0001
1001
,
1000
0000
0000
0001
0000
0000
0100
0000
,
0001
0000
0000
1000
0000
0000
0100
0000
,
1000
0000
0000
0010
0000
0000
0100
0000
,
0001
0001
1000
1001
,
0002
0000
0000
0103
0000
0000
0010
0000
,
2000
0000
0000
3100
0000
0000
1000
0000
,
0002
0000
0000
0103
0000
0000
0010
0000
,
2000
0000
0000
3001
0000
0000
1000
0000
,
0010
0000
0000
0101
0000
0000
0001
0000
,
0010
0000
0000
1100
0000
0000
1000
0000
,
0001
0000
0000
0101
0000
0000
0001
0000
,
1000
0000
0000
1100
0000
0000
0000
0000
,
1000
0000
1000
0000
1000
0000
0001
0000
0001
0000
0001
0000
,
0100
0000
0010
0000
,
0000
2002
0000
0000
,
0000
3003
0000
0000
;

//---------------dance-single - ----------------
#NOTEDATA:;
#CHARTNAME:;
#STEPSTYPE:dance-single;
#DESCRIPTION:;
#CHARTSTYLE:;
#DIFFICULTY:Beginner;
#METER:3;
#RADARVALUES:0.168305,0.269559,0.039802,0.135327,0.000000,148.000000,143.000000,5.000000,17.000000,0.000000,0.000000,0.000000,0.000000,0.000000,0.168305,0.269559,0.039802,0.135327,0.000000,148.000000,143.000000,5.000000,17.000000,0.000000,0.000000,0.000000,0.000000,0.000000;
#CREDIT:TonyAkita;
#NOTES:
// measure 0
0000
0000
0000
0000
,  // measure 1
0000
0000
0000
0000
,  // measure 2
0000
0000
0000
0000
,  // measure 3
0000
0000
0000
0000
,  // measure 4
2000
0000
3000
0000
,  // measure 5
0002
0000
0003
0000
,  // measure 6
0020
0000
0030
0000
,  // measure 7
0100
0100
0100
0000
,  // measure 8
1000
0000
0001
0000
,  // measure 9
0010
0000
0001
0000
,  // measure 10
0100
0000
0001
0000
,  // measure 11
1000
1000
1000
0000
,  // measure 12
0001
0000
1000
0000
,  // measure 13
0010
0000
1000
0000
,  // measure 14
0100
0000
1000
0000
,  // measure 15
0001
0001
0001
0000
,  // measure 16
0200
0000
0300
0000
,  // measure 17
0020
0000
0030
0000
,  // measure 18
2000
0000
3000
0000
,  // measure 19
0002
0000
0003
0000
,  // measure 20
1000
0000
1000
0000
,  // measure 21
0001
0000
0001
0000
,  // measure 22
0010
0000
0010
0000
,  // measure 23
0100
0000
0100
0000
,  // measure 24
1000
1000
1000
1000
,  // measure 25
1000
0000
0001
0000
,  // measure 26
0200
0000
0000
0000
,  // measure 27
0300
0000
0000
0000
,  // measure 28
0010
0000
1000
0000
,  // measure 29
0100
0000
0010
0000
,  // measure 30
0001
0000
0100
0000
,  // measure 31
0010
0000
1000
0000
,  // measure 32
0001
0001
0001
0000
,  // measure 33
1000
1000
1000
0000
,  // measure 34
0100
0000
0010
0000
,  // measure 35
0100
0100
0100
0100
,  // measure 36
0200
0000
0300
0000
,  // measure 37
1000
0000
0001
0000
,  // measure 38
0200
0000
0300
0000
,  // measure 39
0010
0000
1001
0000
,  // measure 40
1000
0000
0001
0000
,  // measure 41
0010
0000
0001
0000
,  // measure 42
1000
1000
1000
0000
,  // measure 43
0001
0000
1000
0000
,  // measure 44
0010
0010
0010
0000
,  // measure 45
0100
0100
0100
0000
,  // measure 46
0001
0001
0001
0000
,  // measure 47
1000
1000
1000
0000
,  // measure 48
0100
0000
0010
0000
,  // measure 49
0001
0000
0010
0000
,  // measure 50
0110
0000
1001
0000
,  // measure 51
1000
1000
1000
1000
,  // measure 52
2000
0000
0000
3000
,  // measure 53
0000
1000
0000
0001
,  // measure 54
0002
0000
0003
0000
,  // measure 55
1001
0000
0110
0000
,  // measure 56
0001
0000
1000
0000
,  // measure 57
0001
0000
0010
0000
,  // measure 58
0001
0000
0100
0000
,  // measure 59
0010
0010
0010
0000
,  // measure 60
1000
0000
0001
0000
,  // measure 61
1000
0000
0010
0000
,  // measure 62
1000
0000
0100
0000
,  // measure 63
0010
0010
0010
0000
,  // measure 64
0002
0000
0003
0000
,  // measure 65
0020
0000
0030
0000
,  // measure 66
0200
0000
0300
0000
,  // measure 67
2000
0000
3000
0000
,  // measure 68
0001
0000
0001
0000
,  // measure 69
0100
0000
0100
0000
,  // measure 70
0010
0000
0010
0000
,  // measure 71
1000
0000
1000
0000
,  // measure 72
0001
0001
0001
0001
,  // measure 73
0001
0000
1000
0000
,  // measure 74
0000
0020
0000
0000
,  // measure 75
0000
0030
0000
0000
;
