#VERSION:0.83;
#TITLE:of the first magnitude;
#SUBTITLE:;
#ARTIST:Trance Liquid;
#TITLETRANSLIT:;
#SUBTITLETRANSLIT:;
#ARTISTTRANSLIT:;
#GENRE:TRANCE;
#ORIGIN:;
#CREDIT:;
#BANNER:of the first magnitude.png;
#BACKGROUND:of the first magnitude-bg.png;
#PREVIEWVID:;
#JACKET:of the first magnitude-jacket.png;
#CDIMAGE:;
#DISCIMAGE:;
#LYRICSPATH:;
#CDTITLE:;
#MUSIC:of the first magnitude.ogg;
#OFFSET:0.000000;
#SAMPLESTART:24.458599;
#SAMPLELENGTH:18.343952;
#SELECTABLE:YES;
#BPMS:0.000=157.000;
#STOPS:;
#DELAYS:;
#WARPS:;
#TIMESIGNATURES:0.000=4=4;
#TICKCOUNTS:0.000=4;
#COMBOS:0.000=1;
#SPEEDS:0.000=1.000=0.000=0;
#SCROLLS:0.000=1.000;
#FAKES:;
#LABELS:0.000=Song Start;
#BGCHANGES:0.000=of the first magnitude.avi=1.000=0=0=0=StretchNoLoop====,
99999=-nosongbg-=1.000=0=0=0 // don't automatically add -songbackground-
;
#KEYSOUNDS:;
#ATTACKS:
;

//---------------dance-single - ----------------
#NOTEDATA:;
#CHARTNAME:;
#STEPSTYPE:dance-single;
#DESCRIPTION:;
#CHARTSTYLE:;
#DIFFICULTY:Hard;
#METER:12;
#RADARVALUES:0.412217,0.549623,0.320613,0.732830,0.164123,378.000000,336.000000,42.000000,96.000000,0.000000,0.000000,0.000000,0.000000,0.000000,0.412217,0.549623,0.320613,0.732830,0.164123,378.000000,336.000000,42.000000,96.000000,0.000000,0.000000,0.000000,0.000000,0.000000;
#CREDIT:Pandemonium X;
#NOTES:
0000
0000
0000
0000
,
0000
0000
0000
0000
,
0000
0000
0000
0000
,
0000
0000
0000
0000
,
0000
0000
0000
0000
,
0000
0000
0000
0000
,
0000
0000
0000
0000
,
0000
0000
0000
0000
,
1001
0000
0001
0100
0000
0001
0000
0020
,
0000
0000
0000
0000
0030
0000
0100
0020
,
0000
0000
0000
0000
0000
0000
0000
0030
,
0000
0100
0001
0100
1000
0010
0100
0001
,
2000
0000
0000
0002
0000
0000
3003
0000
,
2000
0000
0000
3002
0000
0000
0013
0100
,
0010
0002
0000
0000
0000
0000
0000
0000
,
0013
0001
0000
0100
0010
0000
1000
0000
0001
1000
0000
0010
0100
0000
0000
0000
,
0002
0000
1003
0020
0000
1030
0100
0010
,
0001
0200
0000
0310
0001
0010
1000
0001
,
2000
0000
3001
0200
0000
0301
0010
0100
,
1000
0020
0000
0130
1000
0100
0001
1000
,
0002
0000
0013
0002
0000
0013
0100
0010
,
0002
0000
0013
0002
0000
0013
0100
1000
,
0002
0000
1003
0020
0000
2030
0000
3002
,
0000
0013
1000
0010
0001
0100
0010
1000
,
0100
0000
0010
0002
0000
0203
0000
0020
,
0000
0000
0000
0000
0330
0000
0020
2000
,
0000
0000
0000
0000
0000
0000
0000
3030
,
0000
1000
0100
0001
0100
0010
0001
0100
,
0020
0000
0000
2000
0000
0000
3030
0000
,
0020
0000
0000
2000
0000
0030
3100
0010
,
0100
2000
0000
0000
0000
0000
0000
0000
,
3000
2000
3200
0320
,
0230
0000
0300
0022
0000
0000
0033
0000
,
0020
0000
0000
0000
0030
0000
2200
0000
0000
0000
0000
0000
3300
0000
0001
1000
,
0020
0000
0000
0000
0030
0000
0202
0000
0000
0000
0000
0000
0303
0000
0001
1000
,
0020
0000
0030
2200
0000
3300
0100
0010
,
0200
0000
0000
0000
0300
0000
0010
0002
,
0000
1003
1000
0001
0100
0100
0001
0010
,
0200
0000
0000
0310
0002
0000
1003
0200
,
0000
2300
3020
0230
,
0302
0000
0000
0000
0003
0000
2020
0000
0000
0000
3030
0000
1000
0001
1000
0001
,
2000
0000
0000
0000
3000
0000
0220
0000
0000
0000
0330
0000
0001
0010
0001
0010
,
0002
0000
0000
0000
0003
0000
2020
0000
0000
0000
3030
0000
0100
0001
0100
0001
,
0200
0000
0310
2000
0000
3001
0010
0100
,
0020
0000
0000
0200
0000
0000
0000
0000
,
0330
0000
0010
0100
1000
0002
0000
2003
,
0000
0000
3020
0000
0032
0000
0023
0200
,
0000
0000
0000
0330
,
0001
0000
0000
0001
0000
0000
0100
0000
0000
0001
0000
0000
1100
0000
0000
0000
,
1000
0000
0000
1000
0000
0000
0100
0000
0000
0000
1000
0000
1001
0000
0000
0000
,
0001
0000
0000
0001
0000
0000
0010
0000
0000
0001
0000
0000
1100
0000
0000
0000
,
1000
0000
0000
1000
0000
0000
0010
0000
0000
0000
1000
0000
0001
0100
0001
0100
,
0001
0000
0000
0001
0000
0000
0010
0000
0000
0100
0000
0000
1001
0000
0000
0000
,
1000
0000
0000
1000
0000
0000
0100
0000
0000
0010
0000
0000
0200
0000
0000
0000
,
1300
0000
0000
1000
0000
0000
0010
0000
0000
1000
0000
0000
1001
0000
0000
0000
,
0001
0000
0000
0001
0000
0000
0010
0000
0000
0001
0000
0000
0000
0000
0000
0000
,
1100
0000
0000
0110
0000
0000
0011
0000
0000
0000
1001
0000
0000
0000
0000
0000
,
0011
0000
0000
0110
0000
0000
1100
0000
0000
0000
1001
0000
0000
0000
0000
0000
,
0101
0000
0000
1010
0000
0000
1100
0000
0000
0000
0110
0000
0000
0000
0000
0000
,
0101
0000
0000
1010
0000
0000
1100
0000
0000
0000
0110
0000
0000
0000
0000
0000
,
1100
0000
0000
0110
0000
0000
1100
0000
0000
0000
1010
0000
0000
0000
0000
0000
,
0011
0000
0000
0110
0000
0000
0011
0000
0000
0000
0101
0000
0000
0000
0000
0000
,
0101
0000
0000
1010
0000
0000
0101
0000
0000
0000
1001
0000
0000
0000
0000
0000
,
0210
0000
0000
0000
0000
0302
0000
1003
,
0100
0020
0000
0130
2000
0000
3001
1000
,
0020
0000
1030
0001
1000
0010
1000
0100
,
0020
0000
0130
0010
0001
1000
0001
1000
,
0200
0000
0320
0000
0031
0000
0100
0001
,
1000
0000
0000
0001
0000
0000
0100
0000
1000
0000
0000
0100
0000
0000
0001
0000
,
0100
0000
0000
0010
0000
0000
1000
0000
0100
0000
0000
0010
0000
0000
0001
0000
,
0020
0000
0031
1000
0020
0000
1030
0001
,
0020
0032
0023
0230
,
1300
0002
0000
0103
0020
0000
1030
0100
,
0020
0000
0130
1000
0010
0001
0010
1000
,
0002
0000
0003
1000
0001
0100
1000
0100
,
0001
0000
2000
0000
3010
0000
0100
0001
,
0010
0000
0000
1000
0000
0000
0010
0000
0001
0000
0000
0010
0000
0000
1000
0000
,
0010
0000
0000
0100
0000
0000
1000
0000
0100
0000
0000
0010
0000
0000
0001
0000
,
0200
0000
0301
1000
0200
0000
1300
0001
,
0200
0000
0000
0000
,
0300
0000
0000
0000
;

//---------------dance-single - ----------------
#NOTEDATA:;
#CHARTNAME:;
#STEPSTYPE:dance-single;
#DESCRIPTION:;
#CHARTSTYLE:;
#DIFFICULTY:Medium;
#METER:9;
#RADARVALUES:0.319523,0.396950,0.083970,0.312980,0.080153,293.000000,282.000000,11.000000,41.000000,0.000000,0.000000,0.000000,0.000000,0.000000,0.319523,0.396950,0.083970,0.312980,0.080153,293.000000,282.000000,11.000000,41.000000,0.000000,0.000000,0.000000,0.000000,0.000000;
#CREDIT:Pandemonium X;
#NOTES:
// measure 0
0000
0000
0000
0000
,  // measure 1
0000
0000
0000
0000
,  // measure 2
0000
0000
0000
0000
,  // measure 3
0000
0000
0000
0000
,  // measure 4
0000
0000
0000
0000
,  // measure 5
0000
0000
0000
0000
,  // measure 6
0000
0000
0000
0000
,  // measure 7
0000
0000
0000
0000
,  // measure 8
1001
0000
0001
1000
0000
0001
0000
0020
,  // measure 9
0000
0000
0000
0000
0030
0000
0100
0020
,  // measure 10
0000
0000
0000
0030
,  // measure 11
0000
0100
0010
0001
,  // measure 12
1000
0000
0000
0002
0000
0000
0003
0000
,  // measure 13
1000
0000
0000
0002
0000
0000
0013
0000
,  // measure 14
0100
2000
0000
0000
0000
0000
3000
0000
,  // measure 15
0100
1100
0001
0101
,  // measure 16
0001
0000
1000
0010
0000
0100
0001
0000
,  // measure 17
0010
0010
0000
0100
1000
0000
0010
0000
,  // measure 18
0100
0000
0001
1000
0000
0010
0100
0000
,  // measure 19
0001
0001
0000
0010
0100
0000
1000
0000
,  // measure 20
0100
0000
1000
0010
0000
0100
0001
1000
,  // measure 21
0100
0000
0010
0001
0000
0010
0100
1000
,  // measure 22
0010
0000
0100
0001
0000
1000
0000
0001
,  // measure 23
0000
1000
0100
0000
0010
0000
0001
0000
,  // measure 24
0010
0000
0001
0100
0000
0010
0000
0200
,  // measure 25
0000
0000
0000
0000
0300
0000
0001
0200
,  // measure 26
0000
0000
0000
0000
0000
0000
0000
0300
,  // measure 27
0000
0010
0100
0000
0001
0000
1000
0000
,  // measure 28
0001
0000
0000
2000
0000
0000
3000
0000
,  // measure 29
0001
0000
0000
2000
0000
0000
3100
0000
,  // measure 30
1000
0020
0000
0000
0000
0000
0000
0000
,  // measure 31
0030
0100
0010
1000
,  // measure 32
0002
0000
0000
0020
0000
0000
0033
0000
,  // measure 33
0200
0000
0000
2000
0000
0000
3300
0100
,  // measure 34
2000
0000
0000
0020
0000
0000
3030
0010
,  // measure 35
0200
0000
0000
0020
0000
0330
0100
0001
,  // measure 36
0020
0000
0000
0000
0000
0000
0130
1000
,  // measure 37
0000
0001
0001
1000
0001
0010
0001
1000
,  // measure 38
0100
0000
0000
1000
0010
0000
0100
0001
,  // measure 39
0000
1000
0001
0100
,  // measure 40
0002
0000
0000
0023
0000
0000
0130
0010
,  // measure 41
0002
0000
0000
2003
0000
0000
3010
1000
,  // measure 42
0200
0000
0000
2300
0000
0000
3001
0100
,  // measure 43
0020
0000
1030
0010
0000
0100
0010
1000
,  // measure 44
0002
0000
0000
2000
0000
0000
0000
3003
,  // measure 45
0000
0000
0001
1000
0100
1000
0000
0010
,  // measure 46
0000
0000
0100
0000
0001
0000
2000
0002
,  // measure 47
0000
0000
0000
3003
,  // measure 48
1000
0000
0000
1000
0000
0000
1000
0000
0000
1000
0000
0000
0000
0000
0000
0000
,  // measure 49
0001
0000
0000
0001
0000
0000
0001
0000
0000
0000
0001
0000
0000
0000
0000
0000
,  // measure 50
0100
0000
0000
0100
0000
0000
0100
0000
0000
0100
0000
0000
0000
0000
0000
0000
,  // measure 51
0010
0000
0000
0010
0000
0000
0010
0000
0000
0000
0010
0000
0000
0000
0000
0000
,  // measure 52
1000
0000
0000
0010
0000
0000
1000
0000
0000
0010
0000
0000
0000
0000
0000
0000
,  // measure 53
0100
0000
0000
0001
0000
0000
0100
0000
0000
0001
0000
0000
0000
0000
0000
0000
,  // measure 54
0010
0000
0000
0001
0000
0000
0010
0000
0000
0001
0000
0000
0000
0000
0000
0000
,  // measure 55
1000
0000
0000
0100
0000
0000
1000
0000
0000
0100
0000
0000
0000
0000
0000
0000
,  // measure 56
1000
0000
0000
0001
0000
0000
0100
0000
0000
0000
1001
0000
0000
0000
0000
0000
,  // measure 57
0001
0000
0000
0010
0000
0000
0100
0000
0000
0000
1100
0000
0000
0000
0000
0000
,  // measure 58
0100
0000
0000
1000
0000
0000
0010
0000
0000
0000
0101
0000
0000
0000
0000
0000
,  // measure 59
0001
0000
0000
0010
0000
0000
0100
0000
0000
0000
1100
0000
0000
0000
0000
0000
,  // measure 60
0100
0000
0000
1000
0000
0000
0001
0000
0000
0000
0011
0000
0000
0000
0000
0000
,  // measure 61
0001
0000
0000
1000
0000
0000
0001
0000
0000
0000
1010
0000
0000
0000
0000
0000
,  // measure 62
1000
0000
0000
0001
0000
0000
0010
0000
0000
0000
0011
0000
0000
0000
0000
0000
,  // measure 63
0202
0000
0000
0000
0303
0100
0000
0010
,  // measure 64
1000
0001
0010
0100
,  // measure 65
0010
0000
0001
0000
0100
0010
0100
0010
,  // measure 66
0100
0000
0001
0000
0010
0100
0010
0100
,  // measure 67
0010
0000
0001
0000
1000
0000
0100
1000
,  // measure 68
0020
1030
2000
3100
,  // measure 69
0200
0310
0020
0031
,  // measure 70
1000
0000
0001
0100
0010
0000
0100
0001
,  // measure 71
1000
0001
1000
0010
,  // measure 72
0100
0001
0000
0010
0100
0000
0010
0001
,  // measure 73
1000
0000
0001
0000
1000
0010
1000
0010
,  // measure 74
1000
0000
0010
0000
0100
0001
0100
0001
,  // measure 75
0100
0000
0001
0000
0010
0000
0100
0010
,  // measure 76
0002
0103
0020
1030
,  // measure 77
0002
1003
0020
0130
,  // measure 78
1000
0000
0001
0100
0010
0000
1000
0100
,  // measure 79
0020
0000
0000
0000
,  // measure 80
0030
0000
0000
0000
;

//---------------dance-single - ----------------
#NOTEDATA:;
#CHARTNAME:;
#STEPSTYPE:dance-single;
#DESCRIPTION:;
#CHARTSTYLE:;
#DIFFICULTY:Easy;
#METER:6;
#RADARVALUES:0.206108,0.305346,0.129772,0.061069,0.000000,189.000000,172.000000,17.000000,8.000000,0.000000,0.000000,0.000000,0.000000,0.000000,0.206108,0.305346,0.129772,0.061069,0.000000,189.000000,172.000000,17.000000,8.000000,0.000000,0.000000,0.000000,0.000000,0.000000;
#CREDIT:Pandemonium X;
#NOTES:
0000
0000
0000
0000
,
0000
0000
0000
0000
,
0000
0000
0000
0000
,
0000
0000
0000
0000
,
0000
0000
0000
0000
,
0000
0000
0000
0000
,
0000
0000
0000
0000
,
0000
0000
0000
0000
,
1000
0000
0001
0000
,
0100
0000
0001
0000
,
0010
0000
0001
0000
,
1000
0000
0100
0000
,
1000
0000
0010
0000
,
0100
0000
0001
0000
,
1000
0000
0000
0000
,
0110
0000
0000
0000
,
1000
0000
0000
1000
0000
0000
1000
0000
,
0001
0000
1000
0001
,
0100
0000
0000
0100
0000
0000
0100
0000
,
0010
0000
1000
0010
,
1000
0000
0000
0001
0000
0000
0010
0000
,
0001
0000
0000
0010
0000
0000
0001
0000
,
1000
0000
0000
0001
0000
1000
0000
0001
,
0000
0100
0010
1000
,
0100
0000
0000
1000
0000
0001
0000
0200
,
0000
0000
0000
0000
0300
0000
0010
0200
,
0000
0000
0000
0000
0000
0000
0000
0300
,
0000
0010
1000
0001
,
0010
0000
0000
0020
0000
0000
0030
0000
,
0010
0000
0000
0020
0000
0000
0130
0000
,
0010
0002
0000
0000
0000
0000
0000
0000
,
0003
1000
0100
0010
,
0001
0000
0000
0100
0000
0000
0000
0000
,
0001
0000
0000
0100
0000
0000
0000
0010
,
1000
0000
0000
0010
0000
0000
0000
1000
,
0010
0000
0000
1000
0000
0000
0010
1000
,
0001
0000
0000
1000
,
0001
0010
0100
0010
,
0001
0000
0000
0000
1000
0000
0000
0001
,
0000
0100
0001
0010
,
0100
0000
0000
0100
0000
0000
0010
0000
,
0100
0000
0000
0100
0000
0000
0010
0000
,
0001
0000
0000
0001
0000
0000
0010
0000
,
0001
0000
0000
0001
0000
0000
1000
0000
,
0010
0000
0000
1000
0000
0000
0000
0000
,
0000
0000
0001
0000
1000
0000
0000
0010
,
0000
0000
0100
0000
0010
0000
1000
0001
,
0000
0000
0000
0000
,
1001
0000
0000
0000
,
1010
0000
0000
0000
,
0101
0000
0000
0000
,
0011
0000
0000
0000
,
1100
0000
0000
0000
,
1001
0000
0000
0000
,
1010
0000
0000
0000
,
0101
0000
0000
0000
,
1001
0001
0010
0000
,
1001
1000
0010
0000
,
0110
0010
1000
0000
,
0110
0100
0001
0000
,
0011
0001
1000
0000
,
1010
1000
0001
0000
,
1100
1000
0001
0000
,
0202
0000
0000
0303
,
0001
0000
1000
0000
,
0010
0000
1000
0100
,
0010
0000
0100
1000
,
0010
0100
0001
1000
,
0001
0000
1000
0000
,
0010
0000
1000
0000
,
0100
0000
1000
0000
,
0010
0100
0010
1000
,
0001
0000
0010
0000
,
0001
0000
0100
0001
,
0010
0000
0100
0010
,
0001
0000
1000
0000
,
0001
0000
1000
0000
,
0010
0000
0100
0000
,
0010
0000
1000
0000
,
0002
0000
0000
0000
,
0003
0000
0000
0000
;

//---------------dance-single - ----------------
#NOTEDATA:;
#CHARTNAME:;
#STEPSTYPE:dance-single;
#DESCRIPTION:;
#CHARTSTYLE:;
#DIFFICULTY:Beginner;
#METER:3;
#RADARVALUES:0.089423,0.152673,0.007634,0.000000,0.000000,82.000000,81.000000,1.000000,0.000000,0.000000,0.000000,0.000000,0.000000,0.000000,0.089423,0.152673,0.007634,0.000000,0.000000,82.000000,81.000000,1.000000,0.000000,0.000000,0.000000,0.000000,0.000000,0.000000;
#CREDIT:Pandemonium X;
#NOTES:
0000
0000
0000
0000
,
0000
0000
0000
0000
,
0000
0000
0000
0000
,
0000
0000
0000
0000
,
0000
0000
0000
0000
,
0000
0000
0000
0000
,
0000
0000
0000
0000
,
0000
0000
0000
0000
,
0010
0000
0000
0000
,
0100
0000
0000
0000
,
0001
0000
0000
0000
,
1000
0000
0000
0000
,
0010
0000
0000
0000
,
1000
0000
0000
0000
,
0001
0000
0000
0000
,
0010
0000
0001
0000
,
1000
0000
0000
0000
,
0001
0000
0000
0000
,
0100
0000
0000
0000
,
0010
0000
0000
0000
,
1000
0000
0000
0000
,
0100
0000
0000
0000
,
1000
0000
0000
0000
,
0001
0000
0000
0000
,
0100
0000
0010
0000
,
0100
0000
0000
0100
,
0000
0000
0000
0000
,
0000
0010
0000
0000
,
1000
0000
0000
0000
,
1000
0000
0000
0000
,
0001
0000
0000
0000
,
0000
0100
0000
0000
,
0010
0000
0000
0000
,
0010
0000
0000
0000
,
0100
0000
0000
0000
,
0100
0000
0000
0000
,
0001
0000
0000
0000
,
1000
0000
0001
0000
,
0100
0000
0000
0000
,
0000
0010
0000
0000
,
1000
0000
0000
0000
,
1000
0000
0000
0000
,
0001
0000
0000
0000
,
0001
0000
0000
0000
,
0100
0000
0000
0000
,
0000
0010
0000
0000
,
0100
0000
0010
0000
,
1000
0000
0000
0000
,
0001
0000
0000
0000
,
0001
0000
0000
0000
,
1000
0000
0000
0000
,
1000
0000
0000
0000
,
0010
0000
0000
0000
,
0010
0000
0000
0000
,
0100
0000
0000
0000
,
0100
0000
0000
0000
,
0010
0000
0000
0000
,
1000
0000
0000
0000
,
0001
0000
0000
0000
,
0100
0000
0000
0000
,
0010
0000
0000
0000
,
0100
0000
0000
0000
,
0001
0000
0000
0000
,
1000
0000
0000
0000
,
0001
0000
0000
0000
,
1000
0000
0000
0000
,
0010
0000
0000
0000
,
1000
0000
0000
0000
,
0100
0000
0000
0000
,
1000
0000
0000
0000
,
0001
0000
0001
0000
,
0001
0000
0000
0000
,
1000
0000
0000
0000
,
0010
0000
0000
0000
,
0100
0000
0000
0000
,
0010
0000
0000
0000
,
1000
0000
1000
0000
,
1000
0000
1000
0000
,
0001
0000
1000
0000
,
0001
0000
0000
0000
,
0110
0000
0000
0000
;
