#TITLE:c.s.q.n.;
#SUBTITLE:;
#ARTIST:Aoi;
#TITLETRANSLIT:;
#SUBTITLETRANSLIT:;
#ARTISTTRANSLIT:;
#GENRE:;
#CREDIT:;
#BANNER:c.s.q.n..png;
#BACKGROUND:c.s.q.n.-bg.png;
#LYRICSPATH:;
#CDTITLE:;
#MUSIC:c.s.q.n..ogg;
#OFFSET:0.000000;
#SAMPLESTART:89.653999;
#SAMPLELENGTH:12.000000;
#SELECTABLE:YES;
#BPMS:0.000000=174.000000
;
#STOPS:32.000000=0.172000,
32.500000=0.172000,
33.000000=0.172000,
33.500000=0.172000
;
#BGCHANGES:-0.900=c.s.q.n..avi=1.000=0=0=0=StretchNoLoop====,
99999=-nosongbg-=1.000=0=0=0 // don't automatically add -songbackground-
;
#KEYSOUNDS:;
#ATTACKS:;

//---------------dance-single - ----------------
#NOTES:
     dance-single:
     :
     Challenge:
     19:
     1.094413,1.354552,0.145001,0.539726,1.566817,951.000000,933.000000,18.000000,67.000000,6.000000,0.000000,1.094413,1.354552,0.145001,0.539726,1.566817,951.000000,933.000000,18.000000,67.000000,6.000000,0.000000:
0000
0000
0000
0000
,
0000
0000
0000
0000
,
0000
0000
0000
0000
,
0000
0000
0000
0000
,
0000
0000
0000
0000
,
0000
0000
0001
0000
0001
0000
0001
0000
1000
0000
0001
0010
0000
0100
0010
0000
,
0000
0000
0100
0000
0100
0000
0100
0000
1000
0000
0001
0100
0000
0000
0000
0000
,
0001
0000
0000
0000
0000
0000
0001
0000
0000
0000
0000
0000
1000
0000
0000
0000
0000
0000
1000
0000
0000
0000
0000
0000
0001
0000
0000
0000
0000
0000
0100
0000
0000
0000
0000
0000
0010
0000
1000
0000
0010
0000
0100
0000
0000
0001
0000
0000
,
2000
0000
3002
0000
0023
0030
0220
0330
1000
0000
0001
0000
0001
0000
0001
0000
,
0100
0000
0010
1000
0000
0001
0020
0000
0030
0000
0100
0000
0100
0000
0100
0000
,
1000
0000
0001
0200
0000
0000
0310
0000
1000
0000
1000
0000
0001
0000
0001
0000
,
0100
0000
0010
1000
0000
0001
0020
0000
0030
0000
0100
0000
0100
0000
0100
0000
,
1000
0001
0100
0010
1000
0001
0010
0001
2000
0000
0000
3010
1000
0000
0001
0000
,
0100
0000
0010
0000
1000
0001
0010
0100
0020
0000
0000
0031
1000
0000
0100
0000
,
0010
0000
0001
0000
0100
0010
1000
0001
0010
0100
1000
0001
0010
0001
1000
0010
,
0100
0001
1000
0001
1000
0010
0100
0001
1000
0001
1000
0100
0020
0000
0000
0100
0000
0000
0230
0000
0000
1000
0000
0000
,
2300
0000
3001
0000
1002
0000
0000
0000
0103
0000
0010
1000
0000
0001
0000
0010
,
0000
0100
0000
1000
0001
0010
0002
0000
0000
0103
0010
1000
0001
0100
0000
0020
,
0000
1030
0001
1000
0100
0010
0001
0100
0000
0001
0010
1000
0010
0100
1000
0001
,
1000
0010
0100
0001
0010
0100
0000
0001
0000
00M1
0000
0010
0100
1000
0001
1000
,
0010
0100
0010
0100
0001
1000
0100
0010
0001
0000
0100
0000
11M0
0000
1000
0000
,
0010
0000
0M11
0000
0001
1000
0001
0000
0010
0000
0010
0000
0100
1000
0000
0100
,
0010
0001
1000
0001
0100
0010
0100
0010
1000
0000
0010
0000
0M11
0000
0001
0000
,
0100
0000
11M0
0000
4000
0000
3010
0000
0200
0000
0001
0000
0301
1000
0000
0100
,
0010
0000
0001
0000
1000
0000
0001
0000
1000
0000
0100
0000
0020
0000
0000
0000
0000
0000
0030
0000
0000
0000
0000
0000
1001
0000
0000
0000
0000
0000
0000
0000
0000
0000
0000
0000
0001
0000
0000
0100
0000
0000
0010
0000
0000
1000
0000
0000
,
0001
0010
0001
1000
0400
0000
0310
0001
1000
0010
0100
0001
0100
0010
1000
0001
,
1000
0100
0010
0001
0100
0010
1000
0001
0100
0000
0000
0000
0001
0010
0100
1000
,
0010
0100
0001
1000
0100
0010
0001
1000
0010
0100
0010
1000
0001
1000
0100
0010
,
0100
1000
0001
0100
0010
1000
0010
0100
0020
0000
0000
0000
1030
0000
1000
0000
,
0001
0001
0010
0010
0100
0100
1000
1000
,
0001
0000
0000
0000
0001
0000
0000
0000
0100
0000
0000
0000
0100
0000
0000
0000
0010
0000
1000
0010
1000
0000
0001
0000
0010
0000
0001
0010
0001
0000
1000
0000
,
0010
0000
0000
0000
0000
0000
0000
0000
0000
0000
0000
0000
0100
0000
0000
0000
0000
0000
0000
0000
0000
0000
0000
0000
0001
0000
0000
0000
0000
0000
0000
0000
0000
0000
0000
0000
1000
0000
0000
0000
0000
0000
0000
0000
0000
0000
0000
0000
0001
0000
0000
0000
0000
0000
1000
0000
0000
0000
0000
0000
0001
0000
0000
0000
0000
0000
0000
0000
0000
0000
0000
0000
1000
0000
0000
0000
0000
0000
0000
0000
0000
0000
0000
0000
0100
0000
0000
0000
0000
0000
0000
0000
0000
0000
0000
0000
0010
0000
0000
0000
0000
0000
0000
0000
0001
0000
0000
0000
0000
0000
0000
0000
0010
0000
0000
0000
0000
0000
0000
0000
0001
0000
0000
0000
0000
0000
0000
0000
0000
0000
0000
0000
1000
0000
0000
0000
0000
0000
0000
0000
0000
0000
0000
0000
0040
0000
0000
0000
0000
0000
0000
0000
0000
0000
0000
0000
0000
0000
0000
0000
0000
0000
0000
0000
0000
0000
0000
0000
0430
0000
0000
0000
0000
0000
0000
0000
0000
0000
0000
0000
0000
0000
0000
0000
0000
0000
0000
0000
0000
0000
0000
0000
,
0304
0000
4003
0000
3100
0010
0001
1000
0010
0000
0100
0001
0000
1000
0000
0200
,
0000
0310
0000
0001
0100
0001
1000
0100
0000
0010
0001
1000
0100
1000
0001
0100
,
0000
0000
0010
0000
1000
0000
0010
0000
1000
0000
0010
0000
1000
0000
0000
0001
0000
0000
1000
0000
0000
0100
0000
0000
0000
0000
0000
1000
0000
0000
0010
0000
0000
0001
0000
0000
0000
0000
0000
0010
0000
0000
1000
0000
0000
0001
0000
0000
,
1000
0100
0010
0001
0100
0010
1000
0001
0020
0000
0030
1100
0000
0000
0020
0000
,
0030
0101
0000
0001
1000
0000
0100
0000
0120
0000
0000
0000
0031
0000
0000
0000
,
1000
0010
0100
0001
1000
0001
0010
0100
0001
0100
1000
0001
0100
1000
0100
0020
,
0000
1030
0000
0001
0010
0100
0010
0001
1000
0000
0011
0000
0000
0000
0001
0000
,
1010
0000
0000
0000
1000
0000
0011
0001
1000
0010
0100
0000
0001
0100
0010
1000
,
0001
1000
0100
0010
1000
0010
0100
1000
0002
0000
0000
0000
0000
0000
1003
0000
,
0001
0100
1000
0100
0020
0000
0000
1030
,
0100
0001
0100
0010
0002
0000
0000
0103
,
1000
0100
0001
1000
0200
0000
0301
0100
,
0010
0001
1000
0010
0200
0000
0000
0301
,
0100
0001
0010
0100
2000
0000
3020
0000
,
0230
0302
0023
0000
,
0230
0000
0000
0000
2300
3000
1001
0000
,
0000
0000
0011
0000
1100
0000
0000
0000
0002
0000
0000
0000
1003
0000
0000
0001
,
0010
0000
0001
0000
1000
0010
0100
0001
2000
0000
0000
0000
3100
0000
0000
0010
,
0001
0000
1000
0000
0001
0010
0100
1000
0002
0000
0000
0000
0103
0000
0000
0001
,
0100
0000
0001
0000
1000
0010
0100
0001
2000
0000
0000
0000
3001
0000
0000
0100
,
0001
1000
0001
0020
0000
0130
1000
0001
0100
0010
1000
0001
0010
0001
1000
0010
,
0000
0100
0010
0000
1000
0001
0000
0010
0000
0001
1000
0100
1000
0001
0010
0001
,
0000
0100
0001
0100
1000
0100
0010
1000
0000
0001
0010
0100
0010
0001
1000
0100
,
0000
0000
0000
0010
0000
0000
0001
0000
0000
1000
0000
0000
0010
0000
0000
0100
0000
0000
0001
0000
0000
0100
0000
0000
0010
0000
1000
0000
0001
0000
1000
0000
0000
0100
0000
0000
0010
0000
0001
0000
0010
0000
0100
0000
0000
1000
0000
0000
,
0004
0000
0403
0000
0340
0000
4030
0000
3002
0000
0000
0203
0000
0000
0310
0000
,
2000
0000
0000
3200
0000
0000
0310
0000
0000
0002
0000
0000
0203
0000
0310
0000
,
2000
0000
0000
3200
0000
0000
0310
0000
0002
0000
0000
0023
0000
0000
0130
2000
,
0000
0000
3002
0000
0000
0103
0010
0000
1000
0010
1000
0001
0010
0100
0010
0001
,
1000
0000
0001
0000
4000
0000
3001
0100
0001
0010
0100
0010
0001
1000
0010
0100
,
0001
1000
0100
1000
0001
0100
0001
0010
0100
1000
0001
1000
0010
0100
0001
1000
,
0010
0000
0000
1000
0000
0000
0100
0000
0000
0010
0000
0000
0001
0000
0000
1000
0000
0000
0010
0000
0000
0100
0000
0000
0001
0000
1000
0000
0100
0000
1000
0000
0000
0100
0000
0000
0010
0000
0000
0001
0000
0000
1000
0000
0010
0000
0100
0000
,
0040
0000
0000
1030
0000
0000
0001
0000
0000
0010
0000
0000
0100
0000
1000
0000
0001
0000
1000
0000
0010
0000
0100
0000
0010
0000
0000
0000
0000
0000
1000
0000
0000
0000
0000
0000
0100
0000
0000
0000
0000
0000
0010
0000
0000
0000
0000
0000
,
0001
0000
0100
0000
0010
0000
1000
0000
0001
0000
0010
0000
0100
0000
1000
0001
,
0100
0001
0010
0100
1000
0010
0100
0000
0001
0000
2000
0000
3100
0000
0010
0001
,
0010
0100
1000
0010
0100
0001
1000
0001
0010
0000
0100
0000
2000
0000
3001
0000
,
0010
0100
0010
0001
0100
0010
2000
0000
3002
0000
0013
0100
1000
0001
0100
0010
,
0001
0010
0100
0000
0001
1000
0100
0010
0200
0000
0000
0000
0301
0000
0100
0010
,
0000
0001
1000
0010
0100
0000
0010
0000
0100
0001
1000
0100
0010
0100
1000
0010
,
0100
0001
0100
0010
0001
0010
1000
0001
0000
2000
0000
0000
3100
0000
0010
0000
,
0001
0010
0001
1000
0010
0100
0001
1000
0200
0000
0000
0320
0000
0000
0031
0000
,
2001
0000
0000
0000
3010
0000
0100
0000
0001
0000
1000
0000
0001
0000
0100
0010
,
1000
0001
1000
0100
0010
0001
0100
0000
0010
0000
2000
0000
3001
0000
0100
0010
,
1000
0010
0100
0001
1000
0100
0010
0100
1000
0000
0010
0000
2000
0000
3001
0000
,
0010
0100
1000
0100
0001
0100
0020
0000
0000
0000
0031
1000
0010
1000
0100
0010
,
0001
1000
0010
0100
0001
1000
0010
1000
0100
0010
0100
0000
1000
0001
0000
0100
,
0010
0000
0000
0000
0000
0000
1000
0000
0000
0001
0000
0000
0000
0000
0000
1000
0000
0000
0010
0000
0000
1000
0000
0000
0100
0000
0000
0010
0000
0000
0001
0000
1000
0000
0010
0000
0100
0000
0000
0001
0000
0000
0000
0000
0000
1000
0000
0000
,
0001
0000
0010
0100
0010
0001
1000
0010
0100
0001
1000
0010
1000
0100
0010
0001
,
0100
0000
0000
0010
0000
0000
1000
0000
0000
0001
0000
0000
1000
0000
0001
0000
0100
0000
0010
0000
0000
0100
0000
0000
0001
0000
1000
0000
0100
0000
1000
0000
0000
0001
0000
0000
0100
0000
0000
0010
0000
0000
1000
0000
0001
0000
0100
0000
,
0001
0000
0000
0100
0000
0000
0010
0000
0000
1000
0000
0000
0001
0000
0010
0000
0001
0000
1000
0000
0010
0000
1000
0000
0001
0000
0000
0010
0000
0000
0100
0000
0000
0010
0000
0000
0000
0000
0000
0001
0000
0000
0000
0000
0000
1000
0000
0000
,
0000
0010
0000
0100
0001
1000
0200
0000
0000
0310
0001
1000
0000
0010
0100
0001
,
0000
1000
0100
0010
0001
1000
0010
0100
0000
0001
0100
1000
0100
0010
1000
0001
,
1000
0100
0010
0001
0100
0010
0000
0001
0000
00M1
0000
0100
0001
1000
0100
1000
,
0001
0100
0100
1000
0020
0000
0030
0000
1000
0000
1000
0000
0001
0000
0001
0000
,
0010
0000
0010
0000
0100
0000
0100
0000
1000
0100
0010
0000
0001
0000
1000
0000
,
0001
0000
0000
0100
0000
0000
0000
0000
0000
0001
0000
0000
1000
0000
0010
0000
1000
0000
0001
0000
0010
0000
0001
0000
1000
0000
0000
0001
0000
0000
0010
0000
0000
0100
0000
0000
1000
0000
0000
0001
0000
0000
0010
0000
0000
0001
0000
0000
,
1000
0000
0010
0000
0100
0000
0001
0000
0010
0000
0100
0000
1000
0000
0001
0000
1000
0010
1000
0000
0001
0000
0010
0001
0010
0000
0001
0000
4000
0000
3000
0000
,
0004
4000
0000
0000
0000
0000
0000
0000
0000
0000
0000
0000
3003
0000
0000
0000
1001
0000
0000
0000
0000
0000
0000
0000
0000
0000
0000
0000
0000
0000
0000
0000
;

//---------------dance-double - ----------------
#NOTES:
     dance-double:
     :
     Challenge:
     19:
     1.072548,1.354552,0.128890,0.531671,1.546678,932.000000,916.000000,16.000000,66.000000,6.000000,0.000000,1.072548,1.354552,0.128890,0.531671,1.546678,932.000000,916.000000,16.000000,66.000000,6.000000,0.000000:
00000000
00000000
00000000
00000000
,
00000000
00000000
00000000
00000000
,
00000000
00000000
00000000
00000000
,
00000000
00000000
00000000
00000000
,
00000000
00000000
00000000
00000000
,
00000000
00000000
10000000
00000000
10000000
00000000
10000000
00000000
00100000
00000000
01000000
00010000
00000000
01000000
00100000
00000000
,
00000000
00000000
01000000
00000000
01000000
00000000
01000000
00000000
00001000
00000000
00010000
00001000
00000000
00000000
00000000
00000000
,
00010000
00000000
00000000
00000000
00000000
00000000
00010000
00000000
00000000
00000000
00000000
00000000
00000100
00000000
00000000
00000000
00000000
00000000
00000100
00000000
00000000
00000000
00000000
00000000
00000010
00000000
00000000
00000000
00000000
00000000
00000001
00000000
00000000
00000000
00000000
00000000
00001000
00000000
00000010
00000000
00000100
00000000
00000010
00000000
00000000
00001000
00000000
00000000
,
00000002
00000003
00000020
00000030
00002000
00003000
00022000
00033000
00010000
00000000
00001000
00000000
00001000
00000000
00001000
00000000
,
01000000
00000000
00100000
10000000
00000000
00010000
00200000
00000000
00300000
00000000
01000000
00000000
01000000
00000000
01000000
00000000
,
10000000
00000000
00010000
02000000
00000000
00000000
03001000
00000000
00010000
00000000
00010000
00000000
00000100
00000000
00000100
00000000
,
00000010
00000000
00000001
00001000
00000000
00000010
00000200
00000000
00000300
00000000
00000001
00000000
00000001
00000000
00000001
00000000
,
00001000
00000100
00010000
00000100
00001000
00000001
00000100
00000010
00002000
00000000
00000000
00003010
00010000
00000000
00001000
00000000
,
01000000
00000000
00010000
00000000
01000000
00100000
10000000
00010000
02000000
00000000
00000000
03100000
10000000
00000000
00010000
00000000
,
10000000
00000000
01000000
00000000
00100000
00001000
00010000
00000100
00001000
00000100
00000010
00000001
00001000
00000001
00000100
00001000
,
00010000
00000000
00000000
00100000
00000000
00000000
10000000
00000000
00000000
00010000
00000000
00000000
10000000
00000000
01000000
00000000
10000000
00000000
01000000
00000000
10000000
00000000
01000000
00000000
00200000
00000000
00000000
00000000
00000000
00000000
01000000
00000000
00000000
00000000
00000000
00000000
02300000
00000000
00000000
00000000
00000000
00000000
10000000
00000000
00000000
00000000
00000000
00000000
,
23000000
00000000
30010000
00000000
10020000
00000000
00000000
00000000
01030000
00000000
00100000
10000000
00000000
00010000
00000000
00100000
,
00000000
00001000
00000000
00010000
00000010
00001000
00000020
00000000
00000000
00000130
00000001
00001000
00000010
00000100
00000000
00001000
,
00000000
00010000
00000100
00001000
00000100
00010000
00001000
01000000
00000000
00010000
00100000
10000000
00100000
01000000
10000000
00010000
,
10000000
00100000
01000000
00100000
00000000
00010000
00000000
00001000
00000000
000M1000
00000000
00000010
00000100
00000001
00001000
00000001
,
00000010
00000100
00010000
00001000
00100000
00010000
00100000
00010000
10000000
00000000
00100000
00000000
0M110000
00000000
00010000
00000000
,
01000000
00000000
11M00000
00000000
10000000
00010000
10000000
00000000
00100000
00000000
00100000
00000000
01000000
00001000
00000000
00010000
,
00000010
00001000
00000010
00001000
00000100
00000010
00000001
00001000
00000001
00000000
00000010
00000000
0000101M
00000000
00001000
00000000
,
00000100
00000000
0000M101
00000000
00000004
00000000
00000013
00000000
00000200
00000000
00000000
00000000
00001300
00000100
00000000
00010000
,
00001000
00000000
00010000
00000000
00001000
00000000
00010000
00000000
00001000
00000000
00010000
00000000
00002000
00000000
00000000
00000000
00000000
00000000
00000000
00000000
00000000
00000000
00000000
00000000
00103000
00000000
00000000
00000000
00000000
00000000
00000000
00000000
00000000
00000000
00000000
00000000
00010000
00000000
00000000
10000000
00000000
00000000
00100000
00000000
00000000
01000000
00000000
00000000
,
00010000
10000000
00010000
01000000
00040000
00000000
01030000
00001000
00010000
00000100
00010000
00000100
00001000
00000100
00000010
00000001
,
00001000
00000010
00001000
00000010
00000100
00000001
00001000
00000010
00001000
00000000
00000000
00000000
00000001
00000100
00000001
00001000
,
00000010
00010000
00000010
00010000
00001000
00100000
00010000
10000000
00100000
01000000
00010000
10000000
00010000
00100000
01000000
10000000
,
00010000
01000000
00001000
00010000
00000010
00001000
00000010
00010000
00002000
00000000
00000000
00000000
00103000
00000000
00100000
00000000
,
01000000
01000000
10000000
10000000
00010000
00010000
01000000
01000000
,
00001000
00000000
00000000
00000000
00001000
00000000
00000000
00000000
00010000
00000000
00000000
00000000
00010000
00000000
00000000
00000000
00000100
00000000
00001000
00000100
00001000
00000000
00000001
00000000
00000100
00000000
00000001
00000100
00000001
00000000
00000100
00000000
,
00000010
00000000
00000000
00001000
00000000
00000000
00000001
00000000
00000000
00001000
00000000
00000000
00000100
00000000
00000000
00000010
00000000
00000000
00000100
00000000
00000000
00010000
00000000
00000000
00001000
00000000
00010000
00000000
00001000
00000000
00010000
00000000
00000000
00001000
00000000
00000000
04000000
00000000
00000000
00000000
00000000
00000000
03400000
00000000
00000000
00000000
00000000
00000000
,
40300000
00000000
30040000
00000000
00130000
01000000
10000000
00010000
00100000
00000000
00001000
00010000
00000000
00001000
00000000
02000000
,
00000000
03100000
00000000
10000000
00010000
10000000
01000000
00010000
00000000
00001000
00010000
00000010
00001000
00000010
00000100
00000001
,
00000000
00000000
00001000
00000000
00000100
00000000
00001000
00000000
00000100
00000000
00001000
00000000
00000100
00000000
00000000
00000010
00000000
00000000
00000001
00000000
00000000
00001000
00000000
00000000
00000000
00000000
00000000
00000001
00000000
00000000
00000100
00000000
00000000
00001000
00000000
00000000
00000000
00000000
00000000
00000100
00000000
00000000
00000010
00000000
00000000
00010000
00000000
00000000
,
00001000
00100000
00001000
00100000
00010000
10000000
00010000
00100000
02000000
00000000
03000000
10100000
00000000
00000000
02000000
00000000
,
03000000
00101000
00000000
00001000
00010000
00000000
00000100
00000000
00002100
00000000
00000000
00000000
00003001
00000000
00000000
00000000
,
00000001
00001000
00000010
00010000
00000010
00001000
00000100
00001000
00000001
00000100
00001000
00010000
00100000
10000000
00010000
00200000
,
00000000
01300000
00000000
10000000
00010000
00100000
00001000
00100000
00010000
00000000
10100000
00000000
00000000
00000000
10000000
00000000
,
00110000
00000000
00000000
00000000
00010000
00000000
01000000
00001000
00010000
00000100
00001000
00000000
00000100
00000010
00000100
00000010
,
00000001
00001000
00000010
00010000
00001000
00010000
00100000
10000000
00020000
00000000
00000000
00000000
00000000
00000000
10030000
00000000
,
01000000
00010000
01000000
00100000
00002000
00000000
00000000
00013000
,
00000010
00000100
00001000
00000100
00000020
00000000
00000000
00001030
,
00000001
00000010
00001000
00000010
00000200
00000000
00010300
00001000
,
00010000
00100000
10000000
00010000
00200000
00000000
00000000
01300000
,
10000000
01000000
00010000
01000000
00200000
00000000
00302000
00000000
,
00023000
00030020
00000230
00000000
,
00000302
00000000
00000000
00000000
00002003
00003000
00001001
00000000
,
00000000
00000000
00000101
00000000
00001010
00000000
00000000
00000000
00000002
00000000
00000000
00000000
00000103
00000000
00000000
00000010
,
00001000
00000000
00000010
00000000
00010000
00001000
00100000
00010000
00200000
00000000
00000000
00000000
01300000
00000000
00000000
10000000
,
00010000
00000000
00100000
00000000
00001000
00010000
00000010
00001000
00000020
00000000
00000000
00000000
00000130
00000000
00000000
00000001
,
00000100
00000000
00000001
00000000
00001000
00000100
00010000
00001000
00020000
00000000
00000000
00000000
00031000
00000000
00000000
00100000
,
01000000
10000000
00010000
02000000
00000000
03100000
10000000
00010000
00100000
00001000
00010000
00001000
00100000
00001000
00010000
00000010
,
00000000
00000100
00000001
00000000
00000100
00000010
00000000
00001000
00000000
00000001
00001000
00000100
00010000
00001000
01000000
00100000
,
00000000
10000000
00010000
01000000
10000000
01000000
00100000
10000000
00000000
00010000
01000000
00001000
00010000
00000100
00010000
00001000
,
00000000
00000000
00000000
00100000
00000000
00000000
00001000
00000000
00000000
00010000
00000000
00000000
00000010
00000000
00000000
00000100
00000000
00000000
00000001
00000000
00000000
00001000
00000000
00000000
00000010
00000000
00001000
00000000
00000010
00000000
00000100
00000000
00000000
00000001
00000000
00000000
00001000
00000000
00000001
00000000
00001000
00000000
00000100
00000000
00000000
00010000
00000000
00000000
,
00004000
00000000
00403000
00000000
00340000
00000000
40030000
00000000
30200000
00000000
00000000
02300000
00000000
00000000
03001000
00000000
,
00020000
00000000
00000000
02030000
00000000
00000000
03100000
00000000
00000000
00002000
00000000
00000000
00023000
00000000
00030010
00000000
,
00000200
00000000
00000000
00002300
00000000
00000000
00013000
00000000
00000200
00000000
00000000
00000320
00000000
00000000
00000031
00002000
,
00000000
00000000
00003010
00000000
00000000
00010000
00001000
00000000
00100000
00010000
00100000
01000000
10000000
00010000
01000000
00001000
,
00010000
00000000
00000100
00000000
00000040
00000000
00000031
00001000
00000010
00010000
00000010
00010000
00001000
00100000
00010000
00100000
,
01000000
10000000
01000000
10000000
00010000
01000000
00001000
00010000
00000010
00001000
00000010
00001000
00000001
00000100
00000010
00001000
,
00000001
00000010
00000001
00000010
00000100
00001000
00000001
00000100
00000001
00000010
00001000
00010000
01000000
10000000
00010000
10000000
,
00100000
00000000
00000000
01000000
00000000
00000000
00001000
00000000
00000000
00010000
00000000
00000000
00001000
00000000
00010000
00000000
00001000
00000000
00010000
00000000
00001000
00000000
00010000
00000000
00002000
00000000
00000000
00000000
00000000
00000000
00000000
00000000
00000000
00000000
00000000
00000000
00000000
00000000
00000000
00000000
00000000
00000000
00000000
00000000
00000000
00000000
00000000
00000000
,
00000000
00000000
00000000
00000000
00003000
00000000
00000000
00000000
01000000
00000000
00100000
00000000
10000000
00000000
00010000
01000000
,
00100000
01000000
00010000
01000000
00001000
00010000
00000010
00000000
00001000
00000000
00000020
00000000
00000130
00000000
00000001
00001000
,
00000010
00001000
00000100
00000010
00000001
00001000
00000010
00010000
00001000
00000000
01000000
00000000
00200000
00000000
10300000
00000000
,
00010000
01000000
00100000
01000000
00010000
10000000
02000000
00000000
03200000
00000000
00301000
00010000
00000100
00001000
00000100
00000010
,
00000100
00000001
00000100
00000000
00000010
00000001
00001000
00000010
00000200
00000000
00000000
00000000
00001300
00000000
00010000
00001000
,
00000000
01000000
00000000
00100000
01000000
00000000
00010000
00000000
00000000
10000000
01000000
00100000
00010000
10000000
00100000
01000000
,
00010000
01000000
00001000
00010000
01000000
00010000
00001000
00010000
00000000
00000020
00000000
00000000
00001030
00000000
00000001
00000000
,
00000100
00001000
00000100
00000010
00001000
00000100
00010000
00001000
02000000
00000000
00000000
03200000
00000000
00000000
10300000
00000000
,
10020000
00000000
00000000
00000000
00130000
00000000
01000000
00000000
10000000
00000000
00010000
00000000
01000000
00000000
00100000
10000000
,
00010000
10000000
01000000
00100000
00010000
01000000
00001000
00000000
00010000
00000000
00000200
00000000
00000310
00000000
00000001
00001000
,
00000100
00010000
00000100
00001000
00000001
00000100
00000001
00000010
00000100
00000000
00010000
00000000
00002000
00000000
01003000
00000000
,
00010000
10000000
00100000
01000000
10000000
01000000
00200000
00000000
00000000
00000000
10300000
00010000
01000000
00001000
00010000
00000100
,
00010000
00001000
01000000
00001000
00010000
00000010
00001000
00000010
00000100
00000001
00000100
00000000
00000001
00000010
00000000
00000100
,
00010000
00000000
00000000
00000000
00000000
00000000
00001000
00000000
00000000
01000000
00000000
00000000
00000000
00000000
00000000
00100000
00000000
00000000
10000000
00000000
00000000
00010000
00000000
00000000
00100000
00000000
00000000
00001000
00000000
00000000
00100000
00000000
00010000
00000000
00100000
00000000
01000000
00000000
00000000
10000000
00000000
00000000
00000000
00000000
00000000
00010000
00000000
00000000
,
01000000
00000000
00001000
00010000
00000010
00000100
00000001
00001000
00000010
00000100
00001000
00010000
00100000
00010000
00001000
00100000
,
01000000
00000000
00000000
10000000
00000000
00000000
01000000
00000000
00000000
00100000
00000000
00000000
00010000
00000000
10000000
00000000
00100000
00000000
01000000
00000000
00000000
00001000
00000000
00000000
00010000
00000000
00000100
00000000
00001000
00000000
00000100
00000000
00000000
00000010
00000000
00000000
00000001
00000000
00000000
00001000
00000000
00000000
00000010
00000000
00010000
00000000
00001000
00000000
,
00010000
00000000
00000000
00001000
00000000
00000000
00100000
00000000
00000000
01000000
00000000
00000000
10000000
00000000
00010000
00000000
00100000
00000000
00010000
00000000
10000000
00000000
00100000
00000000
01000000
00000000
00000000
00010000
00000000
00000000
01000000
00000000
00000000
00100000
00000000
00000000
00000000
00000000
00000000
10000000
00000000
00000000
00000000
00000000
00000000
00010000
00000000
00000000
,
00000000
00100000
00000000
00001000
00010000
00000100
00002000
00000000
00000000
00003100
00000010
00000001
00000000
00001000
00000010
00000100
,
00000000
00001000
00010000
00001000
01000000
00010000
00100000
01000000
00000000
10000000
01000000
00010000
01000000
00100000
00010000
10000000
,
00100000
01000000
00010000
10000000
00000000
01000000
00000000
00010000
00000000
0001M000
00000000
00000010
00000100
00001000
00000001
00001000
,
00000010
00000100
00001000
00010000
00200000
00000000
00300000
00000000
10000000
00000000
10000000
00000000
00010000
00000000
00010000
00000000
,
00100000
00000000
00100000
00000000
00001000
00000000
00001000
00000000
00010000
00000010
00000100
00000000
00000001
00000000
00001000
00000000
,
00000010
00000000
00000000
00010000
00000000
00000000
00000000
00000000
00000000
00001000
00000000
00000000
00100000
00000000
00010000
00000000
00100000
00000000
00010000
00000000
00100000
00000000
00010000
00000000
00100000
00000000
00000000
01000000
00000000
00000000
10000000
00000000
00000000
00010000
00000000
00000000
10000000
00000000
00000000
00100000
00000000
00000000
00010000
00000000
00000000
00001000
00000000
00000000
,
00000100
00000000
00000001
00000000
00001000
00000000
00000001
00000000
00000010
00000000
00000100
00000000
00001000
00000000
00000001
00000000
00000010
00000001
00000010
00000000
00000001
00000000
00001000
00000010
00001000
00000000
00000010
00000000
00040000
00000000
00030000
00000000
,
00004000
00040000
00000000
00000000
00000000
00000000
00000000
00000000
00000000
00000000
00000000
00000000
00000000
00033000
00000000
00000000
00011000
00000000
00000000
00000000
00000000
00000000
00000000
00000000
00000000
00000000
00000000
00000000
00000000
00000000
00000000
00000000
;

//---------------dance-single - ----------------
#NOTES:
     dance-single:
     :
     Hard:
     18:
     1.010404,1.176321,0.112779,0.507504,1.357371,878.000000,864.000000,14.000000,63.000000,0.000000,0.000000,1.010404,1.176321,0.112779,0.507504,1.357371,878.000000,864.000000,14.000000,63.000000,0.000000,0.000000:
0000
0000
0000
0000
,
0000
0000
0000
0000
,
0000
0000
0000
0000
,
0000
0000
0000
0000
,
0000
0000
0000
0000
,
0000
0000
0001
0000
0100
0000
0001
0000
0100
0000
0010
0100
0000
0010
0100
0000
,
0000
0000
0001
0000
1000
0000
0001
0000
1000
0000
0100
1000
0000
0000
0000
0000
,
0100
0000
0010
0000
0100
0000
0010
0000
0001
0000
1000
0000
0001
0010
0100
1000
,
0002
0003
0200
0300
0020
0030
0220
0330
1000
0000
0001
0000
0010
0000
0001
0000
,
0010
0000
0100
1000
0000
0100
0020
0000
0030
0000
0001
0000
0100
0000
0001
0000
,
0100
0000
0010
2000
0000
0000
3001
0000
0010
0000
0100
0000
0010
0000
0100
0000
,
1000
0000
0001
0100
0000
0001
0020
0000
0030
0000
0001
0000
1000
0000
0001
0000
,
1000
0100
1000
0100
0010
0001
0010
0001
2000
0000
0000
3010
0100
0000
0001
0000
,
1000
0000
0001
0000
0100
0010
0100
0010
2000
0000
0000
3001
0010
0000
0100
0000
,
1000
0000
0001
0000
0100
0010
1000
0001
1000
0010
1000
0010
0100
0001
0100
0001
,
1000
0100
1000
0001
0100
0001
1000
0100
0010
0000
0010
0000
0100
0000
0100
0000
,
1000
0000
1000
0000
1002
0000
0000
0000
0103
0000
0010
1000
0000
0001
0000
1000
,
0000
0100
0000
0010
0001
0000
0020
0000
0000
0031
1000
0010
0000
1000
0001
0010
,
0000
0001
0100
0020
0000
1030
0010
0100
0000
0001
1000
0001
0100
0010
1000
0001
,
0100
0001
0010
0100
0000
1000
0000
0001
0000
0002
0000
0103
0010
1000
0001
1000
,
0100
0010
0100
0010
0001
1000
0001
1000
0010
0000
0100
0000
0110
0000
1000
0000
,
0001
0000
1001
0000
1000
0010
0100
0000
0010
0000
0010
0000
1000
0001
0000
0001
,
0000
0100
0000
0010
0100
0001
1000
0100
1000
0000
0100
0000
1100
0000
0001
0000
,
0100
0000
0101
0000
0002
0000
1003
0000
0200
0000
0000
0000
0310
0001
0000
1000
,
0010
0001
0010
1000
0002
0000
0000
0000
1003
0000
0000
0000
0001
0100
0001
1000
,
0100
0010
0100
0010
0002
0000
0003
0000
1000
0010
1000
0010
0100
0001
0100
0001
,
1000
0100
0010
0100
1000
0100
0010
0001
1000
0000
0000
0000
0001
0010
0001
0010
,
0100
1000
0001
1000
0100
1000
0001
0000
1000
0010
1000
0010
0100
0001
0100
0001
,
1000
0100
0010
0001
0010
0100
1000
0001
0200
0000
0000
0000
0310
0000
0010
0000
,
1000
1000
0001
0001
0100
0100
0010
0010
,
1000
0000
1000
0000
0001
0000
0001
0000
1000
0100
0001
0000
0001
0100
1000
0000
,
0001
0100
0010
0100
1000
0100
0001
0000
1000
0100
1000
0001
0200
0000
0320
0000
,
2030
0000
3002
0000
0103
0010
1000
0001
0020
0000
0130
1000
0000
0001
0000
0100
,
0000
0010
0000
1000
0001
1000
0100
0010
0000
0001
0010
0100
1000
0001
1000
0010
,
0000
0100
0010
0100
0010
1000
0001
0010
0000
0100
1000
0001
0000
0100
0010
0100
,
1000
0100
0001
1000
0001
0010
0100
1000
0001
0000
0000
0101
0000
0000
1000
0000
,
0000
1100
0000
0000
0001
0000
0100
0000
0120
0000
0000
0000
0030
0000
0000
0000
,
1000
0010
0100
0001
1000
0001
0010
0100
1000
0010
0100
0001
0010
0100
1000
0020
,
0000
1030
0000
0100
0010
0001
1000
0010
1000
0000
1100
0000
0000
0000
0001
0000
,
0101
0000
0000
0000
1000
0000
0001
0010
0100
1000
0001
0000
1000
0100
1000
0001
,
1000
0010
0100
0010
0001
0010
0100
0001
2000
0000
0000
0000
0000
0000
3001
0000
,
0100
0001
0010
0100
2000
0000
0000
3001
,
0010
0001
1000
0010
0200
0000
0000
0301
,
1000
0010
0100
0010
2000
0000
3010
0100
,
0001
0100
1000
0100
0020
0000
0000
1030
,
0001
0100
0001
0010
0200
0000
2300
0000
,
3002
0203
0320
0000
,
0001
0000
1030
1001
,
0000
0000
1001
0000
1001
0000
0000
0000
0002
0000
0000
0000
1003
0000
0000
0001
,
0010
0000
0100
0000
0100
1000
0001
0000
2000
0000
0000
0000
3010
0000
0000
0100
,
0010
0000
1000
0000
1000
0001
0010
0000
0002
0000
0000
0000
0013
0000
0000
0100
,
1000
0000
0001
0000
0001
0100
0010
0000
0200
0000
0000
0000
0310
0000
0000
1000
,
0010
0000
0100
0000
0100
0001
1000
0000
0001
0000
0010
0000
0100
0000
0010
0001
,
0000
0010
0100
0000
1000
0001
0000
0100
0000
0010
1000
0010
0100
0000
0001
0100
,
0000
0001
1000
0100
0001
0100
1000
0001
0000
0100
0010
0000
1000
0010
1000
0001
,
0000
0010
0001
0010
0100
1000
0001
0000
2000
0000
3100
0010
0002
0000
0103
0010
,
2000
0000
3020
0000
0230
0000
0302
0000
1003
0000
0000
0100
0000
0000
0100
0000
,
0010
0000
0000
0001
0000
0000
0001
0000
0000
1000
0000
0000
0010
0000
0010
0000
,
0100
0000
0000
0001
0000
0000
0001
0000
0010
0000
0000
0100
0000
0000
0100
2000
,
0000
0000
3001
0000
0000
0100
0010
0000
1000
0010
0100
0010
1000
0001
0010
0001
,
1000
0000
0001
0000
0020
0000
0130
1000
0001
0100
0001
0100
0010
1000
0001
0010
,
0100
1000
0100
1000
0001
0010
0001
1000
0010
0100
0010
0100
0001
1000
0100
0010
,
0001
1000
0001
1000
0010
0100
0001
1000
0100
1000
0001
0100
0010
1000
0001
0010
,
0100
0010
0001
1000
0010
0100
1000
0100
0002
0000
0000
0000
0000
0000
0000
0000
,
0000
0000
0000
0000
0003
0000
0000
0000
1000
0000
0001
0000
0100
0000
0010
1000
,
0001
0010
0001
0010
0100
1000
0001
0000
0001
0000
0010
0000
0100
0000
1000
0001
,
0100
0010
0100
0001
0100
0010
1000
0001
0010
0000
0100
0000
1000
0000
0001
0000
,
1000
0001
0100
0001
1000
0010
0100
0000
0100
0000
0001
1000
0010
1000
0100
0010
,
0001
0010
0100
0000
2000
0000
3001
0000
0200
0000
0000
0000
0310
0000
1000
0001
,
0000
0010
0000
0001
1000
0000
2000
0000
0000
3001
0100
0001
1000
0100
0010
0100
,
1000
0001
1000
0010
0001
0010
0100
0001
0000
2000
0000
0000
3010
0000
0100
0000
,
0001
1000
0100
0010
0000
0001
1000
0010
0200
0000
0000
0320
0000
0000
1030
0000
,
0002
0000
0000
0000
0013
0000
0100
0000
1000
0000
0001
0000
0100
0000
0010
1000
,
0010
1000
0001
1000
0100
0010
0001
0000
0001
0000
1000
0000
0010
0000
0100
0001
,
1000
0100
0010
0100
1000
0001
1000
0010
0100
0000
0001
0000
1000
0000
0010
0000
,
0100
0001
1000
0100
0001
0100
0020
0000
0000
0000
0031
1000
0001
0100
0010
1000
,
0010
0100
0001
1000
0100
0010
0001
1000
0010
0100
0010
0000
1000
0010
0000
0100
,
0010
0000
0001
0010
0000
1000
0100
0010
0001
0010
0100
1000
0001
1000
0000
0100
,
0010
0000
0100
0001
0100
1000
0001
1000
0010
0100
0001
1000
0100
0010
0100
1000
,
0001
0100
0010
0100
1000
0100
0010
1000
0001
1000
0100
0010
0001
1000
0010
1000
,
0100
0010
0001
1000
0001
0100
1000
0100
0001
1000
0010
0100
0000
0001
0000
1000
,
0000
0100
0000
0010
0001
1000
0020
0000
0000
1030
0001
0010
0000
0001
1000
0010
,
0000
1000
0010
0100
0001
0100
0010
1000
0000
0001
0100
0010
0100
0001
1000
0001
,
0010
0100
1000
0001
0000
0100
0000
0010
0000
0010
0000
1000
0001
0100
0001
1000
,
0001
0010
1000
0010
0002
0000
0003
0000
1000
0000
1000
0000
0001
0000
0001
0000
,
0100
0000
0100
0000
0010
0000
0010
0000
1000
0001
0010
0000
0001
0000
0001
0000
,
1000
0100
0000
0010
0001
1000
0001
1000
0001
0100
0010
1000
0001
0010
0100
0010
,
0001
1000
0010
0100
0001
1000
0100
1000
0002
0103
0010
2000
3100
0010
0002
0103
,
0020
0000
0130
0000
;

//---------------dance-double - ----------------
#NOTES:
     dance-double:
     :
     Hard:
     18:
     1.008103,1.176321,0.120834,0.475281,1.349316,876.000000,861.000000,15.000000,59.000000,0.000000,0.000000,1.008103,1.176321,0.120834,0.475281,1.349316,876.000000,861.000000,15.000000,59.000000,0.000000,0.000000:
00000000
00000000
00000000
00000000
,
00000000
00000000
00000000
00000000
,
00000000
00000000
00000000
00000000
,
00000000
00000000
00000000
00000000
,
00000000
00000000
00000000
00000000
,
00000000
00000000
10000000
00000000
00100000
00000000
10000000
00000000
00100000
00000000
01000000
00010000
00000000
01000000
00010000
00000000
,
00000000
00000000
00100000
00000000
00001000
00000000
00100000
00000000
00001000
00000000
00010000
00001000
00000000
00000000
00000000
00000000
,
01000000
00000000
00001000
00000000
01000000
00000000
00001000
00000000
00010000
00000000
00000010
00001000
00000010
00000100
00000001
00001000
,
00000020
00000030
00020000
00030000
00002000
00003000
00022000
00033000
00010000
00000000
00001000
00000000
00100000
00000000
00001000
00000000
,
00100000
00000000
01000000
00100000
00000000
00010000
00200000
00000000
00300000
00000000
00010000
00000000
10000000
00000000
00010000
00000000
,
10000000
00000000
00100000
02000000
00000000
00000000
03001000
00000000
00010000
00000000
00000010
00000000
00010000
00000000
00000010
00000000
,
00000100
00000000
00000001
00001000
00000000
00000010
00000200
00000000
00000300
00000000
00000010
00000000
00010000
00000000
00001000
00000000
,
01000000
00010000
01000000
00010000
10000000
01000000
10000000
01000000
00200000
00000000
00000000
00301000
00010000
00000000
00000010
00000000
,
00001000
00000000
00000010
00000000
00000100
00000001
00000100
00000001
00002000
00000000
00000000
00003010
00010000
00000000
00001000
00000000
,
00100000
00000000
00010000
00000000
10000000
00100000
01000000
00100000
10000000
00010000
10000000
00010000
00100000
00001000
00100000
00001000
,
00010000
00000010
00001000
00000010
00000100
00000001
00001000
00000001
00000010
00000000
00000010
00000000
00000100
00000000
00000100
00000000
,
00001000
00000000
00001000
00000000
00001002
00000000
00000000
00000000
00000103
00000000
00000010
00001000
00000000
00000010
00000000
00010000
,
00000000
00001000
00000000
00100000
00010000
00000000
00200000
00000000
00000000
01300000
10000000
00010000
00000000
01000000
00100000
10000000
,
00000000
00010000
00100000
02000000
00000000
03100000
00001000
00010000
00000000
00000100
00001000
00000100
00000010
00000001
00001000
00000001
,
00000100
00000010
00001000
00000010
00000000
00010000
00000000
00001000
00000000
00001000
00000000
01000000
00010000
01000000
00100000
10000000
,
00010000
01000000
00010000
01000000
00001000
00010000
00001000
00010000
00000100
00000000
00000010
00000000
00000110
00000000
00000001
00000000
,
00001000
00000000
00001001
00000000
00000001
00000100
00000010
00000000
00010000
00000000
00010000
00000000
00000100
00010000
00000000
00001000
,
00000000
00100000
00000000
00100000
00010000
00000000
10000000
00000000
00100000
00000000
01000000
00000000
01100000
00000000
00010000
00000000
,
10000000
00000000
10010000
00000000
00020000
00000000
00130000
00000000
00002000
00000000
00000000
00000000
00013000
00000100
00000000
00001000
,
00000100
00000010
00000001
00001000
00000020
00000000
00000000
00000000
00010030
00000000
00000000
00000000
00001000
00010000
00001000
01000000
,
00100000
01000000
00010000
10000000
00200000
00000000
00300000
00000000
01000000
00010000
01000000
00001000
00010000
00000100
00010000
00000100
,
00001000
00000100
00000010
00000001
00001000
00000001
00001000
00000010
00000100
00000000
00000000
00000000
00000001
00000100
00000010
00001000
,
00000010
00010000
00000010
00010000
00001000
00100000
00010000
00000000
00100000
01000000
00100000
00010000
10000000
00100000
01000000
00001000
,
00010000
00000010
00000100
00000010
00001000
00000001
00000010
00000100
00002000
00000000
00000000
00000000
00003001
00000000
00000001
00000000
,
00000100
00000100
00000010
00000010
00010000
00010000
00001000
00001000
,
01000000
00000000
01000000
00000000
00010000
00000000
00010000
00000000
10000000
01000000
00010000
00000000
00010000
01000000
00100000
00000000
,
00001000
00010000
00001000
00000100
00000001
00001000
00000100
00000000
00000010
00000001
00001000
00000010
00000200
00000000
00002300
00000000
,
00023000
00000000
00230000
00000000
01300000
00010000
10000000
01000000
00100000
00000000
00001000
00010000
00000000
00000010
00000000
00001000
,
00000000
00000010
00000000
00000100
00000001
00001000
00000010
00000100
00000000
00000010
00010000
00001000
01000000
00010000
01000000
00100000
,
00000000
01000000
00010000
01000000
00010000
10000000
01000000
00100000
00000000
00010000
01000000
00001000
00000000
00010000
00000100
00010000
,
00001000
01000000
00010000
01000000
00100000
10000000
00010000
01000000
00001000
00000000
00000000
01001000
00000000
00000000
00010000
00000000
,
00000000
00010100
00000000
00000000
00000100
00000000
00000010
00000000
00000012
00000000
00000000
00000000
00000003
00000000
00000000
00000000
,
00001000
00000010
00000100
00000010
00001000
00000001
00001000
00000100
00010000
00001000
01000000
00010000
00100000
01000000
10000000
00200000
,
00000000
01300000
00000000
00010000
01000000
00001000
00010000
00000100
00001000
00000000
00001100
00000000
00000000
00000000
00000001
00000000
,
00000101
00000000
00000000
00000000
00001000
00000000
00000010
00010000
00001000
00100000
00010000
00000000
01000000
00100000
10000000
00010000
,
01000000
00100000
00010000
00001000
00000100
00000010
00001000
00000000
00000002
00000000
00000000
00000000
00000000
00000000
00001003
00000000
,
00000001
00001000
00000010
00000100
00002000
00000000
00000000
01003000
,
00100000
01000000
00010000
10000000
02000000
00000000
00000000
03010000
,
01000000
00010000
00001000
00100000
00002000
00000000
00013000
00000010
,
00000100
00001000
00000100
00000001
00002000
00000000
00000000
00003001
,
00000010
00000001
00001000
00000010
00020000
00000000
00030200
00000000
,
00020300
00032000
02003000
00000000
,
03200000
00000000
10300000
10010000
,
00000000
00000000
10010000
00000000
10010000
00000000
00000000
00000000
00020000
00000000
00000000
00000000
10030000
00000000
00000000
01000000
,
10000000
00000000
00010000
00000000
00010000
00100000
00001000
00000000
00020000
00000000
00000000
00000000
00030010
00000000
00000000
00000100
,
00000010
00000000
00001000
00000000
00001000
00000010
00000100
00000000
00000002
00000000
00000000
00000000
00001003
00000000
00000000
00000010
,
00010000
00000000
00001000
00000000
00001000
01000000
00100000
00000000
20000000
00000000
00000000
00000000
30010000
00000000
00000000
00100000
,
00001000
00000000
00010000
00000000
00010000
00000100
00000010
00000000
00000100
00000000
00001000
00000000
00000001
00000000
00000100
00000010
,
00000000
00010000
00000010
00000000
00010000
00001000
00000000
00100000
00000000
01000000
10000000
00010000
10000000
00000000
00010000
01000000
,
00000000
00001000
00010000
00000100
00000010
00000100
00010000
00001000
00000000
00010000
00000010
00000100
00000010
00000000
00001000
00000001
,
00000000
00000010
00000001
00001000
00000010
00010000
00000000
00001000
00200000
00000000
00310000
10000000
02000000
00000000
03100000
00001000
,
00020000
00000000
00030020
00000000
00000230
00000000
00000302
00000000
00001003
00000000
00000000
00000010
00000000
00000000
00000010
00000000
,
00010000
00000000
00000000
00001000
00000000
00000000
00001000
00000000
00000000
01000000
00000000
00000000
00100000
00000000
00100000
00000000
,
10000000
00000000
00000000
00010000
00000000
00000000
00010000
00000000
01000000
00000000
00000000
00001000
00000000
00000000
00001000
00020000
,
00000000
00000000
00030010
00000000
00000000
00000100
00000001
00000000
00001000
00000100
00010000
00001000
01000000
00001000
00010000
00001000
,
01000000
00000000
00100000
00000000
20000000
00000000
30010000
00100000
00001000
00010000
00001000
00010000
00000100
00000010
00000001
00001000
,
00000001
00000100
00000001
00000100
00000010
00010000
00001000
00100000
00010000
10000000
00010000
10000000
01000000
00100000
00010000
01000000
,
00001000
00010000
00001000
00010000
00000010
00001000
00000010
00000100
00000001
00001000
00000100
00000010
00001000
00010000
01000000
00100000
,
00010000
10000000
00100000
01000000
00010000
01000000
00001000
00010000
00000020
00000000
00000000
00000000
00000000
00000000
00000000
00000000
,
00000000
00000000
00000000
00000000
00000030
00000000
00000000
00000000
00000100
00000000
00000001
00000000
00001000
00000000
00000001
00000010
,
00000100
00001000
00000001
00001000
00000010
00000100
00000010
00000000
00000010
00000000
00010000
00000000
00001000
00000000
01000000
00010000
,
01000000
00100000
10000000
00010000
10000000
01000000
00100000
00001000
00010000
00000000
00000010
00000000
00001000
00000000
00000001
00000000
,
00001000
00000010
00010000
00000010
00001000
00000001
00000010
00000000
00000010
00000000
00000100
00000010
00000001
00000010
00000100
00001000
,
00000100
00010000
00001000
00000000
02000000
00000000
03100000
00000000
20000000
00000000
00000000
00000000
30010000
00000000
00100000
00001000
,
00000000
00100000
00000000
00010000
10000000
00000000
20000000
00000000
00000000
30010000
00100000
00001000
00010000
00000010
00000100
00000010
,
00001000
00000001
00000100
00000001
00000010
00000100
00001000
00000001
00000000
00002000
00000000
00000000
00003100
00000000
00010000
00000000
,
00001000
00100000
00010000
10000000
00000000
00010000
01000000
00100000
20000000
00000000
00000000
30020000
00000000
00000000
01030000
00000000
,
01002000
00000000
00000000
00000000
00103000
00000000
01000000
00000000
10000000
00000000
00010000
00000000
01000000
00000000
00001000
00010000
,
00000010
00000100
00000010
00001000
00000001
00001000
00000100
00000000
00000100
00000000
00000010
00000000
00000001
00000000
00001000
00000100
,
00000010
00000100
00010000
00001000
01000000
00010000
00100000
01000000
10000000
00000000
00010000
00000000
01000000
00000000
00001000
00000000
,
00010000
00000100
00000010
00000001
00000100
00001000
00000200
00000000
00000000
00000000
00000310
00001000
00000001
00000010
00000001
00001000
,
00000010
00010000
00001000
01000000
00010000
01000000
00100000
10000000
00010000
00100000
00010000
00000000
00100000
01000000
00000000
00100000
,
10000000
00000000
00100000
00010000
00000000
00100000
00001000
00010000
00000010
00000000
00001000
00000010
00000100
00000001
00000000
00000100
,
00000010
00000000
00000100
00001000
00000100
00000001
00000100
00000010
00001000
00000001
00000010
00000100
00000010
00001000
00010000
00001000
,
01000000
00100000
01000000
00010000
10000000
01000000
10000000
00100000
01000000
00001000
00010000
00001000
00000100
00000010
00001000
00000001
,
00001000
00000100
00000010
00001000
00010000
00001000
00100000
00010000
10000000
00100000
01000000
00010000
00000000
01000000
00000000
00001000
,
00000000
00010000
00000000
00000010
00000100
00000010
00002000
00000000
00000000
00003001
00001000
00000010
00000000
00001000
00000100
00000010
,
00000000
00000100
00010000
00001000
01000000
00001000
00010000
00000100
00000000
00010000
00001000
01000000
00010000
01000000
00100000
10000000
,
00010000
10000000
01000000
00100000
00000000
00001000
00000000
00010000
00000000
00010000
00000000
00000100
00000010
00000100
00001000
00000001
,
00000100
00001000
00010000
00100000
02000000
00000000
03000000
00000000
00010000
00000000
00010000
00000000
10000000
00000000
10000000
00000000
,
01000000
00000000
01000000
00000000
00100000
00000000
00100000
00000000
00001000
00010000
00000010
00000000
00000100
00000000
00000100
00000000
,
00000001
00001000
00000000
00000010
00010000
00001000
00010000
00001000
01000000
00010000
01000000
00100000
10000000
00010000
10000000
01000000
,
00010000
00001000
00000010
00000001
00001000
00000001
00000100
00000010
00001000
00000010
00010000
00001000
01000000
00010000
01000000
00001000
,
00020000
00000000
00031000
00000000
;

//---------------dance-single - ----------------
#NOTES:
     dance-single:
     :
     Medium:
     16:
     0.857348,1.033737,0.072501,0.402781,0.970702,745.000000,736.000000,9.000000,50.000000,0.000000,0.000000,0.857348,1.033737,0.072501,0.402781,0.970702,745.000000,736.000000,9.000000,50.000000,0.000000,0.000000:
0000
0000
0000
0000
,
0000
0000
0000
0000
,
0000
0000
0000
0000
,
0000
0000
0000
0000
,
0000
0000
0000
0000
,
0001
0001
1000
1000
,
0010
0000
0010
0000
0100
0000
0100
0010
,
1000
0000
0000
0000
1000
0000
0000
0000
0001
0000
0000
0000
0001
0010
0100
0000
,
1000
0001
1000
1001
0001
0100
0010
0100
,
0010
0000
1000
0001
0000
0000
0020
0000
0000
0000
0130
0000
1000
0000
0100
0000
,
1000
0000
0001
0200
0000
0000
0310
0000
1000
0000
0001
0000
1000
0000
0001
0000
,
0100
0000
0010
1000
0000
0000
0020
0000
0000
0000
0130
0000
0001
0000
0100
0000
,
0002
0000
0000
0000
1000
0000
1003
0000
0002
0000
0000
0013
0100
0000
1000
0000
,
0001
0000
0100
0000
1000
0000
0100
0000
0020
0000
0000
1030
0001
0000
0100
0000
,
0001
0000
0010
0000
1000
0000
0010
0000
0001
0100
0001
0000
1000
0100
1000
0000
,
0001
0100
0001
0010
0100
1000
0100
0000
0010
0000
0010
0000
0100
0000
0100
0000
,
1000
0000
1000
0000
1002
0000
0000
0000
0103
0000
0000
0010
0000
1000
0000
0010
,
0000
0100
0000
0001
1000
0000
0100
0000
0000
0010
0001
0010
0000
0001
1000
0001
,
0000
1000
0000
0010
0000
0100
0010
0100
0000
0001
0100
0001
1000
0000
0001
0000
,
0010
0000
0100
0000
0010
0001
0000
1000
0000
1000
0000
0010
1000
0010
0100
0000
,
0001
0000
1000
0000
0010
1000
0001
0000
1000
0000
0100
0000
0100
0000
0001
0000
,
0100
0000
0100
0000
1000
0001
1000
0000
0010
0000
0010
0000
1000
0001
0000
1000
,
0000
0010
0000
0010
0100
0000
0001
0000
1000
0000
0010
0000
0010
0000
0001
0000
,
0010
0000
0010
0000
1000
0000
0010
0000
0200
0000
0000
0000
0310
1000
0000
0010
,
0000
0000
1000
0001
0010
0000
0000
0000
0002
0000
0000
0000
0103
0000
0001
0000
,
0100
0010
0100
0010
1000
0000
0000
0000
0001
0010
0000
0010
0100
0000
1000
0000
,
0001
0100
0001
0100
0010
0000
1000
0000
1000
0000
0000
0000
0100
0000
0010
0000
,
0001
1000
0001
1000
0010
0000
0000
0000
0100
0010
0000
0010
1000
0000
0001
0000
,
0010
0100
0010
0100
1000
0001
1000
0001
2000
0000
0000
0000
3001
0000
0001
0000
,
1000
1000
0100
0100
0010
0010
0001
0001
,
1000
0000
1000
0000
0010
0000
0010
0000
1000
0010
1000
0000
0001
0010
0001
0000
,
0010
0100
0010
0100
1000
0001
1000
0000
0001
0010
0000
0001
2000
0000
3020
0000
,
0230
0000
0302
0000
1003
0001
1000
0001
0010
0000
0100
1000
0000
0010
0000
0001
,
0000
0010
0000
0100
0000
0001
1000
0001
0000
1000
0100
1000
0001
0000
1000
0010
,
0000
0200
0000
0000
0000
0000
0000
0310
0000
1000
0001
0100
0000
0001
1000
0100
,
0010
0001
0010
0000
0001
0100
0010
0000
1000
0000
0000
1100
0000
0000
0001
0000
,
0000
0101
0000
0000
0100
0000
0010
0000
0210
0000
0000
0000
0300
0000
0000
0000
,
0001
1000
0010
0100
0010
0000
1000
0000
0001
0100
0010
1000
0010
0100
0000
0002
,
0000
0103
0000
0001
0010
0100
1000
0000
0100
0000
1100
0000
0000
0000
0001
0000
,
0101
0000
0000
0000
1000
0000
0001
0010
0001
0010
0100
0000
1000
0100
0000
0001
,
0000
0100
0000
1000
0001
0100
0010
0000
2000
0000
0000
0000
0000
0000
3010
0000
,
1000
0001
0010
0001
2000
0000
0000
3001
,
0100
0010
0100
0001
2000
0000
0000
3001
,
0100
0010
1000
0010
0200
0000
0301
1000
,
0100
0010
0001
1000
0020
0000
0000
0130
,
0001
1000
0100
0010
0200
0000
2300
0000
,
3002
0203
0320
0000
,
0100
0000
0130
0110
,
0000
0000
0001
0000
1000
0000
0000
0000
0002
0000
0000
0000
0013
0000
0000
0100
,
1000
0000
0001
0000
1000
0000
0010
0000
0200
0000
0000
0000
0301
0000
0000
1000
,
0100
0000
1000
0000
0010
0000
0100
0000
0002
0000
0000
0000
1003
0000
0000
0010
,
1000
0000
0100
0000
0010
0000
0001
0000
0200
0000
0000
0000
0310
0000
0000
1000
,
0001
0000
0010
0000
0100
0000
1000
0000
0100
0000
0010
0000
0001
0000
1000
0010
,
0000
1000
0001
0000
0010
0001
0000
0010
0000
0000
0001
0000
1000
0000
0100
0000
,
0000
0010
0001
0000
1000
0000
0010
0100
0000
0001
0100
0001
0100
0000
0001
0000
,
0000
0100
0010
0000
1000
0001
1000
0001
0020
0000
0000
0000
0230
0000
0000
0000
,
2300
0000
3002
0000
0203
0000
0320
0000
1030
0000
0000
0001
0000
0000
0010
0000
,
0001
0000
0000
1000
0000
0000
0010
0000
0000
0100
0000
0000
0010
0000
0010
0000
,
1000
0000
0000
0001
0000
0000
0010
0000
0100
0000
0000
1000
0000
0000
0001
0100
,
0000
0000
0010
0000
0000
1000
0001
0000
0010
0001
1000
0010
0100
0010
0100
0000
,
0001
0000
1000
0000
0200
0000
0000
0000
0310
0001
0010
0001
1000
0010
1000
0000
,
0001
0100
0001
0100
0010
1000
0010
0000
1000
0100
0010
0001
0010
0100
0010
0000
,
0001
1000
0010
0100
0001
0100
0010
0000
1000
0001
0010
0000
0100
0000
1000
0001
,
0100
0010
1000
0001
1000
0100
0010
0001
2000
0000
0000
0000
0000
0000
0000
0000
,
0000
0000
3000
0000
0001
0010
0100
1000
,
0001
0100
0001
1000
0100
1000
0100
0000
0010
0000
0001
0000
1000
0000
0010
0100
,
0001
0100
0000
0001
1000
0100
0010
0100
1000
0000
0001
0000
0100
0000
0010
0000
,
1000
0001
0000
0010
0001
0010
0100
0000
0020
0000
0000
0031
1000
0100
1000
0001
,
0100
0000
0010
0000
1000
0000
0001
0000
0200
0000
0000
0000
0301
0000
0100
0010
,
0000
1000
0000
0010
0100
0000
0001
0000
0000
1000
0001
0100
0010
0100
0001
1000
,
0100
0000
0010
0000
0001
1000
0010
0100
0000
0002
0000
0000
1003
0000
0001
0000
,
0010
0100
0010
0100
0000
1000
0001
1000
0002
0000
0000
0023
0000
0000
0130
0000
,
2000
0000
3010
0100
0001
1000
0010
0100
,
0001
1000
0001
1000
0100
0010
0100
0000
1000
0000
0001
0000
0100
0000
0010
1000
,
0001
1000
0000
0010
0100
0001
0100
0010
1000
0000
0001
0000
0010
0000
0001
0000
,
1000
0001
0000
0001
0100
0010
0200
0000
0000
0000
0301
1000
0100
0010
0001
0000
,
1000
0001
0010
0001
1000
0010
0100
0000
0001
1000
0001
0000
1000
0100
0000
0010
,
0100
0000
1000
0100
0000
0010
0001
0000
1000
0000
0001
0000
0100
0010
0000
0010
,
0100
0000
0001
0100
0010
0000
1000
0000
0001
0010
0001
0000
1000
0010
1000
0000
,
0001
0010
0100
0000
1000
0010
0100
0000
0001
1000
0000
0001
0010
0001
1000
0000
,
0010
0100
0010
0100
0001
1000
0001
1000
0200
0000
0000
0310
0000
0001
0000
1000
,
0000
0010
0000
0100
0001
0000
1000
0000
0000
0001
0010
0001
0000
1000
0010
1000
,
0000
0001
0000
0010
0000
0100
0010
0100
0000
1000
0100
1000
0001
0000
0100
0000
,
0010
0000
1000
0000
0001
0010
0000
0100
0000
0100
0000
1000
0100
1000
0001
1000
,
0010
0100
0010
0100
0020
0000
0030
0000
1000
0000
1000
0000
0001
0000
0001
0000
,
0100
0000
0100
0000
0010
0000
0010
0000
1000
0001
1000
0000
0100
0000
0100
0000
,
0010
0001
0000
0010
0001
1000
0001
0000
1000
0010
1000
0000
0001
0100
0001
0000
,
1000
0001
1000
0100
0010
0001
0010
0100
1000
0000
0001
0100
0000
1000
0200
0000
,
0020
0000
0000
0330
0110
0000
0000
0000
;

//---------------dance-double - ----------------
#NOTES:
     dance-double:
     :
     Medium:
     16:
     0.850443,1.033737,0.064445,0.410836,0.942507,739.000000,731.000000,8.000000,51.000000,0.000000,0.000000,0.850443,1.033737,0.064445,0.410836,0.942507,739.000000,731.000000,8.000000,51.000000,0.000000,0.000000:
00000000
00000000
00000000
00000000
,
00000000
00000000
00000000
00000000
,
00000000
00000000
00000000
00000000
,
00000000
00000000
00000000
00000000
,
00000000
00000000
00000000
00000000
,
00000001
00000001
00000100
00000100
,
00000010
00000000
00000010
00000000
00010000
00000000
00010000
00001000
,
00100000
00000000
00000000
00000000
00100000
00000000
00000000
00000000
01000000
00000000
00000000
00000000
01000000
10000000
00010000
00000000
,
10000000
00010000
10000000
10010000
00010000
01000000
00001000
01000000
,
00001000
00000000
00010000
00001000
00000000
00000000
00020000
00000000
00000000
00000000
00030010
00000000
00000100
00000000
00000010
00000000
,
00000100
00000000
00000001
00002000
00000000
00000000
00003100
00000000
00010000
00000000
00001000
00000000
00010000
00000000
00001000
00000000
,
01000000
00000000
00100000
01000000
00000000
00000000
00020000
00000000
00000000
00000000
10030000
00000000
00100000
00000000
10000000
00000000
,
00020000
00000000
00000000
00000000
10000000
00000000
10030000
00000000
00020000
00000000
00000000
01030000
00001000
00000000
00010000
00000000
,
00001000
00000000
00000100
00000000
00000001
00000000
00000100
00000000
00000020
00000000
00000000
00010030
00001000
00000000
00100000
00000000
,
00010000
00000000
00100000
00000000
10000000
00000000
00100000
00000000
00010000
10000000
00010000
00000000
01000000
00010000
01000000
00000000
,
00001000
00010000
00000010
00000000
00001000
00000001
00001000
00000001
00000010
00000000
00000010
00000000
00000100
00000000
00000100
00000000
,
00001000
00000000
00001000
00000000
00001002
00000000
00000000
00000000
00000103
00000000
00000000
00000010
00000000
00010000
00000000
00000010
,
00000000
00001000
00000000
00000100
00010000
00000000
00001000
00000000
00000000
01000000
00010000
01000000
00000000
00100000
10000000
00100000
,
00000000
10000000
00000000
00010000
00000000
00100000
01000000
00100000
00000000
00010000
10000000
00010000
01000000
00000000
00001000
00000000
,
00010000
00000000
00000100
00000000
00010000
00001000
00000000
00010000
00000000
00010000
00000000
00000010
00000100
00000010
00000100
00000000
,
00000001
00000000
00001000
00000000
00000100
00000010
00000001
00000000
00001000
00000000
00000100
00000000
00000100
00000000
00010000
00000000
,
00001000
00000000
00001000
00000000
01000000
00000000
00100000
00000000
10000000
00000000
10000000
00000000
00010000
00100000
00000000
01000000
,
00000000
10000000
00000000
10000000
00010000
00000000
01000000
00000000
00001000
00000000
00010000
00000000
00010000
00000000
00000010
00000000
,
00000100
00000000
00000100
00000000
00000001
00000000
00001000
00000000
00000200
00000000
00000000
00000000
00000310
00000001
00000000
00001000
,
00000010
00000000
00010000
00001000
00100000
00000000
00000000
00000000
00020000
00000000
00000000
00000000
10030000
00000000
00010000
00000000
,
01000000
00001000
01000000
00001000
01000000
00000000
00000000
00000000
00010000
00100000
00000000
00100000
00001000
00000000
00010000
00000000
,
00000010
00001000
00000010
00001000
00000010
00000000
00000100
00000000
00000100
00000000
00000000
00000000
00000001
00000000
00000010
00000000
,
00000100
00001000
00000100
00001000
00000100
00000000
00000000
00000000
00010000
00001000
00000000
00001000
01000000
00000000
00010000
00000000
,
00100000
01000000
00100000
01000000
00100000
00010000
10000000
00010000
20000000
00000000
00000000
00000000
30100000
00000000
00100000
00000000
,
01000000
01000000
00001000
00001000
00010000
00010000
00000010
00000010
,
00001000
00000000
00001000
00000000
00000001
00000000
00000001
00000000
00000010
00000001
00000010
00000000
00000001
00001000
00000001
00000000
,
00001000
00000010
00001000
00000010
00010000
00000010
00010000
00000000
00001000
00010000
00000000
00001000
02000000
00000000
03200000
00000000
,
20300000
00000000
30020000
00000000
01030000
00001000
01000000
00001000
00010000
00000000
00001000
00010000
00000000
00001000
00000000
00000100
,
00000000
00000010
00000000
00001000
00000000
00000001
00001000
00000010
00000000
00010000
00000010
00010000
00001000
00000000
00010000
00001000
,
00000000
00020000
00000000
00000000
00000000
00000000
00000000
00031000
00000000
00100000
00010000
00100000
00000000
01000000
10000000
00010000
,
10000000
00000000
00100000
00000000
01000000
00000000
00010000
00000000
10000000
00000000
00000000
11000000
00000000
00000000
00010000
00000000
,
00000000
01010000
00000000
00000000
01000000
00000000
00001000
00000000
00021000
00000000
00000000
00000000
00030000
00000000
00000000
00000000
,
00000100
00000010
00000001
00000010
00000001
00000000
00001000
00000000
00000010
00001000
00000010
00010000
00001000
00010000
00000000
00002000
,
00000000
01003000
00000000
00010000
01000000
00100000
01000000
00000000
00100000
00000000
10100000
00000000
00000000
00000000
10000000
00000000
,
11000000
00000000
00000000
00000000
00010000
00000000
01000000
00001000
00010000
00001000
00010000
00000000
00000100
00001000
00000000
00000100
,
00000000
00000010
00000000
00000001
00001000
00000001
00001000
00000000
00000002
00000000
00000000
00000000
00000000
00000000
00001003
00000000
,
00000001
00001000
00000010
00010000
00002000
00000000
00000000
01003000
,
00100000
10000000
00010000
10000000
02000000
00000000
00000000
03100000
,
00010000
10000000
00100000
01000000
00002000
00000000
00013000
00000010
,
00000100
00000010
00001000
00000001
00000200
00000000
00000000
00000301
,
00000100
00000001
00001000
00000100
00020000
00000000
00032000
00000000
,
02003000
03020000
00230000
00000000
,
02300000
00000000
13000000
10010000
,
00000000
00000000
00010000
00000000
10000000
00000000
00000000
00000000
00020000
00000000
00000000
00000000
01030000
00000000
00000000
00001000
,
00010000
00000000
00000010
00000000
00001000
00000000
00000010
00000000
00000200
00000000
00000000
00000000
00000301
00000000
00000000
00001000
,
00000010
00000000
00010000
00000000
00001000
00000000
01000000
00000000
00020000
00000000
00000000
00000000
10030000
00000000
00000000
00010000
,
00100000
00000000
01000000
00000000
00100000
00000000
00010000
00000000
20000000
00000000
00000000
00000000
30100000
00000000
00000000
01000000
,
00001000
00000000
00010000
00000000
00000100
00000000
00001000
00000000
00000100
00000000
00000010
00000000
00000001
00000000
00001000
00000010
,
00000000
00010000
00000010
00000000
00010000
00001000
00000000
01000000
00000000
00000000
00010000
00000000
10000000
00000000
01000000
00100000
,
00000000
00010000
10000000
00000000
00010000
00000000
01000000
00001000
00000000
00010000
00000010
00010000
00000010
00000000
00000100
00000010
,
00000000
00001000
00000001
00000000
00001000
00000010
00001000
00000000
00000020
00000000
00000000
00000000
00020030
00000000
00000000
00000000
,
00032000
00000000
00203000
00000000
00320000
00000000
20030000
00000000
31000000
00000000
00000000
00100000
00000000
00000000
00010000
00000000
,
10000000
00000000
00000000
00100000
00000000
00000000
01000000
00000000
00000000
00001000
00000000
00000000
00010000
00000000
00010000
00000000
,
00000010
00000000
00000000
00001000
00000000
00000000
00000001
00000000
00000100
00000000
00000000
00000010
00000000
00000000
00001000
00000002
,
00000000
00000000
00000013
00000000
00000100
00000010
00000000
00000000
00000001
00001000
00000001
00001000
00000010
00000100
00000010
00000000
,
00010000
00000000
00001000
00000000
00020000
00000000
00000000
00000000
00031000
01000000
00001000
01000000
00010000
01000000
00010000
00000000
,
10000000
00010000
10000000
00010000
00100000
00010000
00100000
00000000
00001000
00010000
00000010
00010000
00001000
00010000
00000010
00000000
,
00000100
00000010
00001000
00000010
00000100
00000010
00001000
00000000
00000001
00001000
00000001
00000000
00000010
00000000
00000100
00010000
,
00001000
00000000
01000000
00000000
00010000
10000000
00100000
01000000
00020000
00000000
00000000
00000000
00000000
00000000
00000000
00000000
,
00000000
00000000
00030000
00000000
10000000
00100000
01000000
00010000
,
10000000
01000000
10000000
01000000
00100000
00010000
00100000
00000000
00010000
00000000
01000000
00000000
00001000
00000000
00010000
00000010
,
00000100
00000010
00000000
00001000
00000001
00000100
00000001
00000000
00001000
00000000
00000001
00000000
00000010
00000000
00000100
00000000
,
00010000
00000100
00000000
00010000
00001000
01000000
00001000
00000000
01000000
00000000
00100000
10000000
00010000
01000000
00010000
00000000
,
01000000
00000000
00100000
00000000
10000000
00000000
00100000
00000000
02000000
00000000
00000000
00000000
03001000
00000000
00010000
00000010
,
00000000
00000100
00000000
00000010
00001000
00000000
00000002
00000000
00000000
00000013
00000100
00001000
00000100
00000010
00000001
00001000
,
00000001
00000000
00000100
00000000
00000010
00010000
00001000
00010000
00000000
00002000
00000000
00000000
00103000
00000000
00010000
00000000
,
00100000
00001000
00100000
00001000
00000000
00100000
01000000
00100000
02000000
00000000
00000000
23000000
00000000
00000000
30010000
00000000
,
20000000
00000000
30100000
01000000
00010000
10000000
01000000
00100000
,
00001000
00010000
00001000
00010000
00000010
00001000
00000010
00000000
00000100
00000000
00000001
00000000
00001000
00000000
00000010
00000100
,
00000001
00000100
00000000
00000001
00001000
00000100
00001000
00000100
00010000
00000000
00000100
00000000
00010000
00000000
00001000
00000000
,
01000000
00100000
00000000
00100000
10000000
00010000
20000000
00000000
00000000
00000000
30010000
01000000
00100000
01000000
00010000
00000000
,
10000000
00100000
01000000
00000000
00010000
01000000
00001000
00000000
00010000
00001000
00010000
00000000
00000010
00001000
00000000
00000010
,
00000100
00000000
00000001
00000100
00000000
00000010
00000100
00000000
00000001
00000000
00001000
00000000
00000100
00000010
00000000
00000010
,
00000100
00000000
00010000
00000100
00010000
00001000
00010000
00000000
00001000
01000000
00001000
00000000
01000000
00100000
01000000
00000000
,
00010000
01000000
00100000
10000000
00100000
01000000
00010000
00000000
10000000
00100000
00000000
01000000
00001000
00010000
00001000
00000000
,
00010000
00000010
00010000
00000010
00000100
00000010
00000100
00000010
00002000
00000000
00000000
00003001
00000000
00000100
00000000
00000010
,
00000000
00001000
00000000
00000001
00000010
00000000
00000100
00000000
00000000
00010000
00000100
00010000
00000000
00001000
00010000
00001000
,
00000000
01000000
00000000
00010000
00000000
01000000
00100000
01000000
00000000
00010000
10000000
00100000
10000000
00000000
00010000
00000000
,
01000000
00000000
00001000
00000000
00010000
00001000
00000000
00010000
00000000
00010000
00000000
00000010
00001000
00000010
00000100
00000000
,
00000001
00001000
00000001
00001000
00000200
00000000
00000000
00000000
00000310
00000000
00000010
00000000
00000001
00000000
00000001
00000000
,
00001000
00000000
00001000
00000000
00000010
00000000
00000010
00000000
00000100
00000010
00001000
00000000
00000010
00000000
00000010
00000000
,
00010000
00001000
00000000
00001000
01000000
00010000
01000000
00000000
00100000
10000000
00010000
00000000
01000000
00001000
00010000
00000000
,
00001000
00010000
00000010
00000000
00000100
00000010
00001000
00000010
00000100
00000000
00000001
00000010
00000000
00001000
00000010
00000000
,
00000002
00000000
00001003
00000000
;

//---------------dance-single - ----------------
#NOTES:
     dance-single:
     :
     Easy:
     13:
     0.568496,0.712922,0.016111,0.249724,0.088612,494.000000,492.000000,2.000000,31.000000,0.000000,0.000000,0.568496,0.712922,0.016111,0.249724,0.088612,494.000000,492.000000,2.000000,31.000000,0.000000,0.000000:
0000
0000
0000
0000
,
0000
0000
0000
0000
,
0000
0000
0000
0000
,
0000
0000
0000
0000
,
0000
0000
0000
0000
,
1000
1000
0001
0001
,
0100
0100
0010
0010
,
1000
0000
1000
0000
0001
0000
0001
1000
,
0200
0000
0300
0110
0010
0000
0010
0000
,
0001
1000
0010
0200
0000
0301
1000
0000
,
0001
0100
0010
0000
1000
0000
1000
0000
,
0001
1000
0100
0020
0000
0031
1000
0000
,
0002
0000
0103
0010
2000
0000
3001
0100
,
1000
0100
0001
0000
2000
0000
3001
0010
,
1000
0010
0001
1000
0001
0100
0010
1000
,
0100
0010
0001
0000
0010
0000
0100
0000
,
1000
1002
1003
1000
,
0010
0100
0010
0000
1000
0000
1000
0000
,
0001
0010
0001
1000
0000
0001
0100
0010
,
1000
0000
0010
0000
0100
0000
0000
0001
0000
1000
0000
0000
0001
0000
0010
0000
,
0200
0000
0300
0000
1000
0010
0100
0000
,
0001
0100
0010
0000
1000
0001
0100
0100
,
0010
1000
0001
0000
1000
0100
0010
0000
,
0001
0010
0100
0000
2000
0000
3001
0000
,
0100
0000
0010
0100
0010
0000
0000
0000
2000
0000
0000
0000
3010
0000
0000
0000
,
0100
0001
1000
0000
0001
0010
0100
0010
,
0001
1000
0001
0000
1000
0000
0001
1000
,
0100
1000
0001
0000
0100
0010
1000
0010
,
0100
0001
1000
0000
0002
0000
0013
0000
,
0100
0010
0001
1000
,
0010
0000
0100
0000
0001
0100
0010
0100
,
1000
0100
0010
1000
0002
0000
1003
1000
,
0001
0000
0001
0000
0010
0000
0100
0000
1000
0000
0000
0000
0001
0000
0000
0100
,
0000
0010
1000
0010
0000
0100
0001
1000
,
0001
2000
0000
0000
3000
0000
0001
0000
,
0010
0000
0100
0000
1000
0000
0001
0000
1000
0000
0000
1000
0000
0000
0001
0000
,
0000
0001
0000
0000
0100
0000
0010
0000
0200
0000
0000
0000
0300
0000
0000
0000
,
0001
0000
0100
0000
0010
0000
1000
0000
0010
0000
0000
0010
0000
0000
2000
0000
,
0000
3001
0010
0001
1000
1000
0000
0001
,
0001
0000
0010
0100
1000
0001
1000
0100
,
0001
0100
1000
0000
0002
0000
0000
0000
,
0103
0010
2000
0000
,
3100
0010
0002
0000
,
0103
0010
1000
0010
,
0100
0001
2000
0000
,
3001
1000
0010
0010
,
0100
0100
0002
0000
,
2003
0000
3100
0010
,
0000
0001
1000
0000
0002
0000
0103
0000
,
0010
0100
0010
0000
2000
0000
3100
0000
,
0010
0100
0010
0000
0002
0000
0013
0000
,
0100
1000
0100
0000
2000
0000
3010
0000
,
0100
0001
0100
0000
0001
0010
0100
0010
,
1000
0010
0001
0000
1000
0010
0100
0010
,
0001
0010
1000
0000
0001
0100
0010
1000
,
0001
0010
0100
1000
0002
0000
2003
0000
,
3100
0010
0100
0010
0001
0000
0100
0000
,
0010
0010
1000
0100
,
0010
0010
0001
0001
,
1000
0000
1000
0000
0010
0100
0001
1000
,
0020
0000
0130
0000
0001
1000
0100
1000
,
0001
0000
0100
0000
0010
0100
0010
0000
1000
0000
0010
0000
0100
0000
0001
0000
,
1000
0000
0001
0000
0010
0100
0010
0000
0100
0000
1000
0000
0001
0000
0100
0000
,
1000
0100
0001
1000
0200
0000
0000
0000
,
0000
0000
0300
0000
1000
0000
0001
0100
,
0010
1000
0010
0100
0100
0000
0001
1000
,
0100
0010
0100
1000
0001
0100
0010
0100
,
0001
1000
0100
0010
0010
0000
0001
1000
,
0010
0100
0010
0000
0100
0000
0010
1000
,
0001
0000
1000
0001
0100
0010
0100
0010
,
1000
0000
0001
0000
0010
0000
0100
0000
0000
1000
0000
0000
0001
0000
0100
0000
,
0010
0000
1000
0000
0010
0000
0000
0000
1000
0000
0000
1000
0000
0000
1000
0000
,
0001
0000
0010
0100
1000
0000
0001
0100
,
0010
1000
0001
1000
1000
0000
0001
0100
,
0001
1000
0010
0100
0010
1000
0001
0100
,
0001
0010
0100
1000
0000
0001
1000
0010
,
1000
0001
0100
0000
0001
0010
0100
0000
,
1000
0010
0001
0010
1000
0001
1000
0100
,
0010
0001
0010
0000
0001
0100
1000
0100
,
0010
0000
1000
0000
0001
0000
1000
0000
0100
1000
0100
0000
0010
0000
0001
0000
,
1000
0000
0001
0000
0100
0000
0010
0100
0010
0000
0000
0000
0010
0000
0000
0000
,
1000
0010
1000
0000
0001
0000
0001
0000
,
0010
0001
1000
0001
0000
0100
0001
1000
,
0001
0000
0010
0000
0100
0000
0000
1000
0000
0001
0000
0000
0100
0000
0010
0000
,
1000
0001
1000
0000
0002
0000
0000
0000
0103
0000
0100
0000
0010
0000
0010
0000
,
1000
0000
1000
0000
0001
0000
0000
0000
0010
0001
0010
0000
0001
0000
0000
0000
,
1000
0010
0000
0010
0100
0000
0001
0000
1000
0000
0010
0000
0100
0000
0001
0000
,
0010
0000
0100
0000
1000
0001
1000
0000
0001
0000
0100
0010
0000
0010
0100
0000
,
0020
0000
0130
0000
;

//---------------dance-double - ----------------
#NOTES:
     dance-double:
     :
     Easy:
     13:
     0.543179,0.677276,0.016111,0.241668,0.084584,472.000000,470.000000,2.000000,30.000000,0.000000,0.000000,0.543179,0.677276,0.016111,0.241668,0.084584,472.000000,470.000000,2.000000,30.000000,0.000000,0.000000:
// measure 0
00000000
00000000
00000000
00000000
,  // measure 1
00000000
00000000
00000000
00000000
,  // measure 2
00000000
00000000
00000000
00000000
,  // measure 3
00000000
00000000
00000000
00000000
,  // measure 4
00000000
00000000
00000000
00000000
,  // measure 5
10000000
10000000
00010000
00010000
,  // measure 6
01000000
01000000
00001000
00001000
,  // measure 7
00010000
00000000
00010000
00000000
00000100
00000000
00000100
00000010
,  // measure 8
00000002
00000000
00000003
00001001
00001000
00000000
00001000
00000000
,  // measure 9
00000010
00010000
00001000
00020000
00000000
00031000
01000000
00000000
,  // measure 10
00010000
00100000
01000000
00000000
10000000
00000000
10000000
00000000
,  // measure 11
00010000
01000000
00100000
02000000
00000000
03010000
10000000
00000000
,  // measure 12
00020000
00000000
00130000
00001000
00010000
00000000
00000010
00001000
,  // measure 13
00000001
00000100
00000010
00000000
00001000
00000000
00000001
00000010
,  // measure 14
00000100
00000010
00000001
00001000
00000010
00010000
00000010
00010000
,  // measure 15
00001000
00100000
00010000
00000000
00100000
00000000
01000000
00000000
,  // measure 16
10000000
10020000
10030000
10000000
,  // measure 17
00100000
01000000
00100000
00000000
01000000
00000000
01000000
00000000
,  // measure 18
00010000
01000000
00001000
00010000
00000000
00000010
00001000
00000010
,  // measure 19
00000100
00000000
00000010
00000000
00001000
00000000
00000000
00000001
00000000
00001000
00000000
00000000
00000001
00000000
00000010
00000000
,  // measure 20
00000200
00000000
00000300
00000000
00010000
00001000
01000000
00000000
,  // measure 21
00001000
00010000
00000100
00000000
00010000
00001000
01000000
01000000
,  // measure 22
00010000
01000000
00100000
00000000
10000000
00010000
01000000
00000000
,  // measure 23
00010000
01000000
00100000
00000000
02000000
00000000
03001000
00000000
,  // measure 24
00010000
00001000
00010000
00000000
00002000
00000000
00013000
00000000
,  // measure 25
00000010
00000100
00000010
00000000
00001000
00000010
00000100
00000001
,  // measure 26
00001000
00000001
00001000
00000000
00000001
00000000
00000100
00000000
,  // measure 27
00000010
00010000
00001000
00000000
00010000
00001000
00100000
00010000
,  // measure 28
00100000
00001000
00100000
00000000
00020000
00000000
10030000
00000000
,  // measure 29
00100000
01000000
00001000
00010000
,  // measure 30
00000100
00000000
00000010
00000000
00000001
00000100
00001000
00000000
,  // measure 31
00000100
00000010
00010000
00000000
00002000
00000000
00013000
00001000
,  // measure 32
01000000
00000000
00100000
00000000
01000000
00000000
00000000
00000000
00010000
00000000
00000000
00000000
10000000
00000000
00000000
00100000
,  // measure 33
00000000
01000000
00001000
00010000
00000000
00000010
00001000
00000010
,  // measure 34
00000100
00000000
00000002
00000000
00000000
00000000
00000000
00000003
00000000
00000000
00001000
00000000
00000010
00000000
00010000
00000000
,  // measure 35
00001000
00000000
00010000
00000000
00001000
00000000
00000000
00000000
01000000
00000000
00000000
01000000
00000000
00000000
00100000
00000000
,  // measure 36
00000000
00100000
00000000
00000000
10000000
00000000
00010000
00000000
02000000
00000000
00000000
00000000
03000000
00000000
00000000
00000000
,  // measure 37
00010000
00000000
01000000
00000000
00001000
00000000
00010000
00000000
00000010
00000000
00000000
00000010
00000000
00000000
00002000
00000000
,  // measure 38
00000000
00003001
00000100
00000001
00001000
00001000
00000000
00000010
,  // measure 39
00000010
00000000
00010000
00001000
01000000
00100000
10000000
00010000
,  // measure 40
10000000
01000000
00010000
00000000
00002000
00000000
00000000
00000000
,  // measure 41
00013000
00000010
00000200
00000000
,  // measure 42
00000301
00001000
00000020
00000000
,  // measure 43
00010030
00001000
01000000
00010000
,  // measure 44
00100000
01000000
20000000
00000000
,  // measure 45
30010000
00100000
00001000
00010000
,  // measure 46
00000010
00001000
00000020
00000000
,  // measure 47
00000230
00000000
00000301
00001000
,  // measure 48
00000000
00000010
00000100
00000000
00000002
00000000
00001003
00000000
,  // measure 49
00000100
00001000
00000100
00000000
00020000
00000000
00031000
00000000
,  // measure 50
01000000
00001000
01000000
00000000
00020000
00000000
00130000
00000000
,  // measure 51
00010000
00100000
00010000
00000000
20000000
00000000
30100000
00000000
,  // measure 52
01000000
00100000
01000000
00000000
00010000
10000000
00100000
01000000
,  // measure 53
00010000
01000000
00001000
00000000
00010000
00000010
00001000
00000001
,  // measure 54
00000010
00000100
00000010
00000000
00000001
00000010
00000100
00000010
,  // measure 55
00001000
00010000
00001000
00000000
02000000
00000000
03200000
00000000
,  // measure 56
20300000
30010000
10000000
00010000
,  // measure 57
00100000
00100000
00001000
00010000
,  // measure 58
00000010
00000010
00001000
00001000
,  // measure 59
00000001
00000001
00000100
00000010
,  // measure 60
00020000
00000000
00031000
00000000
00010000
00001000
00100000
00010000
,  // measure 61
10000000
00100000
01000000
00000000
00010000
01000000
00001000
00010000
,  // measure 62
00000010
00001000
00000010
00000000
00000100
00000001
00001000
00000010
,  // measure 63
00010000
00000000
00001000
00000000
00010000
00001000
00010000
00000000
00002000
00000000
00000000
00000000
00000000
00000000
00000000
00000000
,  // measure 64
00000000
00003000
01000000
00100000
,  // measure 65
10000000
00100000
01000000
00010000
00010000
00000000
01000000
00001000
,  // measure 66
00010000
00000010
00001000
00000100
00000010
00000000
00000001
00000000
,  // measure 67
00001000
00000010
00010000
00000010
00000010
00000000
00010000
00001000
,  // measure 68
00100000
00000000
00001000
00000000
00010000
00000000
00000000
00000000
00001000
00000000
00000000
00000000
01000000
00000000
00000000
00100000
,  // measure 69
00000000
10000000
00010000
01000000
00000000
00001000
00010000
00000100
,  // measure 70
00000010
00000000
00000100
00000000
00001000
00000000
00000001
00000000
00000000
00000100
00000000
00000000
00000010
00000000
00010000
00000000
,  // measure 71
00001000
00000000
00010000
00000000
00001000
00000000
00000000
00000000
01000000
00000000
00000000
00100000
00000000
00000000
10000000
00000000
,  // measure 72
00010000
00000000
00100000
01000000
10000000
00000000
00010000
00000000
,  // measure 73
01000000
00100000
10000000
00010000
00010000
00000000
01000000
00000000
,  // measure 74
00001000
00010000
00000010
00000100
00000010
00000000
00001000
00000000
,  // measure 75
00000001
00000010
00000100
00001000
00000000
00000001
00000100
00000010
,  // measure 76
00001000
00000010
00010000
00000000
00001000
01000000
00010000
00000000
,  // measure 77
01000000
00100000
10000000
00010000
01000000
00001000
00010000
00000000
,  // measure 78
00001000
01000000
00010000
01000000
00001000
00010000
00000010
00001000
,  // measure 79
00000001
00000000
00000010
00000000
00000100
00000000
00000000
00000000
00001000
00000001
00001000
00000000
00000010
00000000
00000100
00000000
,  // measure 80
00000010
00000000
00010000
00000000
00001000
00010000
00001000
00010000
00001000
00000000
00000000
00000000
00001000
00000000
00000000
00000000
,  // measure 81
00100000
00010000
00100000
00000000
00010000
00000000
00010000
00000000
,  // measure 82
10000000
00100000
01000000
00010000
00000000
10000000
01000000
00100000
,  // measure 83
01000000
00000000
10000000
00000000
00010000
00000000
00000000
01000000
00000000
00100000
00000000
00000000
10000000
00000000
00010000
00000000
,  // measure 84
01000000
00000000
00001000
00010000
00002000
00000000
00000000
00000000
00013000
00000000
00000100
00000000
00000010
00000000
00000000
00000000
,  // measure 85
00000001
00000000
00000100
00000000
00000010
00000000
00000000
00000000
00001000
00000010
00001000
00000000
00000010
00000000
00000000
00000000
,  // measure 86
00010000
00000000
00001000
00000000
01000000
00010000
00000000
00010000
01000000
00000000
00100000
00000000
10000000
00000000
00100000
00000000
,  // measure 87
01000000
00000000
00001000
00000000
00010000
00000000
00000100
00000000
00000010
00000000
00000001
00001000
00000000
00001000
00000001
00000000
,  // measure 88
00002000
00000000
00003001
00000000
;

//---------------dance-single - ----------------
#NOTES:
     dance-single:
     :
     Beginner:
     9:
     0.329129,0.427753,0.000000,0.153057,0.000000,286.000000,286.000000,0.000000,19.000000,0.000000,0.000000,0.329129,0.427753,0.000000,0.153057,0.000000,286.000000,286.000000,0.000000,19.000000,0.000000,0.000000:
0000
0000
0000
0000
,
0000
0000
0000
0000
,
0000
0000
0000
0000
,
0000
0000
0000
0000
,
0000
0000
0000
0000
,
0001
0000
0001
0000
,
1000
0000
1000
0000
,
0010
0100
0010
0100
,
0020
0000
0000
0030
1000
0000
1000
0000
,
0001
0000
0010
0002
0000
0000
1003
0000
,
1000
1000
0001
0001
,
1000
0000
0010
2000
0000
0000
3001
0000
,
0002
0003
0100
0100
,
0100
0000
0010
0010
,
0010
0000
1000
0001
,
1000
0001
1000
0000
0002
0000
0000
0000
,
0000
0003
1000
0000
,
1000
0000
0001
0000
,
0001
0100
0010
0000
,
0010
0000
0100
0000
,
0100
0010
1000
1000
,
1000
0000
0001
0001
,
0001
0100
0001
0000
1000
0000
1000
0000
,
1000
0000
0001
0001
,
0001
0010
0001
0000
1000
0000
0000
0000
,
0010
0000
0100
0001
,
0100
0010
1000
0000
,
0001
0000
1000
0010
,
0100
0010
1000
0000
,
0001
0000
1000
0000
,
0001
0000
0010
0100
,
0010
0100
1000
0001
,
1000
0001
0100
0010
,
0100
0010
0100
0000
0001
0000
1000
0000
,
0001
1000
0001
0000
0010
0000
0100
0000
,
0010
0100
0010
0000
0001
0000
0001
0000
,
1000
1000
0020
0030
,
1000
0001
0010
0010
,
0001
1000
0001
0000
0100
0000
0000
0010
,
0000
0100
0001
1000
,
0100
0010
0100
0010
0200
0000
0000
0000
,
1300
0000
2000
0000
,
3001
0000
0002
0000
,
0103
0000
0200
0000
,
0310
0000
0020
0000
,
1030
0000
2000
0000
,
3002
0000
0023
0000
,
0100
0000
0130
0010
,
0000
0001
1000
0000
0001
0000
0000
0000
,
0100
0010
0100
0000
,
0001
1000
0001
0000
,
0010
0100
0010
0000
,
0001
1000
0001
0000
,
1000
0000
0010
0010
,
0010
0000
0100
0000
,
0001
1000
0001
0001
,
1000
1000
0010
0000
,
0100
0000
0001
0000
,
1000
0000
0100
0000
,
0010
0000
0001
0000
,
2000
3000
0001
0001
,
1000
1000
0001
0001
,
1000
0000
1000
0000
0010
0100
0010
0100
,
0010
0100
0010
0000
0200
0000
0000
0000
,
0000
0300
0001
0100
,
0001
1000
0001
0000
1000
0000
0100
0000
,
1000
0001
1000
0000
0001
0000
0100
0000
,
0010
1000
0001
1000
,
0100
0010
0100
0000
,
1000
0000
0001
0100
,
0010
0100
0010
0100
0010
0000
1000
0000
,
0010
0100
0002
0000
,
1003
0000
0000
0001
,
0100
0010
0100
0000
0010
0000
1000
0000
,
0001
1000
0001
0000
0010
0000
0100
0000
,
1000
0001
1000
0001
,
0010
0010
0001
1000
,
0010
0100
0010
0000
1000
0000
0001
0000
,
0010
0100
0010
0000
0001
0000
1000
0000
,
0010
0100
0010
0000
1000
0000
0001
0000
,
0100
0100
0010
0100
,
0001
0000
0100
0010
,
1000
1000
0000
0001
,
0010
0001
1000
1000
,
0020
0030
0100
0100
,
0100
0000
0010
0010
,
0010
1000
0001
0010
,
0001
0000
1000
0000
0010
0100
0010
0100
,
0020
0000
0130
0000
;
