#TITLE:ZADAMGA;
#SUBTITLE:;
#ARTIST:onoken;
#TITLETRANSLIT:;
#SUBTITLETRANSLIT:;
#ARTISTTRANSLIT:;
#GENRE:;
#CREDIT:;
#BANNER:ZADAMGA.png;
#BACKGROUND:ZADAMGA-bg.png;
#LYRICSPATH:;
#CDTITLE:cdtitle.png;
#MUSIC:ZADAMGA.ogg;
#OFFSET:0.346000;
#SAMPLESTART:91.653999;
#SAMPLELENGTH:10.667000;
#SELECTABLE:YES;
#BPMS:0.000000=180.000000
;
#STOPS:
;
#BGCHANGES:;
#KEYSOUNDS:;
#ATTACKS:;

//---------------dance-single - MEGAtive----------------
#NOTES:
     dance-single:
     :
     Hard:
     14:
     0.598781,0.713909,0.239969,0.615921,0.371952,524.000000,494.000000,30.000000,77.000000,0.000000,0.000000,0.598781,0.713909,0.239969,0.615921,0.371952,524.000000,494.000000,30.000000,77.000000,0.000000,0.000000:
// measure 0
0000
0000
0000
0000
,  // measure 1
0000
0000
0000
0000
,  // measure 2
0000
0000
0000
0000
,  // measure 3
0000
0000
0000
0000
,  // measure 4
0000
0000
0000
0000
,  // measure 5
0001
0000
1000
0000
,  // measure 6
0010
0100
0010
0000
,  // measure 7
1000
0100
0010
0001
,  // measure 8
1000
0010
2000
0000
,  // measure 9
3001
0000
1000
0100
1000
0000
0001
0010
0002
0000
0000
0000
1003
0000
0010
0000
,  // measure 10
0100
0000
0000
0010
0000
0000
1000
0000
0001
0000
1000
0000
0001
0000
0000
0010
0000
0000
0100
0000
0000
1000
0000
0000
,  // measure 11
0001
0000
1000
0010
1000
0000
0001
0100
0002
0000
0000
0000
1003
0000
0100
0000
,  // measure 12
1000
0000
0000
0000
1000
0000
0010
0000
0000
0000
0010
0000
1000
0000
0000
0002
0000
0000
0000
0000
0000
0000
0000
0000
,  // measure 13
1003
0000
0001
0010
0001
0000
1000
0100
2000
0000
0000
0000
3001
0000
0100
0000
,  // measure 14
0010
0000
0000
0100
0000
0000
0001
0000
1000
0000
0001
0000
1000
0000
0000
0100
0000
0000
0010
0000
0000
0001
0000
0000
,  // measure 15
1000
0000
0001
0100
0001
0000
1000
0010
2000
0000
0000
0000
3001
0000
0010
0000
,  // measure 16
0001
0000
0000
0000
0010
0000
0000
0000
0001
0000
0000
0000
1000
0000
0000
0100
0000
0000
1000
0000
0000
0100
0000
0000
1000
0000
0000
0000
0000
0000
0010
0000
0000
0000
0000
0000
0200
0000
0000
0000
0000
0000
0300
0000
0000
0000
0000
0000
,  // measure 17
1001
0001
0001
0001
,  // measure 18
0001
1000
0100
0010
,  // measure 19
0001
2002
3003
2020
,  // measure 20
3030
0000
2002
0000
3003
0000
0022
0033
,  // measure 21
1001
0000
1000
0000
1000
0000
1000
1001
,  // measure 22
0001
0001
0100
0010
,  // measure 23
2000
0000
3001
0010
,  // measure 24
0220
0330
2200
3300
2002
3003
0202
0303
,  // measure 25
0002
0000
0203
0000
0310
1000
0001
0000
,  // measure 26
0020
0000
0230
0000
1300
0001
0100
0000
,  // measure 27
0002
0000
2003
0000
3100
0010
0200
0000
,  // measure 28
2300
3002
0203
0310
,  // measure 29
2000
0000
3200
0000
0310
0001
1000
0000
,  // measure 30
0020
0000
0230
0000
0301
1000
0100
0000
,  // measure 31
1100
1100
0101
0101
,  // measure 32
0001
0010
0100
1000
0000
1000
0002
0000
0000
1003
0000
0000
,  // measure 33
0001
0000
1000
0010
1000
0000
0001
0100
0002
0000
0000
0000
1003
0000
0100
0000
,  // measure 34
0010
0000
0000
0100
0000
0000
1000
0000
0001
0000
1000
0000
0001
0000
0000
0100
0000
0000
0010
0000
0000
1000
0000
0000
,  // measure 35
0001
0000
1000
0100
1000
0000
0001
0010
0002
0000
0000
0000
1003
0000
0010
0000
,  // measure 36
0100
0000
0000
0000
0001
0000
0010
0000
0000
0000
0010
0000
0001
0000
0000
2000
0000
0000
0000
0000
0000
3001
0000
0000
,  // measure 37
1000
0000
0001
0100
0001
0000
1000
0010
2000
0000
0000
0000
3001
0000
0010
0000
,  // measure 38
0100
0000
0000
0010
0000
0000
0001
0000
1000
0000
0001
0000
1000
0000
0000
0010
0000
0000
0100
0000
0000
0001
0000
0000
,  // measure 39
1000
0000
0001
0010
0001
0000
1000
0100
2000
0000
0000
0000
3001
0000
0100
0000
,  // measure 40
0001
0000
0000
0000
0100
0000
0000
0000
0001
0000
0000
0000
1000
0000
0000
0010
0000
0000
1000
0000
0000
0010
0000
0000
1000
0000
0000
0000
0000
0000
0100
0000
0000
0000
0000
0000
0020
0000
0000
0000
0000
0000
0030
0000
0000
0000
0000
0000
,  // measure 41
1001
0000
0000
0001
0000
0000
0001
0000
,  // measure 42
0000
0001
0000
0000
0011
0000
0000
1000
,  // measure 43
0000
0000
1000
0000
0000
1000
0000
0000
,  // measure 44
1000
0000
0000
1000
1010
0000
0001
0000
,  // measure 45
0000
0001
0000
0000
0001
0000
0000
0001
,  // measure 46
0000
0000
0001
0000
0101
0100
0000
0000
,  // measure 47
1000
0000
0000
1000
0000
0000
1000
0000
,  // measure 48
0000
1000
0000
0000
1100
0000
1001
0000
,  // measure 49
0001
0100
0001
0100
,  // measure 50
0010
1000
0010
1000
,  // measure 51
0001
0010
0100
1000
,  // measure 52
0001
0010
0001
1000
,  // measure 53
0010
0000
0010
1000
0000
1000
0001
0000
0001
0010
0000
0010
,  // measure 54
0100
0000
0100
1000
0000
1000
0001
0000
0001
0100
0000
0100
,  // measure 55
0010
0100
0010
1000
0001
1000
0001
0010
0100
0010
0100
1000
,  // measure 56
0001
0000
0000
0000
0010
0001
1000
0000
,  // measure 57
0001
0100
0002
0000
1003
0100
2000
0000
,  // measure 58
3001
0100
0001
1000
0020
0000
1030
0000
,  // measure 59
0001
0010
0002
0000
1003
0010
2000
0000
,  // measure 60
3001
0010
0001
1000
0200
1000
1300
0000
,  // measure 61
1000
0010
2000
0000
3001
0010
0002
0000
,  // measure 62
1003
0010
1000
0001
0200
0000
0301
0000
,  // measure 63
1000
0100
2000
0000
3001
0100
0002
0000
,  // measure 64
1003
0100
1000
0000
2002
0000
3003
0000
,  // measure 65
2002
3003
2002
3003
,  // measure 66
2002
3003
2002
3003
,  // measure 67
0001
0010
0001
0010
0100
1000
0100
1000
,  // measure 68
0010
0100
0010
0100
0010
0100
0010
0100
0020
0000
0000
0000
0000
0000
0000
0000
,  // measure 69
1030
0000
0010
1000
0000
0000
1000
0001
0000
0000
0001
0010
0000
0000
0010
0000
,  // measure 70
0001
1000
0001
0000
0100
0000
0010
0000
1000
0001
1000
0000
0100
0000
0010
0000
,  // measure 71
0001
0011
1001
1010
,  // measure 72
0010
1000
0001
0010
0100
2000
0000
0000
,  // measure 73
3001
0000
0100
0001
0000
0000
0001
1000
0000
0000
1000
0100
0000
0000
0100
0000
,  // measure 74
1000
0001
1000
0000
0010
0000
0100
0000
0001
1000
0001
0000
0010
0000
0100
0000
,  // measure 75
1000
0000
0010
0000
0100
0001
1000
0000
0200
0000
0000
0000
,  // measure 76
1300
0001
0100
0010
2000
0001
0001
0000
,  // measure 77
3001
0000
1000
0100
1000
0000
0001
0100
0002
0000
0100
0000
0103
0000
0000
0000
,  // measure 78
0001
0000
0000
0010
0000
0000
0100
0000
1000
0000
0100
0000
1000
0000
0000
0001
0000
0000
0100
0000
0000
0010
0000
0000
,  // measure 79
1000
0000
0001
0010
0001
0000
1000
0010
2000
0000
0010
0000
3010
0000
0000
0000
,  // measure 80
1000
0000
0001
0000
0010
0000
0001
0000
1000
0000
0100
0000
1000
0000
0000
2002
0000
0000
0000
0000
0000
3003
0000
0000
,  // measure 81
1000
0000
0001
0010
0001
0000
1000
0010
2000
0000
0010
0000
3010
0000
0000
0000
,  // measure 82
1000
0000
0000
0100
0000
0000
0010
0000
0001
0000
0010
0000
0001
0000
0000
1000
0000
0000
0010
0000
0000
0100
0000
0000
,  // measure 83
0001
0000
1000
0100
1000
0000
0001
0100
0002
0000
0100
0000
0103
0000
0000
0000
,  // measure 84
0001
0000
0000
0000
0010
0000
0000
0000
0001
0000
0000
0000
1000
0000
0000
0010
0000
0000
1000
0000
0000
0010
0000
0000
1000
0000
0000
0000
0000
0000
0001
0000
0000
0000
0000
0000
0020
0000
0000
0000
0000
0000
0000
0000
0000
0000
0000
0000
,  // measure 85
0130
0000
0000
0000
;

//---------------dance-single - MEGAtive----------------
#NOTES:
     dance-single:
     :
     Challenge:
     17:
     0.859319,0.985874,0.167978,0.615921,1.179849,752.000000,731.000000,21.000000,77.000000,0.000000,0.000000,0.859319,0.985874,0.167978,0.615921,1.179849,752.000000,731.000000,21.000000,77.000000,0.000000,0.000000:
0000
0000
0000
0000
,
0000
0000
0000
0000
,
0000
0000
0000
0000
,
0000
0000
0000
0000
,
0000
0000
0000
0000
,
0001
0000
1000
0001
,
0010
0001
1000
0000
,
0010
0100
0001
1000
,
0001
0010
0002
0000
,
1003
0000
0001
0010
0001
1000
0100
0010
0002
0000
0000
0000
1003
0000
0010
0100
,
0010
0000
0000
1000
0000
0000
0001
0000
0000
1000
0000
0000
0100
0000
0000
0000
0010
0000
0000
0000
0001
0000
0000
0000
1000
0000
0000
0000
0000
0000
0001
0000
0000
0000
0000
0000
0100
0000
0000
0000
0000
0000
0010
0000
0000
0000
0000
0000
,
1000
0000
0001
0100
0001
1000
0010
0100
0002
0000
0000
0000
1003
0000
0100
0010
,
0100
0000
1000
0000
0001
0000
1000
0000
0010
0000
0100
0000
0001
0000
0000
2000
0000
0000
0001
0000
0000
0000
0000
0000
,
3001
0000
1000
0010
1000
0001
0100
0010
2000
0000
0000
0000
3001
0000
0010
0100
,
0010
0000
0000
0001
0000
0000
1000
0000
0000
0001
0000
0000
0100
0000
0000
0000
0010
0000
0000
0000
1000
0000
0000
0000
0001
0000
0000
0000
0000
0000
1000
0000
0000
0000
0000
0000
0100
0000
0000
0000
0000
0000
0010
0000
0000
0000
0000
0000
,
0001
0000
1000
0100
1000
0001
0010
0100
2000
0000
0000
0000
3001
0000
0100
0010
,
0100
0000
0000
0000
0001
0000
0000
0000
1000
0000
0000
0000
0001
0000
0000
0010
0000
0000
0100
0000
0000
1000
0000
0000
0001
0000
0000
0000
0000
0000
1000
0000
0000
0000
0000
0000
0002
0000
0000
0000
0000
0000
0000
0000
0000
0000
0000
0000
,
1003
0010
0100
0010
1000
0100
0010
0100
,
1000
0000
0000
0001
0000
0000
0100
0000
0010
0000
0100
0000
0001
0000
0010
0000
0100
0000
1000
0000
0010
0000
0100
0000
,
0001
0000
2002
0000
3003
1000
2100
0000
,
3001
0000
0102
0000
1003
1000
2100
0000
,
3001
0010
0100
0010
0001
0100
0010
0110
,
0100
0000
0000
0001
0000
0000
0010
0000
0100
0000
0010
0000
0001
0000
1000
0000
0010
0000
1000
0000
0001
0000
0010
0000
,
0200
0000
2300
3000
1002
0000
0203
0010
,
0310
0000
2010
0000
3001
0001
1001
0000
,
0012
0000
1003
0010
0200
0001
0302
0000
,
2003
0000
3200
0000
0320
0100
0130
0000
,
0012
0000
2003
0000
3020
0100
0230
0000
,
0302
0000
0000
0000
0000
0000
0023
0000
0000
0100
0000
0000
0130
0000
1000
0000
0001
0000
0100
0000
0010
0000
1000
0000
,
0002
0000
1003
0100
0020
0001
0032
0000
,
2003
0000
3020
0000
0230
0010
0310
0000
,
0110
0000
0000
1010
0000
0000
1001
0000
0001
0010
0001
1000
,
0100
0010
0001
1000
0000
0001
2000
0000
0000
0000
0000
0000
,
3001
0000
1000
0100
1000
0001
0010
0100
2000
0000
0000
0000
3001
0000
0100
0010
,
0100
0000
0000
0001
0000
0000
1000
0000
0000
0001
0000
0000
0010
0000
0000
0000
0100
0000
0000
0000
1000
0000
0000
0000
0001
0000
0000
0000
0000
0000
1000
0000
0000
0000
0000
0000
0010
0000
0000
0000
0000
0000
0100
0000
0000
0000
0000
0000
,
0001
0000
1000
0010
1000
0001
0100
0010
2000
0000
0000
0000
3001
0000
0010
0100
,
0010
0000
0001
0000
1000
0000
0001
0000
0100
0000
0010
0000
1000
0000
0000
0002
0000
0000
1000
0000
0000
0000
0000
0000
,
1003
0000
0001
0100
0001
1000
0010
0100
0002
0000
0000
0000
1003
0000
0100
0010
,
0100
0000
0000
1000
0000
0000
0001
0000
0000
1000
0000
0000
0010
0000
0000
0000
0100
0000
0000
0000
0001
0000
0000
0000
1000
0000
0000
0000
0000
0000
0001
0000
0000
0000
0000
0000
0010
0000
0000
0000
0000
0000
0100
0000
0000
0000
0000
0000
,
1000
0000
0001
0010
0001
1000
0100
0010
0002
0000
0000
0000
1003
0000
0010
0100
,
0010
0000
0000
0000
1000
0000
0000
0000
0001
0000
0000
0000
1000
0000
0000
0100
0000
0000
0010
0000
0000
0001
0000
0000
1000
0000
0000
0000
0000
0000
0001
0000
0000
0000
0000
0000
2000
0000
0000
0000
0000
0000
0000
0000
0000
0000
0000
0000
,
3001
0000
0010
0000
0001
0000
1000
0000
0010
0000
1000
0000
,
0001
0000
0010
0000
0001
0000
1000
0000
0010
0000
1000
0000
,
0001
0000
0100
0000
0001
0000
1000
0000
0100
0000
1000
0000
,
0001
0000
0100
0000
0001
0000
1000
0000
0100
0000
1000
0000
,
0001
0000
0010
0100
0010
0000
0001
0000
0100
0010
0100
0000
,
0001
0000
0010
0100
0010
0000
0001
0000
0100
0010
0100
0000
,
0001
0000
0010
0100
1000
0000
0001
0000
0100
0010
1000
0000
,
0100
0000
0010
0001
1000
0000
0010
0000
0100
0001
1000
0000
,
0001
0010
0100
0010
0001
1000
0001
0100
0010
0100
0001
1000
,
0001
0010
0100
0010
0001
1000
0001
0100
0010
0100
0001
1000
,
0100
0010
0001
0010
0100
1000
0010
0100
0001
0100
0010
1000
,
0100
0010
0001
0010
0100
1000
0010
0100
0001
0100
0010
1000
,
0001
0010
0001
1000
0010
1000
0001
0010
0001
0100
0010
1000
,
0100
0010
0100
1000
0001
0100
0010
0100
0001
1000
0100
0010
,
0001
1000
0010
0100
1000
0001
0010
0100
0001
1000
0100
0010
,
0002
0000
0000
0000
1003
0001
0011
0000
,
0001
0010
0100
1000
0002
0000
0000
0000
1003
0010
0100
0001
2000
0000
0000
0000
,
3001
0010
0100
0010
0002
0000
0000
0000
1003
0100
0010
0001
2000
0000
0000
0000
,
3001
0100
0010
0100
0002
0000
0000
0000
1003
0100
0010
0100
2000
0000
0000
0000
,
3001
0100
0010
0100
0002
0000
0000
0000
1003
0100
0010
0001
2000
0000
0000
0000
,
3001
0100
0010
1000
0002
0000
0000
0000
1003
0100
0010
0001
2000
0000
0000
0000
,
3001
0100
0010
0100
0002
0000
0000
0000
1003
0010
0100
0001
2000
0000
0000
0000
,
3001
0010
0100
0010
0002
0000
0000
0000
1003
0010
0100
0010
2000
0000
0000
0000
,
3001
0010
0100
0010
0002
0000
0003
0000
2002
0000
0000
0000
0000
0000
0000
3003
,
2002
0000
0000
0000
0000
0000
0000
3003
2002
0000
0000
0000
0000
0000
0000
3003
,
2002
0000
0000
0000
0000
0000
0000
3003
2002
0000
0000
0000
0000
0000
0000
3003
,
0001
0010
0100
1000
0001
0100
0010
1000
,
0001
0010
0001
0010
0100
1000
0100
1000
0001
0100
0010
1000
0001
0010
0100
1000
,
0001
0000
1000
0010
1000
0000
0001
0010
0001
0000
1000
0010
0100
0000
0001
0010
,
0100
1000
0001
0000
0100
0010
1000
0000
0001
0010
0001
1000
0100
1000
0001
0010
,
0100
0000
0000
0000
1000
0000
0000
0000
0001
0000
0000
0000
1000
0000
0000
0000
0010
0000
0000
0000
0100
0000
0000
0000
0001
0000
0000
0000
0010
0000
0000
0000
0001
0000
0000
0000
1000
0000
0000
0010
0000
0000
0100
0000
0000
0001
0000
0000
,
1000
0000
0001
0000
0010
0000
0100
0000
1000
0000
0010
0000
0100
0000
0000
0210
0000
0000
0000
0000
0000
0302
0000
0000
,
1003
0000
0001
0010
0100
0000
1000
0010
0100
0000
0001
1000
0100
0010
0001
1000
,
0010
0100
0010
0000
0100
0001
0100
0000
0001
1000
0001
0000
0010
0001
0010
0001
,
1000
0010
0100
0010
1000
0001
0010
0100
1000
0001
0100
0010
,
1000
0100
1000
0001
0100
0010
1000
0001
0010
0001
0010
0001
2000
0000
0000
0000
,
3001
0010
0001
0010
0001
1000
0100
0010
0002
0000
1003
0000
0001
0000
0100
0010
,
0100
0000
0000
0001
0000
0000
1000
0000
0000
0001
0000
0000
0010
0000
0000
0000
0100
0000
0000
0000
1000
0000
0000
0000
0001
0000
0000
0000
0000
0000
0001
0000
0000
0000
0000
0000
0100
0000
0000
0000
0000
0000
0010
0000
0000
0000
0000
0000
,
1000
0100
1000
0100
1000
0001
0010
0100
2000
0000
3001
0000
1000
0000
0010
0100
,
0010
0000
1000
0000
0001
0000
1000
0000
0100
0000
0010
0000
0001
0000
0000
2001
0000
0000
0000
0000
0000
3010
0000
0000
,
1000
0010
1000
0010
1000
0001
0100
0010
2000
0000
3001
0000
1000
0000
0100
0010
,
0100
0000
0000
1000
0000
0000
0001
0000
0000
1000
0000
0000
0010
0000
0000
0000
0100
0000
0000
0000
0001
0000
0000
0000
1000
0000
0000
0000
0000
0000
1000
0000
0000
0000
0000
0000
0100
0000
0000
0000
0000
0000
0010
0000
0000
0000
0000
0000
,
0001
0100
0001
0100
0001
1000
0010
0100
0002
0000
1003
0000
0001
0010
0100
1000
,
0001
0000
0000
0000
0010
0000
0000
0000
0001
0000
0000
0000
1000
0000
0000
0010
0000
0000
0100
0000
0000
0001
0000
0000
1000
0000
0000
0000
0000
0000
0001
0000
0000
0000
0000
0000
0020
0000
0000
0000
0000
0000
0000
0000
0000
0000
0000
0000
,
0130
0000
0000
0000
;
