#TITLE:Vallista;
#SUBTITLE:;
#ARTIST:削除;
#TITLETRANSLIT:;
#SUBTITLETRANSLIT:;
#ARTISTTRANSLIT:Sakuzyo;
#GENRE:Overture/IDM;
#CREDIT:;
#BANNER:Vallista.png;
#BACKGROUND:Vallista-bg.png;
#LYRICSPATH:;
#CDTITLE:cdtitle.png;
#MUSIC:Vallista.ogg;
#OFFSET:-0.396000;
#SAMPLESTART:76.396004;
#SAMPLELENGTH:15.000000;
#SELECTABLE:YES;
#DISPLAYBPM:90.000000:180.000000;
#BPMS:0.000000=90.000000
,32.000000=180.000000
,161.000000=90.000000
,169.000000=180.000000
,227.000000=360.000000
,232.000000=180.000000
,249.000000=90.000000
,257.000000=180.000000
,289.000000=90.000000
;
#STOPS:32.000000=1.000000,
227.000000=0.125000,
227.750000=0.125000,
228.500000=0.083000,
229.000000=0.125000,
229.750000=0.125000,
230.500000=0.167000,
231.500000=0.083000
;
#BGCHANGES:-0.500=Vallista.avi=1.000=0=0=0=StretchNoLoop==CrossFade_Fastest==,
99999=-nosongbg-=1.000=0=0=0 // don't automatically add -songbackground-
;
#KEYSOUNDS:;
#ATTACKS:;

//---------------dance-single - Daff_4K----------------
#NOTES:
     dance-single:
     Daff_4K:
     Beginner:
     3:
     0.133320,0.200434,0.053989,0.077127,0.000000,121.000000,114.000000,7.000000,10.000000,0.000000,0.000000,0.133320,0.200434,0.053989,0.077127,0.000000,121.000000,114.000000,7.000000,10.000000,0.000000,0.000000:
0000
0000
0000
0000
,
0000
0000
0000
0000
,
0000
0000
0000
0000
,
0000
0000
0000
0000
,
1000
0000
0010
0000
,
0001
0000
0100
0000
,
0001
0000
0010
0000
,
1000
0000
0100
0000
,
0000
1000
0000
0000
,
0000
0010
0000
0000
,
0000
1000
0000
0000
,
0000
0001
0000
0000
,
0000
1000
0000
0100
,
0000
1000
0000
0000
,
0000
0010
0000
0100
,
0000
0001
0000
0000
,
0000
0001
0000
0000
,
0000
0010
0000
0000
,
0000
0001
0000
0000
,
0000
1000
0000
0000
,
0000
0001
0000
0100
,
0000
0001
0000
0000
,
0000
0010
0000
0100
,
0000
1000
0000
0000
,
0000
2000
0000
3000
,
0000
0020
0000
0030
,
0000
0200
0000
0300
,
0000
0001
0000
1000
,
0000
0002
0000
0003
,
0000
0020
0000
0030
,
0000
0200
0000
0300
,
0000
1000
0000
0001
,
0000
1000
1000
0000
,
0010
0000
0100
0000
,
0001
0001
0000
0010
,
0000
1000
0000
0100
,
0000
0001
0001
0000
,
0010
0000
0100
0000
,
1000
1000
0000
0010
,
0000
0001
0000
0100
,
0000
1000
0000
0010
,
0000
0100
0000
0001
,
0000
1000
0000
0100
,
0000
1000
0000
0001
,
0000
0100
0000
0001
,
0000
0020
0000
0000
,
0030
0000
1001
0000
,
0000
1000
0000
0010
,
0000
0000
0110
0000
,
0000
0100
0000
0001
,
0000
0000
1001
0000
,
0000
0001
0000
0010
,
0000
0000
0110
0000
,
0100
0000
1000
0000
,
0001
0001
0000
0100
,
0000
0010
0000
1000
,
0000
0001
0000
0020
,
0000
0000
0000
0000
,
0030
0000
0001
0000
,
0001
0000
1000
0000
,
1000
0000
0010
0010
,
0010
0020
0000
0030
,
0000
1001
0000
0000
,
0000
0000
0000
0000
,
0000
1000
0000
0100
,
0000
0010
0000
0001
,
0000
0100
0000
0010
,
0000
1000
0000
0001
,
0000
0010
0010
0010
,
0000
0100
0100
0100
,
0000
1000
0000
0001
,
0000
0110
0000
1001
,
0000
0200
0000
0000
,
0000
0000
0000
0000
,
0000
0300
0000
0000
;

//---------------dance-single - Daff_4K----------------
#NOTES:
     dance-single:
     Daff_4K:
     Easy:
     6:
     0.240196,0.286335,0.154254,0.231381,0.000000,218.000000,198.000000,20.000000,30.000000,0.000000,0.000000,0.240196,0.286335,0.154254,0.231381,0.000000,218.000000,198.000000,20.000000,30.000000,0.000000,0.000000:
0000
0000
0000
0000
,
0000
0000
0000
0000
,
0000
0000
0000
0000
,
0000
0000
0000
0000
,
2000
0000
3200
0000
,
0320
0000
0032
0000
,
0203
0000
0320
0000
,
2030
0000
0002
0000
,
3003
0001
0100
0000
,
0010
0100
1000
0000
,
0100
0001
0010
0000
,
0100
0010
1000
0000
,
0010
0001
0100
0010
,
1000
0100
0010
0001
,
0000
1000
0010
0100
,
0001
0010
0100
1000
,
0000
1000
0100
0000
,
0010
0100
0001
0000
,
0100
1000
0010
0000
,
0100
0010
0001
0000
,
0010
1000
0100
0010
,
0001
0100
0010
1000
,
0000
0001
0010
0100
,
1000
0010
0100
0001
,
0000
2000
0000
3020
,
0000
1030
0100
0001
,
0001
0200
0000
0320
,
0000
0031
1000
0010
,
0100
0002
0000
0023
,
0000
0031
0100
1000
,
1000
0200
0000
0320
,
0000
1030
0001
0010
,
0100
1000
0010
0001
,
0001
0010
1000
1000
,
0100
0000
1001
0000
,
0010
0000
1001
0000
,
0100
0001
0010
1000
,
1000
0010
0001
0001
,
0100
0000
1001
0000
,
0010
0000
1001
0000
,
0100
2000
0000
3002
,
0000
0203
0000
0320
,
0000
1030
0100
1000
,
0001
0001
0100
0001
,
1000
1000
0010
0100
,
0001
0020
0000
0000
,
0000
0030
1001
0000
,
0001
0010
0100
1000
,
0010
0100
0110
0000
,
0100
0001
0010
0100
,
1000
0000
1001
0000
,
1000
0010
0100
0001
,
0010
0100
0110
0000
,
0100
1000
0010
0100
,
0001
2000
0000
3200
,
0000
0320
0000
0032
,
0000
0103
0110
2002
,
0000
0000
0000
0000
,
3003
1000
0010
0100
,
0001
0001
0010
0100
,
1000
0010
0001
0100
,
1000
0020
0000
0130
,
0000
1001
0000
0010
,
0000
0100
0000
0010
,
0000
1001
0000
0110
,
0000
1001
0000
0110
,
0000
1001
0000
0010
,
0000
0100
0000
0010
,
0000
1000
0100
0010
,
0010
0001
0100
0010
,
0010
1001
0000
0110
,
0000
1000
0001
0110
,
0000
2002
0000
0000
,
0000
0000
0000
0000
,
0000
3003
0000
0000
;

//---------------dance-single - Daff_4K----------------
#NOTES:
     dance-single:
     Daff_4K:
     Medium:
     11:
     0.495817,0.486769,0.339360,0.308509,0.038564,450.000000,406.000000,44.000000,40.000000,0.000000,0.000000,0.495817,0.486769,0.339360,0.308509,0.038564,450.000000,406.000000,44.000000,40.000000,0.000000,0.000000:
// measure 0
0000
0000
0000
0000
,  // measure 1
0000
0000
0000
0000
,  // measure 2
0000
0000
0000
0000
,  // measure 3
0000
0000
0000
0000
,  // measure 4
1002
0000
0010
0000
0100
0000
1003
0020
,  // measure 5
0001
0000
0100
0000
1000
0000
0130
0001
,  // measure 6
2001
0000
0010
0000
0100
0000
3001
0020
,  // measure 7
1000
0000
0100
0000
0001
0000
0130
2002
,  // measure 8
3003
0000
1010
0000
0101
0000
0001
0010
,  // measure 9
1000
0000
0010
0001
0100
1000
0100
0001
,  // measure 10
0010
0000
0110
0000
1001
0000
1000
0010
,  // measure 11
0001
0000
1000
0100
0001
0010
1000
0010
,  // measure 12
0001
0000
1000
0010
0100
0010
1000
0100
,  // measure 13
0001
0000
0100
1000
0001
1000
0010
0100
,  // measure 14
0001
0000
0010
1000
0010
0100
0010
0001
,  // measure 15
1000
0000
0010
0001
1000
0100
0001
1000
,  // measure 16
0001
0000
0011
0000
1100
0000
1000
0010
,  // measure 17
0001
0000
0010
1000
0100
0001
0100
1000
,  // measure 18
0010
0000
0110
0000
1001
0000
0001
0010
,  // measure 19
1000
0000
0001
0100
1000
0010
0001
0010
,  // measure 20
1000
0000
0001
0010
0100
0010
0001
0100
,  // measure 21
1000
0000
0100
0001
1000
0001
0010
0100
,  // measure 22
1000
0000
0010
0001
0010
0100
0010
1000
,  // measure 23
0001
0000
0010
1000
0001
0100
1000
0001
,  // measure 24
1000
0000
1020
0000
0001
0000
0130
0001
,  // measure 25
1000
0000
0100
0001
0100
0010
0100
1000
,  // measure 26
0001
0000
2010
0000
0001
0000
3100
0010
,  // measure 27
0001
0000
1000
0010
0001
0010
1000
0100
,  // measure 28
0010
0000
0021
0000
1000
0000
0130
1000
,  // measure 29
0001
0000
0100
1000
0100
0010
0100
0001
,  // measure 30
1000
0000
0012
0000
1000
0000
0103
0010
,  // measure 31
1000
0000
0001
0010
1000
0010
0001
0100
,  // measure 32
0010
0000
1000
0100
0010
0100
0001
0100
,  // measure 33
1000
0010
0001
0010
1000
0100
0010
0001
,  // measure 34
0100
0000
0010
0000
1000
0000
0000
0000
0001
0000
0000
0010
0000
0000
1000
0000
,  // measure 35
0000
0001
0000
0000
0100
0000
0000
1000
0000
0000
0010
0000
0000
0100
0000
0000
,  // measure 36
0010
1000
0001
0100
0010
0100
1000
0100
,  // measure 37
0001
0010
1000
0010
0001
0100
0010
1000
,  // measure 38
0100
0000
0010
0000
0001
0000
0000
0000
1000
0000
0000
0010
0000
0000
0001
0000
,  // measure 39
0000
1000
0000
0000
0100
0000
0000
0001
0000
0000
0010
0000
0000
0100
0000
0000
,  // measure 40
0010
0001
2000
0000
3020
0000
0032
0000
,  // measure 41
0103
1000
0002
0000
0023
0000
2030
0000
,  // measure 42
3100
0001
0010
0100
0010
1000
0010
0001
,  // measure 43
1000
0001
0100
0010
0100
1000
0100
0001
,  // measure 44
1000
0001
0010
0100
1000
0010
0100
0001
,  // measure 45
1000
2002
0000
0000
,  // measure 46
3003
0000
0011
0000
1100
0000
1000
0001
,  // measure 47
0100
1000
0000
0110
0000
1001
0000
1000
,  // measure 48
0001
0010
0100
0000
1001
0000
1000
0100
,  // measure 49
0010
0001
0000
1100
0000
0011
0000
0001
,  // measure 50
1000
0000
1010
0000
0101
0000
0001
1000
,  // measure 51
0100
0001
0000
0110
0000
1001
0000
0001
,  // measure 52
1000
0010
0100
0000
1001
0000
0001
0100
,  // measure 53
1000
0100
0010
1000
0100
0001
0100
0010
,  // measure 54
0001
0000
0201
0000
0310
1000
0002
0000
,  // measure 55
0013
0000
1200
0000
0310
0001
2000
0000
,  // measure 56
3010
0000
0000
0000
0110
0000
0000
0000
1001
0000
0000
0000
0001
0000
0000
1000
,  // measure 57
0000
0000
0010
0000
0100
0000
0000
0001
0000
0000
1000
0000
0000
0000
1001
0000
,  // measure 58
0000
0001
1000
0100
0001
0100
1000
0010
,  // measure 59
0100
0001
1000
0001
0100
1000
0100
0001
,  // measure 60
0010
0100
1000
0010
0100
0001
0010
0100
,  // measure 61
1000
0001
0200
0000
0010
0000
0020
0000
,  // measure 62
0330
2001
3200
0320
,  // measure 63
0031
1000
0002
0000
0203
0000
0320
0000
,  // measure 64
1030
0001
1000
0100
0010
1000
0010
0100
,  // measure 65
1000
0001
0100
0010
0001
0010
0100
0001
,  // measure 66
1000
2200
3300
0022
,  // measure 67
0033
0202
0303
2020
,  // measure 68
3030
0000
1000
0010
0001
1000
0100
0001
,  // measure 69
1000
0001
0010
1000
0001
0100
1000
0001
,  // measure 70
1000
0000
0110
0000
0000
1001
0000
0011
,  // measure 71
0000
1100
0000
1001
0000
0001
0100
0010
,  // measure 72
1000
2002
0000
0000
,  // measure 73
0000
0000
0000
0000
,  // measure 74
0000
3003
0000
0000
;

//---------------dance-single - Daff_4K----------------
#NOTES:
     dance-single:
     Daff_4K:
     Hard:
     15:
     0.648970,0.687203,0.455050,0.293083,0.443481,589.000000,530.000000,59.000000,38.000000,0.000000,0.000000,0.648970,0.687203,0.455050,0.293083,0.443481,589.000000,530.000000,59.000000,38.000000,0.000000,0.000000:
// measure 0
0000
0000
0000
0000
,  // measure 1
0000
0000
0000
0000
,  // measure 2
0000
0000
0000
0000
,  // measure 3
0000
0000
0000
0000
,  // measure 4
1010
0000
0000
0010
0001
0000
0000
0001
0100
0000
1000
0000
0010
0100
0001
0000
,  // measure 5
0011
0000
0000
0010
1000
0000
0000
1000
0100
0000
0001
0000
0010
0100
1000
0000
,  // measure 6
1010
0000
0000
0010
0001
0000
0000
0001
1000
0000
0100
0000
0010
1000
0001
0000
,  // measure 7
0011
0000
0000
0010
1000
0000
0000
1000
0001
0000
0100
0000
0010
0002
2000
0000
,  // measure 8
0000
3003
0000
0000
0000
0000
0000
0000
0000
0000
0000
0000
0000
0000
0000
0000
1010
0000
0000
0000
0000
0000
0000
0000
0000
0000
0000
0000
0000
0000
0000
0000
0101
0000
0000
0000
0000
0000
0000
0000
0000
0000
0000
0000
0001
0000
0000
0000
0010
0000
0000
0000
0000
0000
0000
0000
1000
0000
0000
0000
0000
0000
0000
0000
,  // measure 9
0010
0000
0000
0000
0001
0000
0100
0000
0010
0000
1000
0001
1000
0000
0001
0000
,  // measure 10
0010
0000
0000
0000
0110
0000
0000
0000
1001
0000
0000
1000
0010
0000
0001
0000
,  // measure 11
0010
0000
0000
0000
0100
0000
0001
0000
1000
0000
0100
0010
0100
0000
0010
0000
,  // measure 12
0001
0000
0000
0000
1000
0000
0010
0000
0100
0000
0001
1000
0001
0000
1000
0000
,  // measure 13
0100
0000
0000
0000
0010
0000
0001
0000
1000
0000
0010
0100
0010
0000
0100
0000
,  // measure 14
0001
0000
0000
0000
0010
0000
0100
0000
1000
0000
0001
0100
0001
0000
0100
0000
,  // measure 15
0010
0000
0000
0000
1000
0000
0100
0000
0001
0000
0100
0010
0000
0100
1000
0000
,  // measure 16
0001
0000
0000
0000
0011
0000
0000
0000
1100
0000
0000
1000
0010
0000
0001
0000
,  // measure 17
0010
0000
0000
0000
1000
0000
0100
0000
0010
0000
0001
1000
0001
0000
1000
0000
,  // measure 18
0010
0000
0000
0000
0110
0000
0000
0000
1001
0000
0000
0001
0010
0000
1000
0000
,  // measure 19
0010
0000
0000
0000
0100
0000
1000
0000
0001
0000
0100
0010
0100
0000
0010
0000
,  // measure 20
1000
0000
0000
0000
0001
0000
0010
0000
0100
0000
1000
0001
1000
0000
0001
0000
,  // measure 21
0100
0000
0000
0000
0010
0000
1000
0000
0001
0000
0010
0100
0010
0000
0100
0000
,  // measure 22
1000
0000
0000
0000
0010
0000
0100
0000
0001
0000
1000
0100
1000
0000
0100
0000
,  // measure 23
0010
0000
0000
0000
0001
0100
0001
0000
0100
0000
0010
1000
0000
0010
1000
0000
,  // measure 24
0001
0000
0000
0000
0021
0000
0000
0000
1030
0000
0000
0010
0100
0000
1000
0000
,  // measure 25
0001
0000
0000
0001
1000
0000
0010
0000
0100
0000
0001
0100
0001
0000
1000
0000
,  // measure 26
0100
0000
0000
0000
0012
0000
0000
0000
1003
0000
0000
0001
0100
0000
1000
0000
,  // measure 27
0100
0000
0000
0100
0010
0000
1000
0000
0001
0000
0010
0100
0010
0000
0100
0000
,  // measure 28
1000
0000
0000
0000
1020
0000
0000
0000
0031
0000
0000
0010
0100
0000
0001
0000
,  // measure 29
1000
0000
0000
1000
0001
0000
0010
0000
0100
0000
1000
0100
1000
0000
0001
0000
,  // measure 30
0100
0000
0000
0000
2010
0000
0000
0000
3001
0000
0000
1000
0100
0000
0001
0000
,  // measure 31
0100
0000
0000
0100
0010
0000
0001
0000
1000
0000
0010
0100
0010
0000
0100
0000
,  // measure 32
0001
0000
0000
0000
1000
0100
1000
0000
0100
0000
0001
0000
1000
0000
0010
0000
,  // measure 33
0001
0000
0100
0000
0010
0100
0010
0000
1000
0000
0100
0000
0001
0000
0100
0000
,  // measure 34
0010
0001
0000
0001
1000
0000
0010
0000
0210
0000
0000
0301
0000
0000
2001
0000
,  // measure 35
0000
3100
0000
0000
0120
0000
0000
0031
0000
0000
2001
0000
0000
3010
0000
0000
,  // measure 36
1000
0001
0000
1000
0001
0100
0001
0000
0100
0000
1000
0000
0001
0000
0010
0000
,  // measure 37
1000
0000
0100
0000
0010
0100
0010
0000
0001
0000
0100
0000
1000
0000
0100
0000
,  // measure 38
0010
1000
0000
1000
0001
0000
0010
0000
0210
0000
0000
1300
0000
0000
1002
0000
,  // measure 39
0000
0103
0000
0000
0120
0000
0000
1030
0000
0000
1002
0000
0000
0013
0000
0000
,  // measure 40
0001
1000
0000
0001
2000
0000
0010
0000
3020
0000
0130
0001
2000
0000
0100
0000
,  // measure 41
3100
0001
0100
1000
0002
0000
0010
0000
0023
0000
0130
1000
0002
0000
0100
0000
,  // measure 42
0103
1000
0100
0001
1000
0000
0100
0000
0010
0000
1000
0000
0001
0000
0100
0000
,  // measure 43
1000
0001
1000
0000
0001
0000
0100
0000
0010
0000
0001
0000
1000
0000
0100
0000
,  // measure 44
0001
1000
0001
0000
1000
0000
0100
0000
0010
0000
0001
0000
0100
0000
0010
0000
,  // measure 45
1000
0001
1000
0002
2000
0000
0000
0000
0000
0000
0000
0000
0000
0000
0000
0000
,  // measure 46
3003
0000
0000
0000
0010
0000
0100
0000
1001
0000
0000
1000
0100
0000
0001
0000
,  // measure 47
0100
0000
0110
0000
0000
0000
1001
0000
0000
0000
1010
0000
0000
0010
0100
0000
,  // measure 48
0001
0000
1000
0000
0100
0000
0010
0000
1001
0000
0000
0001
0100
0000
0010
0000
,  // measure 49
1000
0000
1100
0000
0000
0000
0011
0000
0000
0000
1001
0000
0000
0000
1000
0010
,  // measure 50
1000
0000
0001
0000
0010
0000
0100
0000
1001
0000
0000
0001
0100
0000
1000
0000
,  // measure 51
0100
0000
0110
0000
0000
0000
1001
0000
0000
0000
0011
0000
0000
0010
0100
0000
,  // measure 52
1000
0000
0001
0000
0100
0000
0010
0000
1001
0000
0000
1000
0100
0000
0010
0000
,  // measure 53
0001
1000
0000
0001
1000
0000
0010
0000
0100
0000
0001
0000
0010
0100
0010
0000
,  // measure 54
0100
1000
1020
0000
0130
0001
2001
0000
,  // measure 55
3100
0010
0021
0000
0130
1000
1002
0000
,  // measure 56
0103
0000
0010
0000
0110
0000
0000
0000
1001
0000
0000
0000
1100
0000
0000
0011
,  // measure 57
0000
0000
1001
0000
0101
0000
0000
1010
0000
0000
1001
0000
0000
0000
0110
0000
,  // measure 58
0000
0000
1001
0000
1000
0100
1000
0000
0001
0100
0001
0000
1000
0010
1000
0000
,  // measure 59
0100
0000
0010
0000
0001
0100
0001
0000
1000
0100
1000
0000
0001
0010
0001
0000
,  // measure 60
0100
0000
0010
0000
1000
0100
1000
0000
0001
0100
0001
0000
1000
0010
1000
0000
,  // measure 61
0001
0010
0001
0000
0200
0000
0000
0000
0010
0000
0000
0000
0020
0000
0000
0000
,  // measure 62
0330
2001
3200
0302
,  // measure 63
1003
0010
0002
0000
0203
0000
2300
0000
,  // measure 64
3100
0000
0000
0010
0000
0000
0100
0000
0000
0010
0000
0000
1000
0000
0000
0000
0100
0000
0000
0000
0010
0000
0000
0000
0001
0000
0000
0000
1000
0000
0000
0000
0000
0000
0000
0000
0001
0000
0000
0000
0100
0000
0000
0000
0010
0000
0000
0000
,  // measure 65
1000
0001
0000
1000
0010
0100
0001
1000
0000
0001
0010
0100
,  // measure 66
1000
0001
0000
2001
0000
0000
3100
0000
0000
0012
0000
0000
,  // measure 67
1003
0000
0000
0000
0110
0000
0000
0000
1001
0000
0000
0000
1000
0000
0010
0100
,  // measure 68
0010
0000
0100
0000
0001
0000
0010
0000
1000
0000
0010
0001
0010
0000
0001
0000
,  // measure 69
0100
0000
0010
0000
1000
0000
0010
0000
0001
0000
0010
1000
0010
0000
1000
0000
,  // measure 70
0100
0000
0010
0000
0001
1000
0001
0000
1000
0000
0010
0100
0010
0000
0100
0000
,  // measure 71
0001
0000
0011
0000
0000
0000
1100
0000
0000
0000
1000
0001
1000
0000
0001
0000
,  // measure 72
0100
0010
2002
0000
0000
0000
0000
0000
,  // measure 73
0000
0000
0000
0000
,  // measure 74
0000
3003
0000
0000
;

//---------------dance-single - Daff_4K----------------
#NOTES:
     dance-single:
     Daff_4K:
     Challenge:
     16:
     0.712875,0.801737,0.385636,0.424199,0.620874,647.000000,597.000000,50.000000,55.000000,0.000000,0.000000,0.712875,0.801737,0.385636,0.424199,0.620874,647.000000,597.000000,50.000000,55.000000,0.000000,0.000000:
// measure 0
0000
0000
0000
0000
,  // measure 1
0000
0000
0000
0000
,  // measure 2
0000
0000
0000
0000
,  // measure 3
0000
0000
0000
0000
,  // measure 4
2001
0000
0000
3010
0200
0000
0000
0310
0002
0000
0000
0013
1000
0000
0001
0010
,  // measure 5
0200
0000
0000
1300
0002
0000
0000
1003
0020
0000
0000
0130
0001
0010
0100
1000
,  // measure 6
0002
0000
0000
0013
0200
0000
0000
0310
2000
0000
0000
3010
0001
0000
1000
0010
,  // measure 7
0200
0000
0000
0301
2000
0000
0000
3001
0020
0000
0000
0130
1000
0000
2002
0000
,  // measure 8
0000
3003
0000
0000
0000
0000
0000
0000
0000
0000
0000
0000
0000
0000
0000
0000
0001
0000
0000
0000
0000
0000
0000
0000
0100
0000
0000
0000
0000
0000
0000
0000
1000
0000
0000
0000
0000
0000
0000
0000
0100
0000
0000
0000
0010
0000
0000
0000
0100
0000
0000
0000
0000
0000
0000
0000
0010
0000
0000
0000
0000
0000
0000
0000
,  // measure 9
1000
0000
0000
0000
0100
0000
0001
0000
0100
0000
0010
0001
0010
0000
0001
0000
,  // measure 10
0100
0000
0010
0000
1000
0000
0100
0000
0010
0000
0001
1000
0001
0000
1000
0000
,  // measure 11
0010
0000
0000
0000
0100
0000
0001
0000
0010
0000
0100
0010
0100
0000
1000
0000
,  // measure 12
0010
0000
0001
0000
0010
0100
0010
0000
1000
0000
0100
0010
0100
0000
0001
0000
,  // measure 13
0100
0000
0000
0000
1000
0010
1000
0000
0001
0000
1000
0100
1000
0000
0010
0000
,  // measure 14
0100
0000
0001
0000
1000
0100
1000
0000
0100
0000
0010
0001
0010
0000
0001
0000
,  // measure 15
0100
0000
0000
0000
1000
0000
0100
0000
0001
0000
0010
0100
0000
0010
0100
0000
,  // measure 16
1000
0000
0010
0000
1000
0000
0100
0000
0001
0000
0100
0010
0100
0000
0010
0000
,  // measure 17
0001
0000
0000
0000
0100
0000
1000
0000
0100
0000
0010
1000
0010
0000
1000
0000
,  // measure 18
0100
0000
0010
0000
0001
0000
0100
0000
0010
0000
1000
0001
1000
0000
0001
0000
,  // measure 19
0010
0000
0000
0000
0100
0000
1000
0000
0010
0000
0100
0010
0100
0000
0001
0000
,  // measure 20
0010
0000
1000
0000
0010
0100
0010
0000
0001
0000
0100
0010
0100
0000
1000
0000
,  // measure 21
0100
0000
0000
0000
0001
0010
0001
0000
1000
0000
0001
0100
0001
0000
0010
0000
,  // measure 22
0100
0000
1000
0000
0001
0100
0001
0000
0100
0000
0010
1000
0010
0000
1000
0000
,  // measure 23
0100
0000
0000
0000
0001
0000
0100
0000
1000
0000
0010
0100
0000
0010
0100
0000
,  // measure 24
0001
0000
1000
0000
1100
0000
0000
0000
0011
0000
0000
0001
0100
0000
1000
0000
,  // measure 25
0100
0000
0010
0000
1000
0001
1000
0000
0001
0000
0010
0000
1000
0000
0010
0000
,  // measure 26
0110
0000
0000
0000
1001
0000
0000
0000
0101
0000
0000
0100
1000
0000
0001
0000
,  // measure 27
0010
0000
0100
0000
0001
1000
0001
0000
1000
0000
0100
0000
0010
0000
0001
0000
,  // measure 28
1001
0000
0000
0000
0101
0000
0000
0000
1010
0000
0000
1000
0100
0000
0001
0000
,  // measure 29
0100
0000
0010
0000
0001
1000
0001
0000
1000
0000
0010
0000
0001
0000
0010
0000
,  // measure 30
0110
0000
0000
0000
1001
0000
0000
0000
1100
0000
0000
0100
0001
0000
1000
0000
,  // measure 31
0010
0000
0100
0000
1000
0001
1000
0000
0001
0000
0100
0000
0010
0000
1000
0000
,  // measure 32
1001
0000
0000
0000
0001
0010
0001
0000
0100
0000
0010
0000
1000
0100
1000
0000
,  // measure 33
0010
0000
0100
0000
0001
1000
0001
0000
1000
0000
0100
0000
0001
0000
0100
0000
,  // measure 34
1000
0010
0000
0010
0100
0000
0001
0000
2001
0000
0000
3100
0000
0000
0021
0000
,  // measure 35
0000
0130
0000
0000
1002
0000
0000
0103
0000
0000
2010
0000
0000
3001
0000
0000
,  // measure 36
1000
0001
0000
0001
1000
0010
1000
0000
0100
0000
0010
0000
0001
0100
0001
0000
,  // measure 37
0010
0000
0100
0000
1000
0001
1000
0000
0001
0000
0100
0000
1000
0000
0100
0000
,  // measure 38
0001
0010
0000
0010
0100
0000
1000
0000
1002
0000
0000
0103
0000
0000
1020
0000
,  // measure 39
0000
0130
0000
0000
2001
0000
0000
3100
0000
0000
0012
0000
0000
1003
0000
0000
,  // measure 40
0001
1000
0001
1000
0002
0000
0103
0000
0120
0000
1030
0001
0020
0000
0130
1000
,  // measure 41
0010
0000
0000
0100
0000
0000
0001
0000
2000
0000
0000
0000
3100
0000
0000
0000
0120
0000
0000
0000
0031
0000
1000
0000
0020
0000
0000
0000
0130
0000
0001
0000
,  // measure 42
0010
0000
0100
0010
0100
0000
1000
0000
0001
0000
0100
0000
0001
0000
0000
0000
0100
0000
0000
0000
0010
0000
1000
0000
0010
0000
0000
0000
1000
0000
0000
0000
,  // measure 43
0001
0010
0001
0000
1000
0100
1000
0000
0100
0000
0010
0001
0010
0000
0001
0000
,  // measure 44
1000
0010
1000
0000
0001
0010
0001
0000
1000
0100
1000
0000
0001
0100
0001
0000
,  // measure 45
0010
0100
2002
0000
0000
0000
0000
0000
,  // measure 46
3003
0000
0000
0000
0010
0100
0010
0000
1001
0000
0000
1000
0100
0000
0001
0000
,  // measure 47
0100
0000
0020
0001
0000
0000
0032
1000
0000
0000
2003
0010
0000
0000
3010
0000
,  // measure 48
0001
0000
0010
0000
0100
0010
0100
0000
1001
0000
0000
0001
0010
0000
1000
0000
,  // measure 49
0010
0000
0002
0100
0000
0000
0203
0010
0000
0000
0320
1000
0000
0000
1030
0000
,  // measure 50
0001
0000
0010
0100
0010
0100
0010
0000
1001
0000
0000
0001
0100
0000
1000
0000
,  // measure 51
0100
0000
0020
1000
0000
0000
2030
0001
0000
0000
3002
0010
0000
0000
0013
0000
,  // measure 52
1000
0000
0010
0000
0100
0010
0100
0000
1001
0000
0000
1000
0010
0000
0001
0000
,  // measure 53
0010
0100
0000
0010
0100
0000
0001
0000
1000
0000
0100
0000
0010
0100
0010
0000
,  // measure 54
0001
0000
1000
0000
1010
0000
0000
0010
0100
0000
0001
0000
0011
0000
0000
0010
,  // measure 55
0100
0000
1000
0000
1001
0000
0000
0001
0100
0000
0010
0000
1010
0000
0000
1000
,  // measure 56
0100
0000
0010
0000
0011
0000
0000
0000
1100
0000
0000
0000
1010
0000
0000
0101
,  // measure 57
0000
0000
1001
0000
0011
0000
0000
1100
0000
0000
1001
0000
0000
0000
0110
0000
,  // measure 58
0000
0000
1001
0000
0001
0100
0001
0000
1000
0010
1000
0000
0001
0010
0100
0000
,  // measure 59
1000
0000
0001
0000
1000
0100
1000
0000
0001
0010
0001
0000
1000
0010
0100
0000
,  // measure 60
0001
0000
1000
0000
0100
1000
0100
0000
0010
0001
0010
0000
0001
0100
0001
0100
,  // measure 61
0010
1000
0010
2000
0002
0000
0000
0000
3003
0000
0000
0000
0220
0000
0000
0000
,  // measure 62
0330
0000
0000
0000
0000
0000
0000
0000
1002
0000
0000
0000
0000
0000
0000
0000
0023
0000
0000
0100
0000
0000
0000
0000
2030
0000
0000
0000
0000
0000
0000
0000
,  // measure 63
3200
0302
2003
0000
3020
0000
0032
0000
,  // measure 64
0103
0000
0000
0000
0000
0000
0000
0000
0000
0000
0000
0000
1000
0000
0000
0000
0000
0000
0100
0000
0000
0000
0000
0000
1000
0000
0000
0000
0000
0000
0000
0000
0000
0000
0000
0000
0001
0000
0000
0000
0000
0000
0000
0000
0000
0000
0000
0000
1000
0000
0000
0000
0000
0000
0000
0000
0000
0000
0000
0000
0000
0000
0000
0000
0010
0000
0000
0000
0000
0000
0000
0000
0000
0000
0000
0000
0000
0000
0000
0000
0001
0000
0000
0000
0000
0000
0000
0000
0000
0000
0000
0000
0000
0000
0000
0000
0010
0000
0000
0000
0000
0000
0000
0000
0000
0000
0000
0000
0000
0000
0000
0000
0100
0000
0000
0000
0000
0000
0000
0000
0000
0000
0000
0000
0000
0000
0000
0000
0010
0000
0000
0000
0000
0000
0000
0000
0000
0000
0000
0000
0000
0000
0000
0000
1000
0000
0000
0000
0000
0000
0000
0000
0000
0000
0000
0000
0000
0000
0000
0000
0001
0000
0000
0000
0000
0000
0000
0000
0000
0000
0000
0000
0000
0000
0000
0000
0010
0000
0000
0000
0000
0000
0000
0000
0000
0000
0000
0000
0000
0000
0000
0000
,  // measure 65
1000
0010
0100
0010
0001
0100
1000
0100
0001
1000
0100
0001
,  // measure 66
0100
0000
1000
0000
0001
0000
0200
0000
0000
0000
0000
0000
0310
0000
0000
1000
0000
0000
0200
0000
0000
0000
0000
0000
,  // measure 67
0310
0000
0001
0000
0100
0010
0100
0000
0010
1000
0001
1000
0001
0000
0010
0000
,  // measure 68
0100
0000
1000
0000
0001
0100
0001
0000
1000
0000
0100
0010
0100
0000
1000
0000
,  // measure 69
0001
0100
0010
0000
1000
0100
1000
0000
0001
0000
0100
0010
0100
0000
0001
0000
,  // measure 70
1000
0100
0010
0000
0011
0000
0001
0100
0010
0000
1010
0000
1000
0100
0010
0000
,  // measure 71
0001
0000
0110
0000
1000
0000
0110
0000
0001
0000
1000
0000
0110
0000
0001
1000
,  // measure 72
0001
1000
0010
0200
0020
0000
0000
0000
0000
0000
0000
0000
0000
0000
0000
0000
,  // measure 73
0000
0000
0000
0000
,  // measure 74
0000
0330
0000
0000
;
