#TITLE:VALKYRIE ASSAULT;
#SUBTITLE:;
#ARTIST:BEMANI Sound Team "SYUNN";
#TITLETRANSLIT:;
#SUBTITLETRANSLIT:;
#ARTISTTRANSLIT:SYUNN;
#GENRE:;
#CREDIT:;
#MUSIC:VALKYRIE ASSAULT.ogg;
#BANNER:VALKYRIE ASSAULT.png;
#BACKGROUND:VALKYRIE ASSAULT-bg.png;
#CDTITLE:./CDTITLES/SOUND VOLTEX.PNG;
#SAMPLESTART:33.333;
#SAMPLELENGTH:15.000;
#SELECTABLE:YES;
#OFFSET:0.000;
#BPMS:0.000=180.000;
#STOPS:;
#BGCHANGES:;
#FGCHANGES:;

//--------------- dance-single - t7r ----------------
#NOTES:
     dance-single:
     t7r:
     Beginner:
     5:
     0,0,0,0,0:
0000
0000
0000
0000
,
0000
0000
0000
0000
,
0000
0000
0000
0000
,
0000
0000
0000
0000
,
0000
0000
0000
0000
,
0000
0000
0000
0000
,
0000
0000
0000
0000
,
0000
0000
0000
0000
,
0000
0000
0000
0000
,
0010
0000
0000
0000
,
0010
0000
0000
0000
,
1000
0000
1000
0000
,
1000
0000
0000
0000
,
0001
0000
0000
0000
,
0001
0000
0000
0000
,
0010
0000
0010
0000
,
0010
0000
0000
0000
,
0001
0001
0001
0000
,
0000
1000
1000
0000
,
0001
0001
0001
0000
,
0100
0000
0100
0000
,
0010
0010
0010
0000
,
0000
0100
0100
0000
,
0010
0010
0010
0000
,
1000
0000
1000
0000
,
0001
0000
0001
0000
,
0010
0000
0010
0000
,
0100
0000
0100
0000
,
0001
0000
0001
0000
,
1000
0000
1000
0000
,
0010
0000
0010
0000
,
0100
0000
0100
0000
,
1000
0000
1000
0000
,
0001
0000
0000
0000
,
0000
0000
0000
0000
,
0000
0000
0000
0000
,
0000
0000
0000
0000
,
0010
0000
0000
0000
,
0000
0000
0000
0000
,
0001
0000
0000
0000
,
0001
0000
0000
0000
,
1000
0000
1000
1000
,
0000
0000
0001
0001
,
0000
0000
0100
0100
,
0000
0000
0010
0010
,
0010
0000
0010
0000
,
0100
0000
0100
0000
,
0001
0000
0001
0000
,
1000
0000
0000
0000
,
0010
0000
0000
0000
,
0000
0000
0000
0000
,
1000
0000
1000
1000
,
0000
1000
1000
0000
,
0001
0000
0001
0001
,
0000
0001
0001
0000
,
0010
0000
0010
0010
,
0000
0010
0010
0000
,
0100
0000
0100
0100
,
0000
0100
0100
0000
,
0010
0000
0010
0010
,
0000
0010
0010
0000
,
0001
0000
0001
0001
,
0000
0001
0001
0000
,
1000
0000
1000
0000
,
1000
0000
1000
0000
,
0010
0000
0000
0000
,
0000
0000
0000
0000
,
0100
0100
0100
0000
,
0100
0000
0100
0000
,
0010
0010
0010
0000
,
0010
0000
0010
0000
,
1000
1000
1000
0000
,
1000
0000
1000
0000
,
0001
0001
0001
0000
,
0001
0000
0001
0000
,
1000
1000
1000
0000
,
1000
0000
1000
0000
,
0010
0010
0010
0000
,
0010
0000
0010
0000
,
0100
0100
0100
0000
,
0100
0000
0100
0000
,
0001
0000
0000
0000
,
0000
0000
0000
0000
,
0000
0000
0000
0000
,
0000
0000
0000
0000
,
1000
0000
0000
0000
,
0000
0000
0000
0000
,
0010
0000
0000
0000
,
0100
0000
0100
0000
;

//--------------- dance-single - t7r ----------------
#NOTES:
     dance-single:
     t7r:
     Easy:
     9:
     0,0,0,0,0:
0000
0000
0000
0000
,
0000
0000
0000
0000
,
0000
0000
0000
0000
,
0000
0000
0000
0000
,
0000
0000
0000
0000
,
0000
0000
0000
0000
,
0000
0000
0000
0000
,
0000
0000
0000
0000
,
0000
0000
0000
0000
,
0010
0000
0100
0001
0100
0000
0001
0000
,
0010
0000
0100
1000
0100
0000
1000
0000
,
0001
0100
1000
0110
,
1001
0000
1000
0100
0010
0000
0001
0000
,
0100
0000
0010
1000
0010
0000
1000
0000
,
0100
0000
0010
0001
0010
0000
0001
0000
,
1000
0010
0001
0110
,
1001
0000
0001
0010
0100
0000
1000
0000
,
0001
0000
0010
0000
0001
0001
0000
0000
,
0000
1000
0000
1000
0100
0000
1000
0000
,
0001
0010
1000
0110
,
1001
0100
0010
1000
,
0001
0000
0100
0000
0001
0001
0000
0000
,
0000
1000
0000
1000
0010
0000
1000
0000
,
0001
0100
1000
0110
,
1001
0010
0100
1000
,
0001
0001
0001
0001
,
0010
0010
1000
1000
,
1000
1000
0100
0100
,
0100
0100
0010
0010
,
1000
1000
0010
0010
,
0001
0001
0001
0001
,
0100
0100
0100
0100
,
0010
0000
1000
0000
0001
1000
0010
0000
,
0210
0000
0001
0301
,
2000
0000
0100
3100
,
0020
0000
0001
0031
,
2000
0000
0010
3010
,
1000
0100
0010
0000
,
0002
0000
0103
0000
,
0001
0000
0010
0000
0100
0000
1000
0100
,
0000
1000
0100
0000
1000
0001
0000
0000
,
0210
0000
0001
0301
,
0020
0000
0100
1030
,
0002
0000
0100
0103
,
0020
0000
0100
0031
,
0010
0000
1000
0001
1000
0000
0001
0000
,
0010
0000
0001
1000
0001
0000
1000
0000
,
0001
0000
0100
0000
0001
0000
0000
0000
1000
0000
0000
0100
0000
0000
1000
0000
,
0002
0000
0000
0003
,
0020
0000
0000
0000
,
0000
0000
0000
0030
,
0110
0001
0001
0120
,
0000
1030
0001
0000
,
1000
0100
0010
0012
,
0000
1003
0012
0000
,
1003
0001
0100
0010
,
1000
1000
0001
1000
,
0001
0100
0100
1000
,
0100
0100
0010
1000
,
0001
0100
0010
2100
,
0000
3001
2100
0000
,
3001
0010
1000
0010
,
0100
0100
0010
0010
,
0001
0100
0010
2001
,
0000
3010
0200
0000
,
0301
0000
0010
0100
0010
0100
0010
0000
,
0001
1000
0001
1000
0001
1000
0001
0000
,
1001
0000
1000
0100
1000
0000
0001
0000
,
0100
0000
0001
0100
0001
0000
1000
0000
,
0001
0010
0011
0001
,
1000
0010
1010
0100
,
0010
1001
1100
1001
,
0001
0100
0001
0100
0001
0000
1000
0000
,
0001
0000
1000
0100
0010
0000
0010
0000
,
0001
0000
0001
0100
0010
0000
0010
0000
,
1000
0000
0010
1000
0100
0000
0100
0000
,
0010
0000
0001
0100
0010
0000
0010
0000
,
0100
0000
0001
0010
0100
0000
0110
0000
,
0010
0000
0001
1000
0010
0000
0110
0000
,
0010
0000
1000
0001
0100
0000
0101
0000
,
0100
0010
0100
0010
0100
0001
1000
0000
,
0002
0000
0010
1003
,
0020
0000
0100
0031
,
2000
0000
0001
3010
,
0200
0000
0010
1300
,
0001
0100
0000
0000
0010
0000
0010
0000
,
1000
0100
0000
0000
0010
0000
0010
0000
,
0001
1000
0000
0000
0010
0000
0010
0000
,
1000
0001
0000
0000
0010
0000
0100
0000
;

//--------------- dance-single - t7r ----------------
#NOTES:
     dance-single:
     t7r:
     Medium:
     13:
     0,0,0,0,0:
0000
0000
0000
0000
,
0000
0000
0000
0000
,
0000
0000
0000
0000
,
0000
0000
0000
0000
,
0000
0000
0000
0000
,
0000
0000
0000
0000
,
0000
0000
0000
0000
,
0000
0000
0000
0000
,
0000
0000
0000
0000
,
1000
0000
0001
0100
0010
1000
0100
0000
,
1000
0000
0001
0010
0100
0010
0001
0000
,
1000
0100
0001
1000
0010
0100
1000
0001
,
1000
0000
0000
0000
0001
0000
0100
0000
0000
0000
0100
0000
0010
0000
0000
0100
,
0001
0000
1000
0100
0010
0001
0100
0000
,
0001
0000
1000
0010
0100
0010
1000
0000
,
0001
0100
1000
0001
0010
0100
0001
1000
,
0001
0000
1000
0100
0000
0100
0010
0100
,
1000
0100
0001
0100
0010
0001
0000
1000
,
0000
0001
0100
1000
0100
0010
1000
0000
,
0001
0010
1000
0001
0100
0010
0001
1000
,
0001
0000
1000
0000
0100
0000
0010
0000
0001
0000
0100
0000
0010
0000
0000
1000
,
0001
0010
1000
0010
0100
1000
0000
0001
,
0000
1000
0010
0001
0010
0100
0001
0000
,
1000
0100
0001
1000
0010
0100
1000
0001
,
1000
0000
0001
0000
0010
0000
0100
0000
1000
0000
0010
0000
0100
0000
0000
0001
,
1000
0000
0000
1000
0100
0000
0000
0000
0010
0000
0000
0000
0011
0000
0000
0000
,
0001
0000
0000
0001
0100
0000
0000
0000
0010
0000
0000
0000
1010
0000
0000
0000
,
1000
0000
0000
1000
0001
0000
0000
0000
0010
0000
0000
0000
0110
0000
0000
0000
,
0010
0000
0000
0010
0001
0000
0100
0000
0000
0000
0100
0000
0010
0000
0000
1000
,
0001
0000
0000
0001
0010
0000
0000
0000
0100
0000
0000
0000
1100
0000
0000
0000
,
1000
0000
0000
1000
0010
0000
0000
0000
0100
0000
0000
0000
0101
0000
0000
0000
,
0001
0000
0000
0010
0100
0000
0000
0000
0010
0000
0000
0000
1001
0000
0000
0000
,
1000
0000
0000
0010
0100
0000
0001
0000
0000
0000
0001
0000
1000
0000
0000
0000
,
0210
0000
0001
0301
,
1000
0200
0000
0000
0010
0000
0310
0000
,
0001
0200
0000
0000
0010
0000
0310
0000
,
1000
0001
0000
0001
0010
0100
1000
0000
,
0001
0100
0000
1000
0100
0000
0010
2000
,
0000
3001
0000
0000
1000
0100
1000
0000
,
0001
0010
0100
0000
1000
0100
0001
1000
,
0010
0001
1000
0100
0010
0001
1001
0000
,
0110
0000
0001
1000
0010
0000
1000
0000
,
0100
0000
1000
0001
0010
0000
0001
0000
,
0100
0000
0010
1000
0100
0000
0010
0000
,
0100
0000
0010
0001
0100
0000
0001
0000
,
1000
0100
1000
0100
0001
0100
0001
0100
,
1000
0010
1000
0010
0001
0010
0001
0010
,
1000
0000
0100
0000
0010
0000
0001
0000
1000
0000
0000
0001
0000
0000
0100
0000
,
0020
0000
0000
0000
0000
0000
0000
0000
0000
0000
0000
0000
0130
0010
0100
0000
,
0220
0000
0000
0000
,
0000
0330
1001
0000
,
2100
3001
1100
0102
,
1003
0000
0000
0000
0101
0000
0000
0000
1100
0000
0000
0100
0000
0000
0100
0000
,
0010
0001
0100
0010
1000
0000
0210
0000
,
0301
0110
2001
3010
,
1000
0000
0000
0100
0000
0000
1000
0000
0001
0000
1000
0000
0001
0000
0000
0000
0000
0000
0110
0000
0000
0000
0000
0000
,
0101
0000
0000
0000
0100
0000
0000
0000
0100
0000
0000
0000
0010
0000
0000
1000
0000
0000
0001
0000
0000
0100
0000
0000
,
0001
0000
0010
0000
1000
0000
0010
0000
0001
0000
0100
0000
0010
0000
0000
0010
,
1000
0000
0000
1000
0100
0000
0000
0100
0010
0000
0000
0010
0001
0000
0000
0001
,
2000
3010
0011
2010
,
3001
0011
2010
3001
,
1000
0000
0100
0000
0001
0000
0100
0000
0010
0000
0001
0000
,
1000
0000
1000
0000
1000
0000
0001
0000
0001
0000
0001
0000
,
0100
0000
0000
0010
0000
1000
0100
0000
0000
0210
0000
0000
,
0000
0000
1300
0001
0020
0000
0031
0000
,
1000
0100
1000
0100
0001
0100
0001
0100
,
1000
1000
0001
0001
1000
1000
0001
0001
,
1000
0000
0010
1000
0100
1000
0010
1000
,
0100
1000
0010
1000
0001
1000
0010
1000
,
0001
0001
0010
0000
0101
0000
0110
0000
,
1010
1001
0011
1001
,
0100
1100
0110
0011
,
0100
0100
0010
0010
1000
1000
0001
0001
,
1000
0000
0001
0010
1000
0010
0001
0010
,
1000
0010
0001
0010
1000
0010
0001
0100
,
0010
0000
1000
0100
0001
0100
1000
0100
,
0001
0100
1000
0100
0001
0100
1000
0100
,
0010
0010
0001
0100
0010
0001
1000
0100
,
0010
1000
0001
0100
0010
0001
1000
0100
,
0010
0000
1000
0100
0001
1000
0010
0001
,
1000
1000
0001
0001
0100
0100
0010
0010
,
1000
0200
0000
0000
0001
0000
0310
0000
,
0001
0200
0000
0000
1000
0000
0310
0000
,
0100
0002
0000
0000
0010
0000
1003
0000
,
0001
0010
0000
0100
1000
0001
1000
0010
,
0100
0001
0000
0000
0001
0000
1000
0000
,
0100
1000
0000
1000
0100
1000
0010
0000
,
1000
0001
0000
0001
0010
0000
0100
0000
,
0010
0001
0000
0001
0100
0010
1000
0001
;

//--------------- dance-single - t7r ----------------
#NOTES:
     dance-single:
     t7r:
     Hard:
     16:
     0,0,0,0,0:
0000
0000
0000
0000
,
0000
0000
0000
0000
,
0000
0000
0000
0000
,
0000
0000
0000
0000
,
0000
0000
0000
0000
,
0000
0000
0000
0000
,
0000
0000
0000
0000
,
0000
0000
0000
0000
,
0000
0000
0000
0000
,
1000
0000
0010
0000
0100
0000
0010
1000
0010
0000
1000
0000
0001
0000
0000
0000
,
0010
0000
0001
0000
0100
0000
0001
0010
0100
0000
1000
0000
0001
0000
0000
0000
,
1000
0000
0100
0000
0010
0000
0100
1000
0100
0000
1000
0000
0001
0100
0000
0100
,
0001
0000
1000
0000
0010
0000
1000
0001
1000
0000
0001
0000
0010
0000
0000
0010
,
0001
0000
0100
0000
0010
0000
0100
0001
0100
0000
0001
0000
1000
0000
0000
0000
,
0100
0000
1000
0000
0010
0000
1000
0100
0010
0000
0001
0000
1000
0000
0000
0000
,
0001
0000
0010
0000
0100
0000
0010
0001
0010
0000
0001
0000
1000
0010
0000
0010
,
1000
0000
0001
0000
0100
0000
0001
1000
0001
0000
1000
0000
0100
0010
0100
0000
,
1000
0100
0010
1000
0010
0001
0000
0100
,
0000
0000
0100
0000
0001
0000
0010
0000
0100
0000
1000
0001
0010
0000
0001
0000
,
1000
0100
1000
0100
1000
0000
0001
0000
0100
0000
0010
0000
0001
0010
0000
0010
,
1000
0000
0001
0000
0010
0000
1000
0000
0010
0000
0001
0000
0100
0000
0000
0100
,
0001
0010
0100
0001
0100
1000
0000
0010
,
0000
0000
0010
0000
1000
0000
0100
0000
0010
0000
0001
1000
0100
0000
1000
0000
,
0001
0010
0001
0010
0001
0000
1000
0000
0010
0000
0100
0000
1000
0100
0000
0100
,
0001
0000
1000
0000
0100
0000
0001
0000
0100
0000
1000
0000
0010
0100
0010
0000
,
1000
0000
0000
1000
0100
0000
0000
0100
0001
0000
0000
0001
1000
0000
0000
1000
,
0010
0000
0000
0010
0100
0000
0000
0100
1000
0000
0000
1000
0001
0000
0000
0001
,
1000
0000
0000
1000
0010
0000
0000
0010
0001
0000
0000
0001
1000
0000
0000
1000
,
0100
0000
0000
0100
0010
0000
0000
0010
1000
0000
0000
1000
0100
0000
0000
1000
,
0001
0000
0000
0001
0100
0000
0000
0100
1000
0000
0000
1000
0001
0000
0000
0001
,
0010
0000
0000
0010
0100
0000
0000
0100
0001
0000
0000
0001
1000
0000
0000
1000
,
0001
0000
0000
0001
0100
0000
0000
0100
0010
0000
0000
0010
0001
0000
0000
0001
,
1000
0000
0000
1000
0100
0000
0000
0100
0010
0000
0100
0000
0001
0000
0000
0000
,
2001
0000
0010
3010
,
1000
0200
0000
0000
0010
0000
0310
0000
,
0001
0200
0000
0000
0010
0000
0310
0000
,
0100
0000
0002
0000
0000
0000
1003
0000
0001
0100
0001
0000
1000
0000
0001
0000
,
1000
0200
0000
0310
1000
1000
0010
0002
,
0000
0103
0000
0000
0001
0100
1000
0100
,
0001
0000
0010
0000
0100
0000
0001
0000
0100
0000
1000
0100
1000
0000
0100
0000
,
0001
0100
0001
0000
0100
0000
0010
0000
0001
1000
0001
0000
1000
0000
0000
0000
,
1001
0001
0100
0000
0010
0000
1010
0000
,
1001
1000
0100
0010
0001
0010
1000
0000
,
0110
0010
0001
0100
0010
1000
0001
0000
,
0110
0010
1000
0100
0010
0001
1000
0000
,
0001
0001
0100
0100
1000
1000
0100
0100
,
0010
0010
1000
1000
0001
0001
0100
0100
,
0001
0000
0001
0000
0010
0000
0010
0000
0100
0000
0000
1000
0000
0000
0001
1000
,
0020
0000
0000
0000
0000
0000
0000
0000
0130
0001
1000
0000
0001
1000
0001
1000
,
0200
0000
0000
0000
,
0000
0000
0000
0000
0300
0000
0000
0000
0110
0000
0000
0000
1000
0001
1000
0001
,
1000
0000
0000
1000
0100
0000
0000
0000
0110
0000
0000
0000
0011
0000
0000
0000
,
1001
0000
0000
0001
0100
0000
0000
0000
1000
0000
0000
0110
0000
0000
1001
0000
,
0001
0000
0000
0010
0000
0000
0001
0000
0000
0010
0000
0000
0100
0000
0000
1000
0000
0000
0100
0000
0000
1000
0000
0000
0001
0000
0000
0000
0000
0000
0000
0000
0001
0000
0000
0000
0000
0000
0000
0000
1000
0000
0000
0000
0000
0000
0000
0000
,
0110
0000
0001
0000
0001
0000
0110
0000
1000
0000
1000
0000
,
0110
0000
0000
0000
0000
0000
0001
0000
0000
1000
0000
0000
0001
0000
0000
0000
0010
0000
0000
0000
0100
0000
0000
0000
1000
0000
0000
0000
0000
0000
0000
0000
0000
0000
0000
0000
1100
0000
0000
0000
0000
0000
0000
0000
0000
0000
0000
0000
,
1001
0000
0000
0000
0000
0000
0000
0000
0010
0000
0000
0000
0000
0000
0000
0000
0010
0000
0000
0000
0000
0000
0000
0000
0100
0000
0000
0010
0000
0000
0100
0000
0000
0010
0000
0000
0100
0000
0000
0001
0000
0000
1000
0000
0000
0001
0000
0000
,
1000
0000
0010
0000
1000
0100
0010
0001
1000
0000
0001
0000
1000
0000
0000
1000
,
0100
0000
0000
0100
0001
0000
0000
0001
1000
0000
0000
1000
0010
0000
0000
0010
,
0100
0000
0000
1000
0100
0000
0000
0001
0100
0000
0000
0000
0011
0000
0000
0000
,
1001
0000
0000
0100
1000
0000
0000
0100
0010
0000
0100
0000
0001
0000
1000
0000
,
0001
0000
0100
0000
1000
0000
0110
0000
0001
0000
0001
0000
,
1000
0000
0110
0000
1001
0000
0101
0000
1010
0000
1001
0000
,
1100
0000
0000
1000
0100
0001
0100
0000
0000
0210
0000
0000
,
0000
0000
1300
0000
0001
0100
0001
0100
0010
1000
0010
1000
0001
0000
0000
0000
,
1000
0100
1000
0000
0001
0100
0001
0000
1000
0010
1000
0000
0001
0010
0001
0000
,
1000
0000
1000
0000
0100
0000
0100
0000
0001
0000
0001
0000
0100
0010
0001
1000
,
0001
0000
0000
0000
0100
1000
0100
0000
0001
0100
0001
0000
0100
1000
0100
0000
,
0001
0100
0001
0000
0100
0010
1000
0000
0100
0010
0001
0000
0100
0000
0010
0000
,
1001
0000
0001
0000
1001
0000
0000
0000
1000
0100
1000
0000
0100
0001
0100
0000
,
1000
0100
1000
0000
0100
0001
0100
0000
1000
0001
0100
0000
0001
1000
0100
0000
,
0110
0000
0000
0000
0010
0001
0010
0000
1000
0010
0100
0000
0010
0001
0010
0000
,
1000
0000
1000
0000
0010
0000
0010
0000
0001
0000
0001
0000
0100
0010
1000
0001
,
1000
0000
0000
1000
0001
0100
0010
0000
1000
0100
0010
0000
0001
0100
0010
0000
,
1000
0100
0010
0000
0001
1000
0010
0000
1000
0001
0100
0000
0010
0000
0100
0000
,
0110
0000
0000
0000
0010
1000
0100
0000
0010
0001
0100
0000
0010
1000
0100
0000
,
0010
0001
0100
0000
0010
1000
0001
0000
0010
0001
1000
0000
0001
0000
0100
0000
,
0010
0000
0010
0000
0100
0001
0100
0000
1000
0100
0001
0000
0100
0001
0100
0000
,
1000
0100
0001
0000
0100
1000
0100
0000
0001
0100
0001
0000
0100
0000
0010
0000
,
1010
0000
0010
0000
1000
0100
1000
0000
0100
0001
0100
0000
1000
0010
0001
0000
,
0010
0000
0010
0000
1000
0000
1000
0000
0001
0010
0001
0010
0100
1000
0100
1000
,
0001
0200
0000
1300
0100
0001
1000
0001
,
0000
0020
0000
0130
1000
0100
0001
0000
,
0100
2000
0000
3010
0001
0010
1000
0001
,
0000
0020
0000
1030
0010
0001
1000
0001
,
0100
0020
0000
1030
0100
0010
0001
0100
,
0000
0002
0000
0103
0010
1000
0001
0010
,
0000
2000
0000
3010
0100
1000
0001
0100
,
0000
0020
0000
0031
0010
0100
0001
1000
;

//--------------- dance-single - t7r ----------------
#NOTES:
     dance-single:
     t7r:
     Challenge:
     19:
     0,0,0,0,0:
0000
0000
0000
0000
,
0000
0000
0000
0000
,
0000
0000
0000
0000
,
0000
0000
0000
0000
,
0000
0000
0000
0000
,
0000
0000
0000
0000
,
0000
0000
0000
0000
,
0000
0000
0000
0000
,
0000
0000
0000
0000
,
0001
0000
0010
0000
0100
0000
0010
0001
1000
0000
0001
0000
0100
0000
0001
0000
,
1000
0000
0100
0000
0010
0000
0100
1000
0001
0000
1000
0000
2001
0000
0000
0000
,
3001
0000
0100
0000
1000
0000
0001
0010
1000
0000
0001
0000
1000
0100
0001
0100
,
1000
0000
0010
0000
0100
0000
1000
0000
0100
0000
0010
0000
1000
0000
0001
0100
,
0010
0000
1000
0000
0100
0000
0001
0100
0010
0000
0001
0000
1000
0000
0001
0000
,
0100
0000
0001
0000
0010
0000
1000
0010
0100
0000
1000
0000
2100
0000
0000
0000
,
3010
0000
0100
0000
1000
0000
0001
0000
0010
0000
0100
0000
0001
0010
1000
0010
,
0001
0000
1000
0000
0100
0000
0001
0000
0100
0000
0010
0000
0001
0100
0010
1000
,
0001
0000
0100
0000
0100
0000
1000
0000
0001
0000
0100
0000
1000
0100
0010
0000
,
0100
0000
1000
0000
0100
0000
0100
0000
0001
0000
0100
0000
0110
0000
0001
1000
,
0001
0010
0001
0010
0100
1000
0100
1000
0010
0000
1000
0000
0001
0100
1000
0100
,
0001
0000
1000
0000
0100
0000
0100
0000
0001
0000
0100
0000
0110
0000
0000
0010
,
1000
0000
0010
0000
0010
0000
0001
0000
1000
0000
0010
0000
0001
0010
0100
0000
,
0010
0000
0001
0000
0010
0000
0010
0000
1000
0000
0010
0000
0110
0000
1000
0001
,
1000
0100
1000
0100
0010
0001
0010
0001
0100
0000
0001
0000
1000
0010
0001
0010
,
1000
0000
0001
0000
0010
0000
0010
0000
1000
0000
0110
0000
0001
0010
0100
0010
,
0001
0010
0100
1000
0001
0010
0100
1000
0001
0010
0100
1000
0001
0010
0100
1000
,
0001
0100
0010
1000
0001
0100
0010
1000
0001
0010
0100
1000
0001
0010
0100
1000
,
0001
0010
0100
1000
0001
0010
0100
1000
0001
0100
0010
1000
0001
0100
0010
1000
,
0001
0010
0100
1000
0001
0010
0100
1000
0001
0000
0100
0000
0001
0000
0000
0001
,
1000
0100
0010
0001
1000
0100
0010
0001
1000
0010
0100
0001
1000
0010
0100
0001
,
1000
0100
0010
0001
1000
0100
0010
0001
1000
0100
0010
0001
1000
0100
0010
0001
,
1000
0010
0100
0001
1000
0010
0100
0001
1000
0100
0010
0001
1000
0100
0010
0001
,
1000
0100
0001
0100
1000
0010
0110
0000
,
1010
0010
0000
1000
0100
0010
1000
0010
,
0100
2000
0000
3001
0100
0010
0001
0010
,
0100
0002
0000
1003
0100
0010
1000
0010
,
0001
0000
0001
0000
0100
1000
0100
0000
0001
0100
0010
1000
0001
0000
0010
0000
,
0001
0100
0100
1000
0100
0100
0001
0020
,
0000
0031
0000
0000
1000
0100
0100
0001
,
0100
0000
0100
0000
1000
0100
0010
0001
1000
0000
0001
1000
0010
0000
1000
0000
,
0001
0000
0100
0000
0001
0010
1000
0000
0010
0100
1000
0000
0110
0000
0000
0000
,
1001
0001
1000
0010
1010
0000
0101
0000
,
1100
1000
0001
0010
0011
0001
0100
0001
,
1001
0001
0100
0010
1010
0000
1001
0000
,
1100
1000
0100
0010
0001
0100
0210
0000
,
0301
0001
0010
0010
1000
1000
0100
0100
,
1000
1000
0010
0010
0001
0001
0100
0100
,
0001
0000
0001
0000
1000
0000
1000
0000
1001
0000
0000
0110
0000
0000
0001
1000
,
0001
0000
0000
0000
0100
0000
1000
0000
0001
0010
1000
0000
0001
0010
0100
1000
,
0001
0000
0000
0000
1000
0100
0001
0100
1000
0000
0100
0000
0110
0000
0001
1000
,
0001
0000
0000
0000
0000
0000
0100
0000
0000
0000
0000
0000
0010
0000
0000
0000
0000
0000
0001
0000
0000
0000
0000
0000
0010
0000
0000
1000
0000
0000
0010
0000
0000
1000
0000
0000
0001
0000
0100
0000
0010
0000
1000
0000
0000
0001
0000
0000
,
1000
0000
0001
0100
1000
0000
0001
0010
0100
0000
0000
0000
0110
0000
1000
0100
,
0001
0000
0000
0000
1000
0000
0010
0000
0100
0000
0000
0000
1000
0001
1000
0001
1000
0000
0000
0000
0000
0000
0110
0000
0000
0000
0000
0000
0101
0000
0000
0000
,
0001
0000
0000
0100
0000
0000
1000
0000
0000
0100
0000
0000
0001
0000
0000
0100
0000
0000
1000
0000
0000
0100
0000
0000
0010
0000
0000
0000
0000
0000
0000
0000
1010
0000
0000
0000
0000
0000
0000
0000
1001
0000
0000
0000
0000
0000
0000
0000
,
0011
0000
1001
0000
0110
0000
1001
0000
1100
0000
1001
0000
,
1000
0000
0000
0000
0100
0000
0000
0000
0001
0000
0000
0000
1000
0000
0000
0000
0010
0000
0000
0000
0100
0000
0000
0000
0110
0000
0000
0000
0000
0000
0100
0000
0000
1000
0000
0000
0001
0000
0000
0000
0000
0000
0000
0000
0000
0000
0000
0000
,
0101
0000
0000
0000
0000
0000
0000
0000
1010
0000
0000
0000
0000
0000
0000
0000
1001
0000
0000
0000
0000
0000
0000
0000
1000
0000
0000
0100
0000
0000
0001
0000
0000
0100
0000
0000
1000
0000
0000
0100
0000
0000
0001
0000
0000
0100
0000
0000
,
0010
0000
0000
0000
0000
0000
0001
0000
0000
0000
0000
0000
1000
0000
0000
0010
0000
0000
0100
0000
0000
0001
0000
0000
1000
0000
0100
0000
1000
0000
0100
0000
0010
0000
0001
0000
0010
0000
0000
0000
0000
0000
0001
0000
0000
0010
0000
0000
,
1000
0000
0000
0000
0010
0000
0100
0000
1000
0000
0000
0000
0001
0000
0100
0000
1000
0000
0000
0000
0000
0000
0000
0000
0100
0010
0100
0010
0100
0000
0000
0000
,
1001
0000
1000
0100
0001
0000
1000
0010
0100
0000
0000
0000
0110
0000
0001
0100
,
1000
0000
0000
0000
0001
0000
0010
0000
0100
0000
0000
0000
0001
1000
0001
1000
0002
0000
0000
0000
0203
0000
0000
0000
0320
0000
0000
0000
0031
0000
0000
0000
,
0011
0000
1010
0000
1100
0000
1001
0000
1001
0000
1100
0000
,
0110
0000
0011
0000
0011
0000
1001
0000
0101
0000
1010
0000
,
0110
0000
0000
0001
0010
1000
0010
0000
0000
0120
0000
0000
,
0000
0000
0031
0000
0100
0010
0100
0010
1000
0100
0010
0001
1000
0000
0000
0000
,
0001
0100
0001
0100
0010
1000
0010
1000
0001
0010
0001
0010
0100
1000
0100
1000
,
0001
0000
0001
0000
1000
0000
1000
0000
1001
0000
1001
0000
0001
0010
1000
0010
,
0001
0000
0000
0000
1000
0100
0010
0100
1000
0100
0010
0100
1000
0100
0010
0100
,
1000
0100
0010
0100
1000
0010
0100
0010
1000
0010
0100
0010
1000
0000
0100
0000
,
0010
0000
0110
0000
1001
0000
0000
0000
0110
0000
0000
0000
0101
0000
0001
0100
,
1000
0000
0001
0010
0100
0000
1000
0100
0001
0000
1000
0100
0010
0000
0001
0000
,
1001
0000
0000
0000
1100
0000
1000
0100
0001
0100
0010
1000
0010
0001
1000
0100
,
0010
0000
0010
0000
0110
0000
0110
0000
1001
0000
1001
0000
0001
0100
0010
1000
,
0002
0000
0000
0000
1003
0010
0001
0010
1000
0010
0001
0010
1000
0010
0001
0010
,
1000
0010
0001
0010
1000
0010
0001
0010
1000
0010
0001
0010
1000
0000
0100
0000
,
0120
0000
0000
0000
0031
0100
1000
0100
0001
0100
1000
0100
0001
0100
1000
0100
,
0001
0100
1000
0100
0001
0100
1000
0100
0001
0100
1000
0100
0010
0000
1000
0000
,
1001
0000
0001
0000
1000
0100
0010
1000
0001
0100
0010
0001
1000
0100
0010
1000
,
0001
0100
0010
0001
1000
0100
0010
1000
0001
0100
0010
0001
1000
0000
0100
0000
,
0210
0000
0000
0000
1300
0010
0100
1000
0001
0010
0100
0001
1000
0010
0100
0001
,
1000
0000
1000
0000
1001
0000
1001
0000
0001
0010
1000
0010
0001
0100
1000
0100
,
0001
0020
0000
1030
0010
0100
1000
0001
,
0000
0200
0000
0301
0010
1000
0010
0100
,
1000
0002
0000
0103
1000
0100
0010
1000
,
0001
0001
0100
1000
0001
0001
0010
1000
,
0001
0020
0000
0130
1000
0100
0001
0100
,
0000
2000
0000
3001
0010
1000
0010
0100
,
0001
0200
0000
0310
0001
1000
0010
0100
,
0001
0001
0100
1000
0001
0001
0010
1000
;
