#VERSION:0.83;
#TITLE:Underground;
#SUBTITLE:;
#ARTIST:Quintino;
#TITLETRANSLIT:;
#SUBTITLETRANSLIT:;
#ARTISTTRANSLIT:;
#GENRE:;
#ORIGIN:;
#CREDIT:;
#BANNER:Underground.png;
#BACKGROUND:Underground-bg.png;
#PREVIEWVID:;
#JACKET:Underground-jacket.png;
#CDIMAGE:;
#DISCIMAGE:;
#LYRICSPATH:;
#CDTITLE:;
#MUSIC:Underground.ogg;
#OFFSET:-0.020000;
#SAMPLESTART:30.507023;
#SAMPLELENGTH:14.068115;
#SELECTABLE:YES;
#DISPLAYBPM:64.000000:128.000000;
#BPMS:0.000=128.000,
60.000=256.000,
63.750=64.000,
64.000=128.000,
71.500=256.000,
72.000=128.000,
87.500=256.000,
88.000=128.000,
96.000=64.000,
104.000=128.000,
111.500=256.000,
112.000=128.000,
119.000=256.000,
120.000=128.000,
239.000=256.000,
239.750=64.000,
240.000=128.000,
247.500=256.000,
248.000=128.000,
263.500=256.000,
264.000=128.000,
272.000=64.000,
280.000=128.000,
287.500=256.000,
288.000=128.000,
295.000=64.000;
#STOPS:60.000=0.060,
60.250=0.060,
60.500=0.060,
60.750=0.060,
61.000=0.060,
61.250=0.060,
61.500=0.060,
61.750=0.060,
62.000=0.060,
62.250=0.060,
62.500=0.060,
62.750=0.060,
63.000=0.060,
71.500=0.030,
71.625=0.030,
71.750=0.030,
71.875=0.030,
87.500=0.030,
87.625=0.030,
87.750=0.030,
87.875=0.030,
111.500=0.030,
111.625=0.030,
111.750=0.030,
111.875=0.030,
119.500=0.240,
239.750=0.060,
247.500=0.030,
247.625=0.030,
247.750=0.030,
247.875=0.030,
263.500=0.030,
263.625=0.030,
263.750=0.030,
263.875=0.030,
287.500=0.030,
287.625=0.030,
287.750=0.030,
287.875=0.030;
#DELAYS:;
#WARPS:;
#TIMESIGNATURES:0.000=4=4;
#TICKCOUNTS:0.000=4;
#COMBOS:0.000=1;
#SPEEDS:0.000=1.000=0.000=0,
56.000=4.000=3.000=0,
60.000=1.000=0.000=0,
224.000=4.000=6.000=0,
232.000=1.000=0.000=0;
#SCROLLS:0.000=1.000;
#FAKES:;
#LABELS:0.000=Song Start;
#BGCHANGES:;
#KEYSOUNDS:;
#ATTACKS:
;

//---------------dance-single - ----------------
#NOTEDATA:;
#CHARTNAME:;
#STEPSTYPE:dance-single;
#DESCRIPTION:;
#CHARTSTYLE:;
#DIFFICULTY:Challenge;
#METER:16;
#RADARVALUES:0.738976,1.119559,0.188593,0.687017,0.949700,768.000000,740.000000,28.000000,102.000000,71.000000,0.000000,9.000000,0.000000,0.000000,0.738976,1.119559,0.188593,0.687017,0.949700,768.000000,740.000000,28.000000,102.000000,71.000000,0.000000,9.000000,0.000000,0.000000;
#CREDIT:Pilgrimsito;
#DISPLAYBPM:64.000000:128.000000;
#NOTES:
// measure 0
0000
0000
0000
0000
,  // measure 1
0000
0000
0000
0000
,  // measure 2
0101
0000
1000
0001
1000
0000
0100
0000
0001
0000
0100
0000
1000
0000
0100
0010
,  // measure 3
0001
0100
0010
0000
0010
0000
0100
0001
1000
0000
0100
0000
0010
0001
0010
0000
,  // measure 4
0110
0000
0001
1000
0001
0000
0100
0000
0010
0000
0100
0000
0001
0000
0010
0100
,  // measure 5
1000
0100
0010
0000
0010
0000
0001
1000
0100
0000
0010
0000
1001
0000
0000
0000
,  // measure 6
0011
0000
1000
0001
1000
0000
0010
0000
0001
0000
0010
0000
1000
0000
0010
0100
,  // measure 7
0001
1000
0001
1000
0100
0010
0100
0010
0001
1000
0001
1000
0010
0100
0010
0100
,  // measure 8
0001
0000
0001
0000
0010
0000
0100
0000
0010
0000
0001
0100
0001
0000
1000
0010
,  // measure 9
1000
0000
0001
0100
0001
0000
1000
0010
1000
0000
0100
1000
0100
0000
0020
0000
,  // measure 10
0031
0000
0100
0000
0010
0000
0100
0000
0001
0000
1000
0100
1000
0000
0001
0010
,  // measure 11
0001
0000
1000
0100
1000
0000
0001
0010
0001
0000
0100
0001
0100
0000
0020
0000
,  // measure 12
1030
0100
0010
0100
1000
0001
0010
0001
0100
0010
1000
0100
0010
0001
1000
0010
,  // measure 13
1000
0100
0010
0001
0100
0010
0100
0001
0010
0100
1000
0010
0100
0001
0010
0004
,  // measure 14
4M00
00M0
0M00
00M0
0M00
00M0
0M00
00M0
0M00
00M0
0M00
00M0
0M00
00M0
0M00
00M0
,  // measure 15
3M03
0000
000M
00M0
0M00
M000
000M
00M0
0M00
M000
0000
0000
2002
0000
3003
0000
,  // measure 16
1010
0000
0000
0000
0001
0010
0100
0010
0001
0000
0001
0100
0010
0000
0010
0100
,  // measure 17
0001
0000
0001
0010
0100
0000
0100
0010
0001
0000
0001
1000
0010
0000
0002
0000
,  // measure 18
0003
0000
000M
0000
1000
0100
0010
0100
1000
0000
0001
1000
0010
0000
0010
1000
,  // measure 19
0001
0000
0001
1000
0100
0000
0100
1000
0004
0000
1003
0100
0020
0000
0030
0000
,  // measure 20
0101
0000
0000
0000
1000
0100
0010
0001
0200
0000
0301
1000
0200
0000
1300
0001
,  // measure 21
0200
0000
0301
1000
0200
0000
1300
0010
0200
0000
0301
0010
0200
0000
0340
0000
,  // measure 22
0M30
0000
0000
0000
0001
0100
0010
1000
0200
0000
1300
0001
0200
0000
0301
1000
,  // measure 23
0020
0000
0130
0010
0200
0000
0310
0100
0020
0000
0130
0001
1001
0000
0000
0000
,  // measure 24
01M1
0000
0000
0000
1000
0100
1000
0100
0010
0000
0001
0100
0001
0000
1000
0010
1000
0000
0001
0100
0001
0000
1000
0010
1000
0000
0100
1000
0100
0000
0020
0000
,  // measure 25
0030
0000
0000
0000
0001
0100
0001
0100
0010
0000
1000
0100
1000
0000
0001
0010
0001
0000
1000
0100
1000
0000
0001
0010
0001
0000
1000
0010
0200
0000
0300
0000
,  // measure 26
101M
0000
0000
0000
0001
0010
0100
1000
0020
0000
1030
0001
0020
0000
0031
1000
,  // measure 27
0020
0000
1030
0001
0020
0000
0031
0100
0020
0000
1030
0100
0020
0000
0430
0000
,  // measure 28
03M0
0000
0000
0000
1000
0010
0100
0001
0020
0000
0031
1000
0020
0000
1030
0001
,  // measure 29
0200
0000
0310
0100
0020
0000
0130
0010
0200
0000
0310
1000
1001
0000
0000
0000
,  // measure 30
0210
0302
0023
0032
,  // measure 31
0203
0000
0000
0000
0320
0000
2030
0000
3200
0000
0300
0020
0000
0030
1100
0000
,  // measure 32
1002
0203
2300
3200
,  // measure 33
0302
0000
0000
0000
0023
0000
0230
0000
2300
0000
3000
0020
0000
0030
0100
0000
,  // measure 34
0120
2030
3200
2300
,  // measure 35
3020
0000
0000
0000
0230
0000
0302
0000
0023
0000
0030
0200
0000
0300
0011
0000
,  // measure 36
2001
3020
0032
0023
,  // measure 37
2030
0000
0000
0000
3200
0000
0320
0000
0032
0000
1003
0010
1000
0000
0100
0000
,  // measure 38
1100
0000
0001
1000
0001
0000
0100
0000
1000
0000
0100
0000
0001
0000
0100
0010
,  // measure 39
1000
0100
0010
0000
0010
0000
0100
1000
0001
0000
0100
0000
1001
0000
0000
0000
,  // measure 40
1010
0000
0001
1000
0001
0000
0010
0000
1000
0000
0010
0000
0001
0000
0010
0100
,  // measure 41
1000
0010
0100
0000
0100
0000
0010
1000
0001
0000
0010
0000
0100
1000
0100
0000
,  // measure 42
0110
0000
1000
0001
1000
0000
0010
0000
0100
0000
0010
0000
1000
0000
0100
0010
,  // measure 43
0001
0010
0100
0000
0100
0000
1000
0001
0010
0000
0100
0000
1001
0000
0000
0000
,  // measure 44
1100
0000
0001
1000
0001
0000
0100
0000
1000
0000
0100
0000
0001
0000
0100
0010
,  // measure 45
1000
0001
1000
0001
0010
0100
0010
0100
1000
0001
1000
0001
0100
0010
0100
0010
,  // measure 46
1000
0000
1000
0000
0100
0000
0010
0000
0100
0000
1000
0010
1000
0000
0001
0100
,  // measure 47
0001
0000
1000
0010
1000
0000
0001
0100
0001
0000
0010
0001
0010
0000
0200
0000
,  // measure 48
1300
0000
0010
0000
0100
0000
0010
0000
1000
0000
0001
0010
0001
0000
1000
0100
,  // measure 49
1000
0000
0001
0010
0001
0000
1000
0100
1000
0000
0010
1000
0010
0000
1000
0001
,  // measure 50
0100
0000
0100
0001
1000
0000
1000
0001
0010
0000
0010
0001
1000
0000
1000
0100
,  // measure 51
0010
0000
0010
0100
1000
0000
1000
0010
0100
0000
0100
0010
1000
0000
1000
0001
,  // measure 52
0100
0000
0001
1000
0100
0000
1000
0001
0010
0000
0001
1000
0010
0000
0100
0001
,  // measure 53
0010
0000
0100
1000
0010
0000
1000
0100
0010
0000
0001
0100
0010
0000
1000
0010
,  // measure 54
0100
0001
0100
0001
1000
0100
1000
0100
0010
0100
0010
0100
1000
0001
1000
0001
,  // measure 55
1000
0010
1000
0010
0100
0010
0100
0010
1000
0001
1000
0001
0010
0001
0010
0002
,  // measure 56
20M0
0M00
00M0
0M00
00M0
0M00
00M0
0M00
00M0
0M00
00M0
0M00
00M0
0M00
00M0
0M00
,  // measure 57
00M0
0M00
00M0
0M00
00M0
0M00
00M0
0M00
00M0
0M00
00M0
0M00
00M0
0M00
00M0
0M00
,  // measure 58
30M3
1000
1000
1000
,  // measure 59
0020
0000
0130
0010
2000
0000
3001
1000
0020
0000
0130
0010
1000
0000
0000
0000
,  // measure 60
1100
0000
0000
0000
0010
0001
0100
0001
0010
0000
0010
0100
1000
0000
0002
0000
,  // measure 61
1003
0100
0001
0100
1000
0000
0010
0100
0001
0000
0010
0100
1000
0000
0002
0000
,  // measure 62
0003
0000
0000
0000
1000
0010
0001
0010
1000
0000
0001
0010
0100
0000
1000
0010
,  // measure 63
0100
0000
0001
1000
0100
0000
1000
0001
0400
0000
0310
1000
0200
0000
0300
0000
,  // measure 64
0011
0000
0000
0000
0001
0100
0010
1000
0002
0000
0013
0100
2000
0000
3020
0000
,  // measure 65
2030
0000
3001
0100
200M
0000
3001
0010
200M
0000
3001
0010
0200
0000
0340
0000
,  // measure 66
0M30
0000
0000
0000
0001
0100
0010
1000
0020
0000
1030
0001
0020
0000
0230
0000
,  // measure 67
0320
0000
0031
0100
2000
0000
3100
0001
0020
0000
0130
1000
1001
0000
0000
0000
,  // measure 68
1M10
0000
0000
0000
0100
1000
0010
1000
0100
0000
0100
0010
0001
0000
2000
0000
3001
0010
1000
0010
0001
0000
0100
0010
1000
0000
0100
0010
0001
0000
2000
0000
,  // measure 69
3000
0000
0000
0000
0001
0100
1000
0100
0001
0000
1000
0100
0010
0000
0001
0100
0010
0000
1000
0001
0010
0000
0001
1000
0040
0000
0130
0001
0020
0000
0000
0030
,  // measure 70
1M01
0000
0000
0000
1000
0010
0100
0001
2000
0000
3100
1000
0020
0000
0130
0001
,  // measure 71
2000
0000
3001
0010
200M
0000
3001
0100
200M
0000
3001
0100
0020
0000
0430
0000
,  // measure 72
03M0
0000
0000
0000
0001
0010
0100
1000
0200
0000
1300
0001
0200
0000
0301
1000
,  // measure 73
0020
0000
1030
0100
0002
0000
0103
1000
0020
0000
0130
0001
2000
0000
3000
0000
;
