#TITLE:Twilight's Insanity;
#SUBTITLE:;
#ARTIST:Foozogz;
#TITLETRANSLIT:;
#SUBTITLETRANSLIT:;
#ARTISTTRANSLIT:;
#GENRE:;
#CREDIT:;
#BANNER:Twilight's Insanity.png;
#BACKGROUND:Twilight's Insanity-bg.png;
#LYRICSPATH:;
#CDTITLE:;
#MUSIC:Twilight's Insanity.ogg;
#OFFSET:0.000000;
#SAMPLESTART:10.667000;
#SAMPLELENGTH:15.000000;
#SELECTABLE:YES;
#BPMS:0.000000=90.000000
,16.000000=180.000000
,208.000000=90.000000
,232.000000=180.000000
,297.000000=90.000000
;
#STOPS:232.000000=1.000000
;
#BGCHANGES:;
#KEYSOUNDS:;
#ATTACKS:;

//---------------dance-single - ----------------
#NOTES:
     dance-single:
     :
     Challenge:
     16:
     0.680457,0.802142,0.395560,0.807601,0.374958,578.000000,530.000000,48.000000,98.000000,3.000000,0.000000,0.680457,0.802142,0.395560,0.807601,0.374958,578.000000,530.000000,48.000000,98.000000,3.000000,0.000000:
0000
0000
0000
0000
,
0000
0000
0000
0000
,
0000
0000
0000
0000
,
0000
0000
0000
0000
,
2M01
0000
3001
0021
0000
0130
1100
0000
,
1002
0000
0000
0000
1003
0000
0001
1000
0100
0000
0010
0000
0001
1000
0010
1000
,
0001
0100
1000
0001
0010
1000
0001
0010
,
1000
0000
0010
0000
0001
0000
1000
0000
0010
0000
0100
0000
0001
1000
0100
0010
,
0002
0000
1003
1020
0000
0130
0001
0001
,
0021
0000
0000
0000
0130
0000
1000
0001
0100
0000
0001
0000
1000
0001
0010
0001
,
1000
0100
0001
1000
0010
0001
1000
0001
,
0100
0000
0000
0000
0000
0000
0010
0000
1000
0000
0010
0000
1000
0000
0000
0000
0000
0000
0001
0000
0100
0000
0001
0000
0100
0000
0000
0000
0000
0000
0010
0000
0000
0000
0000
0000
1000
0000
0000
0001
0000
0000
0010
0000
0000
0100
0000
0000
,
2000
0000
3001
0201
0000
0310
1010
0000
,
1002
0000
0000
0000
1003
0000
0010
0100
0001
0000
0100
0000
0001
1000
0100
1000
,
0001
0010
1000
0001
0100
1000
0001
0100
,
1000
0000
0100
0000
0001
0000
1000
0000
0100
0000
1000
0000
0001
0010
0400
0000
,
2300
0000
3001
0201
0000
0310
1000
1000
,
1200
0000
0000
0000
0310
0000
0001
0010
0100
0000
1000
0000
0001
1000
0010
1000
,
0001
0100
1000
0001
0010
1000
0001
0100
,
0010
0000
0000
1000
0000
0000
0001
0000
0010
0000
0001
0000
0010
0000
0000
0000
0000
0000
0100
0000
1000
0000
0100
0000
1000
0000
0000
0000
0000
0000
0001
0000
0000
0000
0000
0000
0400
0000
0000
0000
0000
0000
0000
0000
0000
0000
0000
0000
,
0320
0000
0000
0000
1030
0000
0001
0010
0100
0000
0010
0000
0001
1000
0010
0000
,
2000
0000
0000
0000
3100
0000
0010
0001
1000
0000
0001
0000
0100
0010
1000
0000
,
0002
1000
0010
0023
0001
0100
0230
0000
,
2300
0001
0010
3020
1000
0100
0230
0301
,
0200
0000
1300
0200
0010
0000
0302
0003
,
0020
0000
0001
0000
0100
0000
1030
0010
,
0002
0000
0000
2003
0000
0000
3010
0000
,
0100
0001
1000
0001
0010
0200
1300
0200
,
0320
0000
0000
0000
0031
0000
1000
0010
0100
0000
0001
0000
1000
0001
0010
0000
,
0200
0000
0000
0000
1300
0000
0001
0010
0100
0000
1000
0000
0001
0100
0010
0000
,
2000
0001
0010
3020
0001
0100
0230
0000
,
0302
1000
0010
0023
1000
0100
0230
1300
,
0200
0000
0301
0200
0010
0000
2300
3000
,
0020
0000
1030
0020
0100
0000
0032
0003
,
0020
0000
0000
0230
0000
0000
0301
0000
,
1000
0000
0100
0000
0010
0000
0100
0000
1000
0001
0200
0000
0310
0000
0200
0300
,
1002
0000
1003
1020
0000
0130
0102
0000
,
1003
0000
1000
0000
0004
0000
1003
0100
0010
0000
0010
0000
0001
1000
0001
1000
,
1200
0000
0310
0012
0000
1003
1020
0000
,
0130
0000
0100
0000
0004
0000
0000
0000
0013
0100
1000
0000
0001
0000
0001
0000
,
2001
0000
3001
0201
0000
0310
2010
0000
,
3001
0000
0001
0000
0040
0000
0130
1000
0001
0000
0001
0000
0100
0001
0100
0001
,
2001
0000
3001
0021
0000
0130
2100
0000
,
3010
0000
0000
0000
0010
0000
0000
0000
1000
0000
0000
0000
0001
0000
0010
0000
0200
0300
0000
0000
0200
0300
0000
0000
2000
3000
0002
0003
2000
3000
0002
0003
,
0201
0000
0310
2010
0000
3001
0021
0000
,
0130
0000
0100
0000
4000
0000
3001
0100
0010
0000
0010
0000
1000
0001
0010
0100
,
0120
0000
0031
2001
0000
3001
0201
0000
,
0310
0000
0010
0000
4000
0000
0000
0000
3001
0010
0100
0000
0010
0000
0010
0000
,
0012
0000
1003
1020
0000
0130
0102
0000
,
1003
0000
1000
0000
0004
0000
0103
0010
1000
0000
1000
0000
0001
1000
0100
0010
,
0210
0000
1300
1002
0000
1003
1020
0000
,
0130
0000
0100
0000
0001
0000
1000
0100
0010
0000
0001
0000
0400
0000
0000
0000
,
M310
0020
0000
0000
0000
0000
0000
0000
,
0030
0000
0000
0000
,
2001
0001
0000
0000
3200
0000
0000
0000
,
0320
0000
0000
0000
0032
0000
0000
0003
,
1002
0000
0203
0000
,
0320
0000
2030
0000
,
300M
0000
1002
0000
1003
1200
0000
0310
,
0011
0000
0000
0000
2001
0000
0000
0000
3001
0000
1000
0001
0010
0001
1000
0000
,
0001
1000
0010
1000
0001
0000
0100
0000
1000
0000
0001
0000
0010
0000
1000
0000
,
0001
0010
0100
0010
0001
0000
1000
0000
0010
0000
0100
0000
0010
0000
1000
0000
,
0001
0010
0100
1000
0002
0000
0000
0000
1003
0000
1020
0000
0000
0000
0130
0000
,
0001
0000
0001
0000
0021
0000
0000
0000
0130
0000
1000
0001
0100
0001
1000
0000
,
0001
1000
0100
1000
0001
0000
0010
0000
1000
0000
0001
0000
0100
0000
1000
0000
,
0010
0000
0000
0100
0000
0000
0001
0000
0000
0100
0000
0000
0010
0000
0000
0000
0000
0000
1000
0000
0100
0000
1000
0000
0100
0000
0000
0000
0000
0000
0010
0000
0001
0000
0010
0000
0001
0000
0000
0000
0000
0000
1000
0000
0000
0000
0000
0000
,
0001
0100
0010
1000
0002
0000
0000
0000
1003
0000
1020
0000
0000
0000
0130
0000
,
0101
0000
0000
0000
2001
0000
0000
0000
3001
0000
1000
0001
0100
0001
1000
0000
,
0001
1000
0100
1000
0001
0000
0010
0000
1000
0000
0001
0000
0100
0000
1000
0000
,
0001
0100
0010
0100
0001
0000
1000
0000
0001
0000
0010
0000
0100
0000
1000
0000
,
0001
0100
0010
1000
0002
0000
0000
0000
1003
0000
1200
0000
0000
0000
0310
0000
,
0001
0000
0001
0000
0201
0000
0000
0000
0310
0000
1000
0001
0010
0001
1000
0000
,
0001
1000
0010
1000
0001
0000
0100
0000
1000
0000
0001
0000
0010
0000
1000
0000
,
0100
0000
0000
0010
0000
0000
0001
0000
0000
0010
0000
0000
0100
0000
0000
0000
0000
0000
1000
0000
0010
0000
1000
0000
0010
0000
0000
0000
0000
0000
0100
0000
0001
0000
0100
0000
0001
0000
0000
0000
0000
0000
1000
0000
0000
0000
0000
0000
,
0400
0000
0320
0000
0000
0000
0000
0030
;

//---------------dance-double - ----------------
#NOTES:
     dance-double:
     :
     Challenge:
     16:
     0.656912,0.740439,0.354356,0.675748,0.313152,558.000000,515.000000,43.000000,82.000000,3.000000,0.000000,0.656912,0.740439,0.354356,0.675748,0.313152,558.000000,515.000000,43.000000,82.000000,3.000000,0.000000:
00000000
00000000
00000000
00000000
,
00000000
00000000
00000000
00000000
,
00000000
00000000
00000000
00000000
,
00000000
00000000
00000000
00000000
,
2001M000
00000000
30010000
00210000
00000000
00301000
00011000
00000000
,
00010020
00000000
00000000
00000000
00000130
00000000
00000001
00000100
00000010
00000000
00001000
00000000
00000001
00001000
00000100
00001000
,
00000001
00000100
00001000
00010000
00100000
10000000
00010000
00100000
,
10000000
00000000
00100000
00000000
00010000
00000000
10000000
00000000
00100000
00000000
01000000
00000000
00010000
01000000
00001000
00010000
,
00000200
00000000
00000310
00000012
00000000
00001003
00000010
00000010
,
00020010
00000000
00000000
00000000
00031000
00000000
00010000
00001000
00100000
00000000
00010000
00000000
10000000
00010000
00100000
00010000
,
10000000
00100000
00010000
00001000
00000100
00000001
00001000
00000100
,
00000010
00000000
00000004
00000000
00001003
00000000
00000040
00000000
00000130
00000000
00000001
00000000
00001000
00000010
00010000
00001000
,
00200000
00000000
01300000
21000000
00000000
30010000
01010000
00000000
,
00021000
00000000
00000000
00000000
00030010
00000000
00001000
00000001
00000010
00000000
00000001
00000000
00001000
00000001
00000010
00000001
,
00001000
00000100
00000010
00001000
00010000
01000000
10000000
00100000
,
00010000
00000000
00100000
00000000
10000000
00000000
01000000
00000000
00100000
00000000
00010000
00000000
01000000
00001000
00010000
00000010
,
00002000
00000000
00003001
00000201
00000000
00000310
00010000
00010000
,
00012000
00000000
00000000
00000000
00103000
00000000
00010000
00100000
01000000
00000000
10000000
00000000
00010000
10000000
00100000
10000000
,
00010000
01000000
00100000
00010000
00001000
00000100
00000001
00001000
,
00000001
00000010
00000400
00000000
00000310
00000000
00000004
00000000
00001003
00000000
00000010
00000000
00040000
00000000
00000000
00000000
,
00032000
00000000
00000000
00000000
00013000
00000000
01000000
00100000
00010000
00000000
10000000
00000000
00100000
01000000
00010000
00000000
,
02000000
00000000
00000000
00000000
03001000
00000000
00010000
00000100
00001000
00000000
00000100
00000000
00000010
00000001
00001000
00000000
,
00000001
00000100
00001000
00010000
00001000
00000010
00002000
00000000
,
00013000
01000000
10000000
00100000
00010000
00002000
00013000
00200000
,
02300000
00000000
13000000
02000000
00100000
00000000
00010000
00000000
,
03002000
00000000
01000000
00000000
00010000
00000000
00003010
00000001
,
00002000
00000000
00000000
00003002
00000000
00000000
00000013
00000000
,
00000100
00010000
00001000
00100000
00001000
00020000
01030000
20000000
,
30020000
00000000
00000000
00000000
00130000
00000000
01000000
10000000
00010000
00000000
01000000
00000000
00010000
00100000
00001000
00000000
,
00020000
00000000
00000000
00000000
00030010
00000000
00001000
00000010
00000100
00000000
00000001
00000000
00001000
00000100
00000010
00000000
,
00000001
00000010
00001000
00010000
00001000
00000100
00002000
00000000
,
00013000
00100000
10000000
01000000
00010000
00002000
00013000
02000000
,
03200000
00000000
10300000
00200000
01000000
00000000
00010000
00000000
,
00302000
00000000
00103000
00002000
00010000
00000000
00003200
00000300
,
00000002
00000000
00000000
00002003
00000000
00000000
00003100
00000000
,
00010000
00000000
00000100
00000000
00010000
00000000
00001000
00100000
00010000
00000000
00200000
00000000
01300000
00000000
00200000
00300000
,
20010000
00000000
30010000
00210000
00000000
00301000
00011000
00000000
,
00010000
00000000
00010000
00000000
00000040
00000000
00000130
00000001
00001000
00000000
00001000
00000000
00000001
00000010
00000100
00001000
,
00000002
00000000
00001003
00001020
00000000
00010030
00011000
00000000
,
00001000
00000000
00001000
00000000
00400000
00000000
00000000
00000000
01300000
10000000
00010000
00000000
01000000
00000000
01000000
00000000
,
01020000
00000000
10030000
12000000
00000000
03100000
00101000
00000000
,
00001000
00000000
00001000
00000000
00040000
00000000
00030100
00000010
00000001
00000000
00000001
00000000
00001000
00000010
00000100
00000001
,
00002000
00000000
00003010
00020010
00000000
00031000
00101000
00000000
,
00100000
00000000
00000000
00000000
00100000
00000000
00000000
00000000
00010000
00000000
00000000
00000000
10000000
00000000
00100000
00000000
02000000
03000000
00000000
00000000
02000000
03000000
00000000
00000000
00020000
00030000
20000000
30000000
00020000
00030000
20000000
30000000
,
02000000
00000000
03100000
00102000
00000000
00013000
00010010
00000000
,
00000010
00000000
00000010
00000000
00004000
00000000
00003001
00000010
00000100
00000000
00000100
00000000
00001000
00000100
00010000
00001000
,
00200000
00000000
01300000
21000000
00000000
30010000
01010000
00000000
,
01000000
00000000
01000000
00000000
00400000
00000000
00000000
00000000
10300000
00010000
00100000
00000000
01000000
00000000
01000000
00000000
,
21000000
00000000
30010000
02010000
00000000
03001000
00011000
00000000
,
00010000
00000000
00010000
00000000
00000400
00000000
00000310
00000001
00001000
00000000
00001000
00000000
00000001
00000100
00000010
00010000
,
00002000
00000000
00103000
00120000
00000000
10030000
10100000
00000000
,
00100000
00000000
00100000
00000000
10000000
00000000
00010000
00100000
01000000
00000000
00100000
00000000
00004000
00000000
00000000
00000000
,
0M013000
00020000
00000000
00000000
00000000
00000000
00000000
00000000
,
00030000
00000000
00000000
00000000
,
00012000
00010000
00000000
00000000
00003200
00000000
00000000
00000000
,
00000302
00000000
00000000
00000000
00000023
00000000
00000000
00000030
,
00021000
00000000
02030000
00000000
,
23000000
00000000
30200000
00000000
,
0030M000
00000000
20010000
00000000
30010000
00210000
00000000
00301000
,
00011000
00000000
00000000
00000000
00010020
00000000
00000000
00000000
00000130
00000000
00000001
00001000
00000100
00001000
00000001
00000000
,
00001000
00000001
00000100
00000001
00001000
00000000
00000010
00000000
00000100
00000000
00001000
00000000
00010000
00000000
00100000
00000000
,
10000000
01000000
00010000
01000000
10000000
00100000
01000000
00001000
,
01000000
00001000
00010000
00000010
00002000
00000000
00000000
00000000
00003001
00000000
00000021
00000000
00000000
00000000
00000130
00000000
,
00010000
00000000
00010000
00000000
00012000
00000000
00000000
00000000
00103000
00000000
00010000
10000000
00100000
10000000
00010000
00000000
,
10000000
00010000
00100000
00010000
10000000
00000000
00100000
00000000
00010000
00000000
00001000
00000000
00000100
00000000
00000001
00000000
,
00001000
00000000
00000000
00000010
00000000
00000000
00000100
00000000
00000000
00000001
00001000
00000001
00001000
00000000
00000000
00000100
00000010
00000100
00000010
00000000
00000000
00000001
00000000
00000000
,
00001000
00000010
00010000
00001000
00200000
00000000
00000000
00000000
00310000
00000000
20010000
00000000
00000000
00000000
31000000
00000000
,
01100000
00000000
00000000
00000000
00102000
00000000
00000000
00000000
00013000
00000000
00000010
00001000
00000001
00001000
00000010
00000000
,
00001000
00000001
00000010
00000001
00001000
00000000
00000100
00000000
00000010
00000000
00001000
00000000
00010000
00000000
01000000
00000000
,
10000000
00100000
00010000
00100000
10000000
00010000
00100000
00001000
,
00100000
00001000
00010000
00000100
00002000
00000000
00000000
00000000
00003001
00000000
00000201
00000000
00000000
00000000
00000310
00000000
,
00010000
00000000
00010000
00000000
00012000
00000000
00000000
00000000
00103000
00000000
01000000
10000000
00010000
10000000
01000000
00000000
,
10000000
00010000
01000000
00010000
10000000
00000000
01000000
00000000
00010000
00000000
00001000
00000000
00000010
00000000
00000001
00000000
,
00001000
00000000
00000000
00000001
00000000
00000000
00000100
00000000
00000000
00000010
00000100
00000010
00000100
00000000
00000000
00000001
00001000
00000001
00001000
00000000
00000000
00000100
00000000
00000000
,
00040000
00000000
00032000
00000000
00000000
00000000
00000000
00003000
;

//---------------dance-single - ----------------
#NOTES:
     dance-single:
     :
     Hard:
     15:
     0.560376,0.617032,0.131853,0.733434,0.280188,476.000000,460.000000,16.000000,89.000000,3.000000,0.000000,0.560376,0.617032,0.131853,0.733434,0.280188,476.000000,460.000000,16.000000,89.000000,3.000000,0.000000:
0000
0000
0000
0000
,
0000
0000
0000
0000
,
0000
0000
0000
0000
,
0000
0000
0000
0000
,
1M01
0000
1000
0020
0000
0130
0001
0000
,
1001
0000
0000
0000
0001
0000
1000
0001
1000
0000
0100
0000
0000
0010
0000
0010
,
0100
1000
1000
0001
0100
0100
0010
1000
,
0002
0000
0000
0000
0013
0000
0100
0000
1000
0000
0100
0000
0010
0001
0010
0001
,
0020
0000
0031
2000
0000
3010
0100
0100
,
1001
0000
0000
0000
1000
0000
0001
1000
0001
0000
0010
0000
0000
0100
0000
0100
,
0010
0001
0001
1000
0010
0020
0000
0130
,
0001
0000
1000
0100
1000
0000
1000
0100
1000
0000
0001
0000
0100
0001
0100
0001
,
0200
0000
0301
2000
0000
3100
0010
0000
,
1001
0000
0000
0000
1000
0000
0001
1000
0001
0000
0100
0000
0000
0010
0000
0010
,
0100
0001
0001
1000
0100
0100
0010
0001
,
2000
0000
0000
0000
3010
0000
0100
0000
0001
0000
1000
0000
0001
0010
0001
0010
,
0002
0000
0103
0020
0000
1030
0010
0010
,
1001
0000
0000
0000
0001
0000
1000
0001
1000
0000
0100
0000
0000
0010
0000
0010
,
0100
1000
1000
0001
0010
0020
0000
0130
,
1000
0000
0001
0100
0001
0000
0001
0100
0001
0000
1000
0000
0010
0100
0010
0100
,
0020
0000
1030
0002
0100
0000
1003
0000
,
2000
0000
3001
0020
0100
0000
0031
0000
,
0002
0000
0103
0002
0000
1003
0002
0000
,
2003
0000
3100
2000
0000
3001
0100
0001
,
0020
0000
0000
0032
0000
0000
2003
0000
,
3020
0000
0001
0000
0100
0000
1030
0001
,
0020
0000
0000
0200
0000
0000
0330
0000
,
0100
1000
0001
0100
0010
0110
0000
1001
,
2000
0000
3001
0200
0010
0000
0301
0000
,
0002
0000
1003
0200
0010
0000
1300
0000
,
2000
0000
3010
2000
0000
3001
2000
0000
,
3002
0000
0013
0002
0000
1003
0010
1000
,
0200
0000
0000
2300
0000
0000
3002
0000
,
0203
0000
0000
0302
0000
0000
2003
0000
,
3200
0000
0000
0020
0000
0000
0330
0000
,
0100
1000
0001
0100
0010
0110
0000
1001
,
0002
0000
0103
0002
0000
1003
0002
0000
,
0013
0000
0100
0000
1000
0000
0001
1000
0001
0000
0100
0000
0010
1000
0010
1000
,
0020
0000
0130
0020
0000
0031
0020
0000
,
1030
0000
0001
0000
0020
0000
0000
0000
0130
1000
0100
0000
1000
0000
0001
0000
,
0020
0000
0130
0020
0000
1030
0020
0000
,
0031
0000
1000
0000
0010
0000
0100
0001
0100
0000
0001
0000
1000
0100
1000
0100
,
2000
0000
3010
2000
0000
3001
2000
0000
,
3100
0000
0010
0000
0001
0000
1000
0010
1000
0000
1000
0000
0001
1000
0001
1000
,
0002
0000
0103
0002
0000
1003
0002
0000
,
1003
0000
0010
0000
0100
0000
0001
1000
0001
0000
1000
0000
0100
0010
0001
0010
,
0200
0000
0301
0200
0000
0310
0200
0000
,
1300
0000
0001
0000
0200
0000
0000
0000
0301
1000
0001
0000
1000
0000
0010
0000
,
0200
0000
1300
0200
0000
0310
0200
0000
,
0301
0000
1000
0000
0010
0000
0100
0001
0100
0000
0001
0000
1000
0100
0010
0100
,
2000
0000
3100
2000
0000
3001
2000
0000
,
3010
0000
0100
0000
0001
0000
1000
0100
1000
0000
0001
0000
0100
0010
1000
0010
,
010M
0100
0000
0000
0000
0000
0000
0000
,
0000
0000
0000
0000
,
1002
1000
0000
0000
0203
0000
0000
0000
,
0320
0000
0000
0000
2030
0000
0000
3000
,
2001
0000
3200
0000
,
0320
0000
0032
0000
,
M003
0000
1001
0000
1000
0200
0000
0310
,
0001
0000
0000
0000
1001
0000
0000
0000
1000
0000
0001
0100
0010
0000
0100
0000
,
0000
0010
0000
0010
0100
0000
0001
0000
0001
0000
1000
0000
0100
0000
0100
0000
,
0010
0001
2000
0000
3010
0100
0001
1000
,
0001
0010
0100
0010
0002
0000
0000
0000
0013
0000
0200
0000
0000
0000
1300
0000
,
0010
0000
0010
0000
1001
0000
0000
0000
1000
0000
0001
0010
0100
0000
0010
0000
,
0000
0100
0000
0100
0010
0000
0001
0000
0001
0000
1000
0000
0010
0000
0020
0000
,
0000
0000
0130
0000
0001
0000
1000
0001
1000
0000
1000
0100
1000
0000
0001
0000
,
1000
0010
0100
0010
2000
0000
0000
0000
3001
0000
0020
0000
0000
0000
0130
0000
,
1000
0000
0000
0000
1001
0000
0000
0000
0001
0000
1000
0010
0100
0000
0010
0000
,
0000
0100
0000
0100
0010
0000
1000
0000
1000
0000
0001
0000
0010
0000
0010
0000
,
0100
1000
0002
0000
0103
0010
1000
0001
,
0010
0100
1000
0100
0020
0000
0000
0000
0031
0000
2000
0000
0000
0000
3001
0000
,
0100
0000
0100
0000
1001
0000
0000
0000
0001
0000
0100
0010
1000
0000
0010
0000
,
0000
0100
0000
0100
0010
0000
1000
0000
1000
0000
0001
0000
0010
0000
0020
0000
,
0000
0000
0130
0000
1000
0000
0001
1000
0001
0000
0001
0100
0001
0000
0010
0000
,
0100
1000
0001
1000
0020
0000
0000
0000
0000
0000
0000
0000
0000
0000
0030
0000
;

//---------------dance-double - ----------------
#NOTES:
     dance-double:
     :
     Hard:
     15:
     0.559199,0.617032,0.123612,0.733434,0.280188,475.000000,460.000000,15.000000,89.000000,3.000000,0.000000,0.559199,0.617032,0.123612,0.733434,0.280188,475.000000,460.000000,15.000000,89.000000,3.000000,0.000000:
00000000
00000000
00000000
00000000
,
00000000
00000000
00000000
00000000
,
00000000
00000000
00000000
00000000
,
00000000
00000000
00000000
00000000
,
000M1001
00000000
00000001
00000200
00000000
00000310
00010000
00000000
,
00011000
00000000
00000000
00000000
00001000
00000000
00100000
00010000
00100000
00000000
00010000
00000000
00000000
10000000
00000000
10000000
,
00100000
01000000
01000000
00010000
10000000
10000000
01000000
00100000
,
00020000
00000000
00000000
00000000
01030000
00000000
00001000
00000000
00010000
00000000
00001000
00000000
01000000
00010000
01000000
00010000
,
02000000
00000000
03001000
00020000
00000000
00030100
00000010
00000010
,
00001001
00000000
00000000
00000000
00000001
00000000
00000100
00000010
00000100
00000000
00000010
00000000
00000000
00001000
00000000
00001000
,
00000010
00010000
00010000
00001000
00100000
00200000
00000000
00301000
,
01000000
00000000
00010000
01000000
00010000
00000000
00010000
01000000
00010000
00000000
01000000
00000000
00100000
10000000
00100000
10000000
,
00200000
00000000
10300000
00020000
00000000
00130000
00001000
00000000
,
00011000
00000000
00000000
00000000
00010000
00000000
00000010
00000100
00000010
00000000
00001000
00000000
00000000
00000001
00000000
00000001
,
00001000
00000100
00000100
00000010
00000001
00000001
00001000
00000010
,
00020000
00000000
00000000
00000000
00030100
00000000
00010000
00000000
00001000
00000000
00100000
00000000
00001000
00010000
00001000
00010000
,
00002000
00000000
00103000
00020000
00000000
10030000
00100000
00100000
,
10010000
00000000
00000000
00000000
00010000
00000000
01000000
00100000
01000000
00000000
00100000
00000000
00000000
10000000
00000000
10000000
,
00100000
01000000
01000000
00001000
00010000
00020000
00000000
00031000
,
00100000
00000000
00001000
00010000
00001000
00000000
00001000
00010000
00001000
00000000
00010000
00000000
00000010
00001000
00000010
00001000
,
00000020
00000000
00001030
00000002
00000010
00000000
00001003
00000000
,
00002000
00000000
00003100
00020000
00001000
00000000
00130000
00000000
,
00200000
00000000
10300000
00200000
00000000
01300000
00200000
00000000
,
00320000
00000000
00130000
00020000
00000000
00031000
00000100
00000001
,
00000020
00000000
00000000
00000230
00000000
00000000
00020300
00000000
,
00032000
00000000
00000100
00000000
00010000
00000000
00103000
00010000
,
20000000
00000000
00000000
00020000
00000000
00000000
30030000
00000000
,
10000000
00010000
00100000
00001000
00010000
00011000
00000000
00011000
,
00020000
00000000
00030010
00000200
00000001
00000000
00000310
00000000
,
00000020
00000000
00010030
00002000
00100000
00000000
00013000
00000000
,
00020000
00000000
00030100
00020000
00000000
00031000
00020000
00000000
,
02030000
00000000
03010000
02000000
00000000
03100000
00010000
10000000
,
00200000
00000000
00000000
02300000
00000000
00000000
03002000
00000000
,
00023000
00000000
00000000
00030200
00000000
00000000
00000320
00000000
,
00000032
00000000
00000000
00002000
00000000
00000000
00003003
00000000
,
00000001
00000100
00000010
00010000
00001000
00011000
00000000
00011000
,
00002000
00000000
00103000
00002000
00000000
00013000
00002000
00000000
,
00003100
00000000
00000001
00000000
00000100
00000000
00000010
00001000
00000010
00000000
00010000
00000000
00001000
00010000
00001000
00010000
,
00002000
00000000
00003010
00002000
00000000
00013000
00002000
00000000
,
01003000
00000000
00100000
00000000
20000000
00000000
00000000
00000000
30010000
00100000
00010000
00000000
10000000
00000000
00100000
00000000
,
02000000
00000000
13000000
02000000
00000000
03100000
02000000
00000000
,
03001000
00000000
00010000
00000000
00000010
00000000
00001000
00000010
00001000
00000000
00000001
00000000
00000010
00000001
00000010
00000001
,
00000020
00000000
00000031
00000020
00000000
00000130
00000020
00000000
,
00001030
00000000
00010000
00000000
00000100
00000000
00010000
00001000
00010000
00000000
00001000
00000000
01000000
00010000
01000000
00010000
,
02000000
00000000
03001000
02000000
00000000
03010000
02000000
00000000
,
03100000
00000000
10000000
00000000
00010000
00000000
01000000
00001000
01000000
00000000
00001000
00000000
00010000
00001000
00010000
00001000
,
00020000
00000000
01030000
00020000
00000000
00031000
00020000
00000000
,
00030010
00000000
00001000
00000000
00000002
00000000
00000000
00000000
00000103
00000010
00000100
00000000
00000010
00000000
00010000
00000000
,
00002000
00000000
00003100
00002000
00000000
00013000
00002000
00000000
,
00103000
00000000
00010000
00000000
10000000
00000000
00100000
01000000
00100000
00000000
10000000
00000000
00010000
00100000
00010000
00100000
,
00020000
00000000
00031000
00020000
00000000
00130000
00020000
00000000
,
10030000
00000000
00100000
00000000
01000000
00000000
00001000
01000000
00001000
00000000
00010000
00000000
00000010
00001000
00000010
00001000
,
0000001M
00000010
00000000
00000000
00000000
00000000
00000000
00000000
,
00000000
00000000
00000000
00000000
,
00001002
00001000
00000000
00000000
00000023
00000000
00000000
00000000
,
00000230
00000000
00002300
00000000
,
00023000
00000000
00230000
00000000
,
02300000
00000000
23000000
00000000
,
300M0000
00000000
10010000
00000000
10000000
00200000
00000000
01300000
,
00001000
00000000
00000000
00000000
00011000
00000000
00000000
00000000
00010000
00000000
00001000
00010000
00000010
00000000
00000100
00000000
,
00000000
00000010
00000000
00000010
00000100
00000000
00000001
00000000
00000001
00000000
00001000
00000000
00000100
00000000
00000100
00000000
,
00010000
00001000
00200000
00000000
00301000
00010000
00000100
00010000
,
00001000
01000000
00010000
01000000
00002000
00000000
00000000
00000000
00103000
00000000
00020000
00000000
00000000
00000000
00130000
00000000
,
01000000
00000000
01000000
00000000
10010000
00000000
00000000
00000000
10000000
00000000
00010000
01000000
00100000
00000000
01000000
00000000
,
00000000
00001000
00000000
00001000
00010000
00000000
00000010
00000000
00000010
00000000
00001000
00000000
00000001
00000000
00000002
00000000
,
00000000
00000000
00000013
00000000
00000100
00000000
00001000
00000001
00001000
00000000
00001000
00000010
00001000
00000000
00000010
00000000
,
00010000
00001000
01000000
00001000
00020000
00000000
00000000
00000000
00031000
00000000
02000000
00000000
00000000
00000000
03100000
00000000
,
10000000
00000000
00000000
00000000
10010000
00000000
00000000
00000000
00010000
00000000
01000000
00001000
00010000
00000000
00001000
00000000
,
00000000
00010000
00000000
00010000
00000100
00000000
00000010
00000000
00000010
00000000
00000001
00000000
00001000
00000000
00001000
00000000
,
00000010
00010000
00002000
00000000
00013000
00000100
00001000
00000100
,
00010000
00001000
01000000
00001000
00020000
00000000
00000000
00000000
00031000
00000000
02000000
00000000
00000000
00000000
03100000
00000000
,
01000000
00000000
01000000
00000000
10010000
00000000
00000000
00000000
00010000
00000000
10000000
00100000
01000000
00000000
00100000
00000000
,
00000000
10000000
00000000
10000000
00010000
00000000
00100000
00000000
00100000
00000000
00001000
00000000
00010000
00000000
00020000
00000000
,
00000000
00000000
00030010
00000000
00001000
00000000
00000001
00000100
00000001
00000000
00000001
00001000
00000001
00000000
00000010
00000000
,
00000100
00010000
00001000
00010000
00000200
00000000
00000000
00000000
00000000
00000000
00000000
00000000
00000000
00000000
00000300
00000000
;

//---------------dance-single - ----------------
#NOTES:
     dance-single:
     :
     Medium:
     12:
     0.389674,0.462774,0.065927,0.527413,0.000000,331.000000,323.000000,8.000000,64.000000,3.000000,0.000000,0.389674,0.462774,0.065927,0.527413,0.000000,331.000000,323.000000,8.000000,64.000000,3.000000,0.000000:
0000
0000
0000
0000
,
0000
0000
0000
0000
,
0000
0000
0000
0000
,
0000
0000
0000
0000
,
1M01
0000
0001
0100
0000
0100
0010
0000
,
1000
0000
0001
0010
0100
0000
0010
0001
,
1000
0000
0001
0000
0100
0010
0000
0010
,
0100
0000
0001
0000
1000
0100
0000
1000
,
1001
0000
0001
0010
0000
0010
0100
1000
,
0001
0000
0100
0010
1000
0000
0001
1000
,
0100
0000
0010
0000
0001
1000
0000
1000
,
0010
0200
0000
0320
0000
0130
0001
0000
,
1001
0000
1000
0100
0000
0100
0010
0000
,
0001
0000
1000
0010
0100
0000
0010
1000
,
0001
0000
1000
0000
0100
0010
0000
0010
,
0100
0000
1000
0000
0001
0100
0000
0001
,
1001
0000
1000
0010
0000
0010
0100
0001
,
1000
0000
0001
0010
0100
0000
0010
0001
,
1000
0000
0001
0000
0100
0010
0000
0010
,
1000
0002
0000
2003
0000
3001
0020
0000
,
0230
0000
0000
2300
0000
0000
3001
0000
,
0002
0000
0000
0203
0000
0000
0310
0000
,
0020
0000
0000
2030
0000
0000
3200
0000
,
0320
0000
0000
0032
0000
0103
0000
0100
,
0020
0000
0000
0100
0000
0000
1000
0000
,
2030
0010
0001
0100
,
3200
0000
0000
0020
0000
0000
0330
0000
,
0010
0000
0001
0000
1000
0010
0000
0010
,
2000
0000
0000
3002
0000
0000
0013
0000
,
0020
0000
0000
0230
0000
0000
1300
0000
,
2000
0000
0000
3020
0000
0000
0230
0000
,
0302
0000
0000
0023
0000
0130
0000
0100
,
2000
0000
0000
0100
0000
0000
0001
0000
,
3002
0100
1000
0010
,
0023
0000
0000
0200
0000
0000
0330
0000
,
0100
0000
1000
0000
0001
0100
0000
0100
,
0020
0000
0000
2030
0000
0000
3001
0000
,
0001
0010
0001
0000
1000
0010
0100
0010
,
2000
0000
0000
3020
0000
0000
0130
0000
,
0100
0001
2000
0000
3001
0010
0001
0000
,
2000
0000
0000
3002
0000
0000
0013
0000
,
0010
0001
0010
0000
0100
1000
0001
1000
,
0200
0000
0000
2300
0000
0000
3001
0000
,
0001
0100
0010
1000
0001
0001
2000
0000
,
3020
0000
0000
0230
0000
0000
0301
0000
,
0001
1000
0001
0000
0010
0100
1000
0001
,
0020
0000
0000
0032
0000
0000
1003
0000
,
1000
0010
0200
0000
0301
1000
0001
0000
,
0020
0000
0000
0230
0000
0000
1300
0000
,
1000
0001
1000
0000
0001
0100
0010
1000
,
0002
0000
0000
0203
0000
0000
0310
0000
,
0010
1000
0001
0010
0100
0100
0010
0000
,
M001
0001
0000
0000
0000
0000
0000
0000
,
0000
0000
0000
0000
,
2000
0010
0000
0000
3020
0000
0000
0000
,
0230
0000
0302
0000
,
2003
0000
3200
0000
,
0320
0000
0032
0000
,
M003
0000
1001
0000
0001
1000
0000
1000
,
0100
0000
0010
0000
0001
1000
0010
1000
,
0001
0010
0100
0000
0010
0000
0001
1000
,
0000
1000
0001
0000
0100
0000
0010
1000
,
0001
1000
1001
0000
0001
0010
0000
0010
,
0100
1000
0001
0000
0100
0010
1000
0001
,
0010
0001
1000
0000
0001
0000
0010
0100
,
0000
0100
0010
0002
0000
2003
0000
3010
,
0100
0001
1001
0000
1000
0100
0000
0100
,
0010
0000
0001
0000
1000
0010
0100
0010
,
1000
0001
1000
0000
0001
0000
1000
0010
,
0000
0010
1000
0000
0001
0000
1000
0001
,
0010
0001
1001
0000
1000
0010
0000
0010
,
0100
0001
1000
0000
0001
0010
0100
0010
,
0001
1000
0010
0000
0100
0000
0001
1000
,
0000
1000
0001
0020
0000
0230
0000
0310
,
0002
0000
2003
0000
0000
0000
0000
3000
;

//---------------dance-double - ----------------
#NOTES:
     dance-double:
     :
     Medium:
     12:
     0.388496,0.462774,0.065927,0.535654,0.000000,330.000000,322.000000,8.000000,65.000000,3.000000,0.000000,0.388496,0.462774,0.065927,0.535654,0.000000,330.000000,322.000000,8.000000,65.000000,3.000000,0.000000:
00000000
00000000
00000000
00000000
,
00000000
00000000
00000000
00000000
,
00000000
00000000
00000000
00000000
,
00000000
00000000
00000000
00000000
,
1001M000
00000000
10000000
00010000
00000000
00010000
00100000
00000000
,
00001000
00000000
00010000
00000010
00001000
00000000
00000010
00000100
,
00000001
00000000
00001000
00000000
00000100
00000010
00000000
00000010
,
00000100
00000000
00001000
00000000
00000001
00000100
00000000
00000001
,
00001001
00000000
00001000
00000010
00000000
00000010
00010000
00001000
,
00010000
00000000
00001000
01000000
00010000
00000000
01000000
00100000
,
10000000
00000000
00010000
00000000
00100000
01000000
00000000
01000000
,
00100000
00020000
00000000
20030000
00000000
30100000
01000000
00000000
,
10010000
00000000
00010000
01000000
00000000
01000000
00001000
00000000
,
00010000
00000000
00000100
00001000
00000001
00000000
00000100
00000010
,
00001000
00000000
00000001
00000000
00001000
00000100
00000000
00000100
,
00001000
00000000
00000001
00000000
00000100
00000010
00000000
00010000
,
00010010
00000000
00010000
00001000
00000000
00001000
00100000
00010000
,
00100000
00000000
00010000
10000000
00100000
00000000
01000000
00100000
,
10000000
00000000
00010000
00000000
01000000
00001000
00000000
00001000
,
00010000
00000200
00000000
00002300
00000000
00003001
00000200
00000000
,
00000320
00000000
00000000
00020030
00000000
00000000
00031000
00000000
,
00002000
00000000
00000000
00203000
00000000
00000000
01300000
00000000
,
02000000
00000000
00000000
23000000
00000000
00000000
30020000
00000000
,
02030000
00000000
00000000
03002000
00000000
00013000
00000000
00010000
,
00000020
00000000
00000000
00000100
00000000
00000000
00001000
00000000
,
00002030
00000100
00000001
00000010
,
00003020
00000000
00000000
00000200
00000000
00000000
00000330
00000000
,
00000010
00000000
00001000
00000000
00000001
00000010
00000000
00000010
,
00000200
00000000
00000000
00020300
00000000
00000000
00031000
00000000
,
00002000
00000000
00000000
02003000
00000000
00000000
03100000
00000000
,
00200000
00000000
00000000
20300000
00000000
00000000
30020000
00000000
,
02030000
00000000
00000000
03002000
00000000
00000000
00023000
00000000
,
00030200
00000000
00000000
00000010
00000000
00000000
00001000
00000000
,
00002300
00000100
00000001
00000010
,
00003020
00000000
00000000
00000200
00000000
00000000
00000330
00000000
,
00000100
00000000
00000001
00000000
00001000
00000010
00000000
00000010
,
00020000
00000000
00000000
00032000
00000000
00000000
00103000
00000000
,
00100000
01000000
00100000
00000000
00010000
10000000
00100000
10000000
,
00020000
00000000
00000000
02030000
00000000
00000000
03001000
00000000
,
00001000
00010000
00000200
00000000
00000310
00000001
00000010
00000000
,
00000002
00000000
00000000
00002003
00000000
00000000
00003100
00000000
,
00000100
00010000
00000100
00000000
00010000
00001000
01000000
00001000
,
00020000
00000000
00000000
00032000
00000000
00000000
01003000
00000000
,
01000000
00100000
10000000
00000000
00010000
10000000
00010000
00010000
,
00200000
00000000
00000000
00302000
00000000
00000000
00013000
00000000
,
00010000
00000010
00000100
00000000
00000010
00001000
00000001
00000100
,
00000020
00000000
00000000
00020030
00000000
00000000
00031000
00000000
,
00001000
00100000
00020000
00000000
10030000
00100000
01000000
00000000
,
00200000
00000000
00000000
20300000
00000000
00000000
30010000
00000000
,
00010000
01000000
00001000
00000000
00010000
00000010
00001000
00000010
,
00000200
00000000
00000000
00000302
00000000
00000000
00001003
00000000
,
00001000
00000100
00010000
00001000
01000000
01000000
00200000
00000000
,
013M0000
01000000
00000000
00000000
00000000
00000000
00000000
00000000
,
00000000
00000000
00000000
00000000
,
00010000
20000000
00000000
00000000
32000000
00000000
00000000
00000000
,
03200000
00000000
00320000
00000000
,
00032000
00000000
00003200
00000000
,
00000320
00000000
00000032
00000000
,
0000M003
00000000
00001001
00000000
00001000
00000010
00000000
00000010
,
00010000
00000000
00001000
00000000
00100000
00010000
00100000
01000000
,
10000000
00010000
10000000
00000000
00100000
00000000
01000000
00001000
,
00000000
00001000
01000000
00000000
00010000
00000000
00100000
00001000
,
00010000
00001000
00011000
00000000
00010000
00000010
00000000
00000010
,
00000100
00000001
00001000
00000000
00000001
00000010
00000001
00001000
,
00000010
00010000
00000010
00000000
00001000
00000000
00000100
00010000
,
00000000
00010000
00000100
00020000
00000000
00032000
00000000
00103000
,
00010000
10000000
10010000
00000000
00010000
01000000
00000000
01000000
,
00001000
00000000
00010000
00000000
00000010
00001000
00000010
00000100
,
00000001
00001000
00000100
00000000
00010000
00000000
00000010
00001000
,
00000000
00001000
00000010
00000000
00010000
00000000
00001000
00100000
,
00010000
00100000
01100000
00000000
01000000
10000000
00000000
10000000
,
00010000
01000000
00010000
00000000
01000000
00001000
00010000
00001000
,
01000000
00001000
00010000
00000000
00000010
00000000
00000100
00000001
,
00000000
00000001
00000100
00000020
00000000
00020030
00000000
00031000
,
00200000
00000000
00320000
00000000
00000000
00000000
00000000
00030000
;

//---------------dance-single - ----------------
#NOTES:
     dance-single:
     :
     Easy:
     9:
     0.281365,0.339368,0.065927,0.247225,0.000000,239.000000,231.000000,8.000000,30.000000,3.000000,0.000000,0.281365,0.339368,0.065927,0.247225,0.000000,239.000000,231.000000,8.000000,30.000000,3.000000,0.000000:
// measure 0
0000
0000
0000
0000
,  // measure 1
0000
0000
0000
0000
,  // measure 2
0000
0000
0000
0000
,  // measure 3
0000
0000
0000
0000
,  // measure 4
1M01
1000
0100
0000
,  // measure 5
0010
0001
1000
0000
,  // measure 6
0010
0100
0010
1000
,  // measure 7
0001
0000
0010
0000
0100
0010
0100
0000
,  // measure 8
0110
0100
1000
0000
,  // measure 9
0001
0100
0010
0000
,  // measure 10
1000
0001
0010
0100
,  // measure 11
0010
0001
0001
0100
,  // measure 12
0110
0100
0001
0000
,  // measure 13
0010
0001
1000
0000
,  // measure 14
0100
0010
0001
1000
,  // measure 15
0010
0000
0100
0000
0001
1000
0001
0000
,  // measure 16
1001
0001
0010
0000
,  // measure 17
0100
0010
0001
0000
,  // measure 18
1000
0010
0100
0001
,  // measure 19
1000
0100
0100
0010
,  // measure 20
0002
0000
0103
0000
,  // measure 21
2000
0000
3100
0000
,  // measure 22
0001
0010
0100
0000
,  // measure 23
0010
0000
0001
0000
1000
0001
1000
0000
,  // measure 24
2000
0000
3010
0000
,  // measure 25
0002
0000
0013
0000
,  // measure 26
2000
0000
0002
0000
,  // measure 27
3003
0000
0000
0000
0001
0010
0001
0010
,  // measure 28
0002
0000
0013
0000
,  // measure 29
2000
0000
3010
0000
,  // measure 30
0001
1000
0100
0000
,  // measure 31
0010
0000
0001
0000
1000
0010
1000
0000
,  // measure 32
2000
0000
3100
0000
,  // measure 33
0002
0000
0103
0000
,  // measure 34
2000
0000
0002
0000
,  // measure 35
3003
0000
0000
0000
0001
0100
0001
0100
,  // measure 36
0002
0000
0013
0000
,  // measure 37
0001
0000
1000
0000
0010
0100
0010
0000
,  // measure 38
0200
0000
0310
0000
,  // measure 39
1000
0001
0010
0010
,  // measure 40
0200
0000
0310
0000
,  // measure 41
0001
0000
1000
0000
0010
0100
0010
0000
,  // measure 42
0200
0000
0301
0000
,  // measure 43
1000
0000
0001
0001
,  // measure 44
2000
0000
3100
0000
,  // measure 45
0010
0000
0001
0000
1000
0001
1000
0001
,  // measure 46
2000
0000
3010
0000
,  // measure 47
1000
0010
0100
0100
,  // measure 48
0020
0000
1030
0000
,  // measure 49
0001
0000
1000
0000
0100
0010
0100
0010
,  // measure 50
0200
0000
0310
0000
,  // measure 51
0001
0100
0010
0010
,  // measure 52
M200
0000
0300
0000
,  // measure 53
0000
0000
0000
0000
,  // measure 54
0002
0003
0020
0030
,  // measure 55
0200
0300
2000
3000
,  // measure 56
0002
0003
0200
0300
,  // measure 57
0020
0030
2000
0000
,  // measure 58
300M
1001
1000
0100
,  // measure 59
0000
0000
0010
0000
0001
0000
1000
0001
,  // measure 60
1000
0010
0100
0001
,  // measure 61
1000
0000
0100
0000
0010
0000
0001
1000
,  // measure 62
0001
1001
0001
0100
,  // measure 63
0000
0000
0001
0000
0100
0000
0010
0100
,  // measure 64
0010
1000
0001
0010
,  // measure 65
0100
1000
0001
0001
,  // measure 66
0100
0110
0100
0001
,  // measure 67
0000
0000
0010
0000
0100
0000
1000
0001
,  // measure 68
1000
0001
0100
0010
,  // measure 69
1000
0000
0001
0000
0010
0000
0100
0010
,  // measure 70
0100
0110
0100
1000
,  // measure 71
0000
0000
0010
0000
1000
0000
0001
0010
,  // measure 72
0001
1000
0010
0100
,  // measure 73
0001
0100
0010
0010
,  // measure 74
0100
0000
0020
0000
0000
0000
0000
0030
;

//---------------dance-double - ----------------
#NOTES:
     dance-double:
     :
     Easy:
     9:
     0.284897,0.339368,0.065927,0.247225,0.000000,242.000000,234.000000,8.000000,30.000000,0.000000,0.000000,0.284897,0.339368,0.065927,0.247225,0.000000,242.000000,234.000000,8.000000,30.000000,0.000000,0.000000:
00000000
00000000
00000000
00000000
,
00000000
00000000
00000000
00000000
,
00000000
00000000
00000000
00000000
,
00000000
00000000
00000000
00000000
,
00001001
00000001
00000100
00000000
,
00000010
00010000
00001000
00000000
,
00100000
00010000
00100000
01000000
,
10000000
00000000
00010000
00000000
01000000
00100000
01000000
00000000
,
01100000
01000000
00010000
00000000
,
10000000
01000000
00100000
00000000
,
00010000
01000000
00001000
00010000
,
00000100
00000010
00000010
00000001
,
00001001
00000001
00000010
00000000
,
00000100
00010000
00001000
00000000
,
00010000
00000100
00001000
00000100
,
00010000
00000000
00001000
00000000
01000000
00010000
01000000
00000000
,
01100000
01000000
00010000
00000000
,
00100000
01000000
10000000
00000000
,
00010000
01000000
00001000
00010000
,
00000010
00000100
00000100
00000010
,
00020000
00000000
00030100
00010000
,
00002000
00000000
01003000
00001000
,
00010000
00000100
00001000
00000000
,
00000100
00000000
00000010
00000000
00000001
00001000
00000001
00000000
,
00000002
00000000
00000103
00000000
,
00002000
00000000
00003100
00000000
,
00000002
00000000
00002000
00000000
,
00003003
00000000
00000000
00000000
00001000
00000100
00001000
00000100
,
00020000
00000000
00030010
00010000
,
00002000
00000000
00103000
00001000
,
00100000
00010000
10000000
00000000
,
00010000
00000000
10000000
00000000
00010000
00100000
00010000
00000000
,
00020000
00000000
01030000
00000000
,
20000000
00000000
31000000
00000000
,
00020000
00000000
20000000
00000000
,
30030000
00000000
00000000
00000000
00010000
00100000
00010000
00100000
,
00002000
00000000
00013000
00000000
,
00000010
00000000
00001000
00000000
00000010
00000100
00000010
00000000
,
00002000
00000000
00003001
00000000
,
00000010
00000001
00001000
00001000
,
00000020
00000000
00010030
00000000
,
00001000
00000000
00100000
00000000
00010000
00100000
00010000
00000000
,
00200000
00000000
01300000
00000000
,
10000000
00010000
01000000
01000000
,
00002000
00000000
00013000
00000000
,
00000100
00000000
00001000
00000000
00000100
00000010
00000100
00000000
,
00002000
00000000
00003001
00000000
,
00000100
00000010
00010000
00010000
,
00002000
00000000
00103000
00000000
,
00010000
00000000
00100000
00000000
01000000
00100000
01000000
00000000
,
20000000
00000000
30010000
00000000
,
01000000
00001000
00010000
00010000
,
00002000
00000000
00003000
00000000
,
00000000
00000000
00000000
00000000
,
00020000
00030000
02000000
03000000
,
00200000
00300000
00002000
00003000
,
00020000
00030000
00000020
00000030
,
00000200
00000300
00002000
00000000
,
00003000
00011000
00001000
00100000
,
00000000
00000000
01000000
00000000
00100000
00000000
00010000
10000000
,
00010000
01000000
00001000
00010000
,
00000010
00000000
00001000
00000000
00000010
00000000
00000100
00000010
,
00000100
00000110
00000100
00000001
,
00000000
00000000
00001000
00000000
00000100
00000000
00010000
00001000
,
00010000
00001000
00100000
00010000
,
10000000
00100000
01000000
01000000
,
00001000
00011000
00001000
00100000
,
00000000
00000000
00001000
00000000
00010000
00000000
00000010
00000100
,
00000010
00001000
00000001
00000010
,
00000100
00000000
00001000
00000000
00000010
00000000
00010000
00000010
,
00010000
00011000
00010000
00000100
,
00000000
00000000
00010000
00000000
00001000
00000000
00100000
00010000
,
00100000
00010000
10000000
00100000
,
01000000
00001000
00010000
00010000
,
00001000
00000000
00020000
00000000
00000000
00000000
00000000
00030000
;

//---------------dance-single - ----------------
#NOTES:
     dance-single:
     :
     Beginner:
     5:
     0.190716,0.246813,0.082408,0.049445,0.000000,162.000000,152.000000,10.000000,6.000000,3.000000,0.000000,0.190716,0.246813,0.082408,0.049445,0.000000,162.000000,152.000000,10.000000,6.000000,3.000000,0.000000:
0000
0000
0000
0000
,
0000
0000
0000
0000
,
0000
0000
0000
0000
,
0000
0000
0000
0000
,
1M01
0000
1000
0000
,
0010
0010
0010
0000
,
0100
0000
0001
0000
,
1000
0000
0100
0100
,
0100
0000
0010
0000
,
0001
0001
0001
0000
,
1000
0000
0010
0000
,
0200
0000
0300
0000
,
1001
0000
0001
0000
,
0010
0010
0010
0000
,
0100
0000
1000
0000
,
0001
0000
0100
0100
,
0100
0000
0001
0000
,
1000
1000
1000
0000
,
0100
0000
0010
0000
,
0002
0000
0003
0000
,
1000
0000
1000
0000
,
0001
0000
0001
0000
,
0100
0010
0100
0000
,
0010
0100
0010
0000
,
1000
0000
0100
0000
,
0001
0000
0010
0000
,
1000
0000
2000
0000
,
3000
0000
0000
0000
,
0001
0000
0001
0000
,
1000
0000
1000
0000
,
0100
0010
0100
0000
,
0010
0100
0010
0000
,
0001
0000
0100
0000
,
1000
0000
0010
0000
,
0001
0000
0002
0000
,
0003
0000
0000
0000
,
1001
0000
1000
0000
,
0010
0100
0010
0000
,
0110
0000
0100
0000
,
0001
0000
0001
0000
,
1001
0000
1000
0000
,
0100
0010
0100
0000
,
0110
0000
0010
0000
,
0001
0000
0001
0001
,
0001
0000
1000
0000
,
0010
0100
0010
0000
,
0110
0000
0100
0000
,
0001
0000
0001
0000
,
1001
0000
1000
0000
,
0100
0010
0100
0000
,
0110
0000
0010
0000
,
0001
0000
0001
0000
,
M200
0000
0300
0000
,
0000
0000
0000
0000
,
0001
0000
1000
0000
,
0010
0000
0100
0000
,
0001
0000
1000
0000
,
0100
0000
0010
0000
,
M000
0000
0000
0001
,
0000
0100
0100
0100
,
0000
0010
0000
1000
,
0000
0001
0000
0010
,
0010
0010
0000
0100
,
0000
1000
1000
1000
,
0000
0001
0000
0100
,
0000
0010
0000
0010
,
0000
0110
0000
0100
,
0000
0001
0001
0001
,
0000
1000
0000
0001
,
0000
0010
0000
0100
,
0100
0100
0000
1000
,
0000
0001
0001
0001
,
0000
0100
0000
0010
,
0000
1000
0000
1000
,
0000
0000
0002
0000
0000
0000
0000
0003
;
