#VERSION:0.83;
#TITLE:The Real Thing;
#SUBTITLE:;
#ARTIST:2 Unlimited;
#TITLETRANSLIT:;
#SUBTITLETRANSLIT:;
#ARTISTTRANSLIT:;
#GENRE:;
#ORIGIN:;
#CREDIT:;
#BANNER:banner.png;
#BACKGROUND:The Real Thing-bg.png;
#PREVIEWVID:;
#JACKET:jacket.jpg;
#CDIMAGE:;
#DISCIMAGE:;
#LYRICSPATH:;
#CDTITLE:;
#MUSIC:The Real Thing.ogg;
#OFFSET:-0.122954;
#SAMPLESTART:53.425610;
#SAMPLELENGTH:12.000000;
#SELECTABLE:YES;
#BPMS:0.000=144.000;
#STOPS:;
#DELAYS:;
#WARPS:;
#TIMESIGNATURES:0.000=4=4;
#TICKCOUNTS:0.000=4;
#COMBOS:0.000=1;
#SPEEDS:0.000=1.000=0.000=0;
#SCROLLS:0.000=1.000;
#FAKES:;
#LABELS:0.000=Song Start;
#BGCHANGES:;
#KEYSOUNDS:;
#ATTACKS:
;

//---------------dance-single - ----------------
#NOTEDATA:;
#CHARTNAME:;
#STEPSTYPE:dance-single;
#DESCRIPTION:;
#CHARTSTYLE:;
#DIFFICULTY:Beginner;
#METER:2;
#RADARVALUES:0.122031,0.231858,0.040677,0.000000,0.000000,84.000000,80.000000,4.000000,0.000000,0.000000,0.000000,0.000000,0.000000,0.000000,0.122031,0.231858,0.040677,0.000000,0.000000,84.000000,80.000000,4.000000,0.000000,0.000000,0.000000,0.000000,0.000000,0.000000;
#CREDIT:Venom;
#NOTES:
0000
0000
0000
0000
,
0000
0000
0000
0000
,
0000
0000
0000
0000
,
0000
0000
0000
0000
,
1000
0000
1000
0000
,
0001
0000
0001
0000
,
0100
0000
0100
0000
,
0010
0000
0010
0000
,
1000
0000
1000
0000
,
0100
0000
0100
0000
,
0010
0000
0010
0000
,
0001
0000
0001
0000
,
0100
0000
0100
0000
,
0010
0000
0010
0000
,
1000
0000
1000
0000
,
0001
0000
0001
0000
,
1000
0000
0000
0000
,
0100
0000
0000
0000
,
0010
0000
0000
0000
,
0001
0000
0000
0000
,
0100
0000
0000
0000
,
0010
0000
0000
0000
,
1000
0000
0000
0000
,
0001
0000
0000
0000
,
1000
0000
1000
0000
,
1000
0000
0000
0000
,
0001
0000
0001
0000
,
0001
0000
0000
0000
,
0100
0000
0100
0000
,
0100
0000
0000
0000
,
0010
0000
0010
0000
,
0010
0000
0000
0000
,
1000
0000
0000
0000
,
0100
0000
0000
0000
,
0010
0000
0000
0000
,
0001
0000
0000
0000
,
0100
0000
0000
0000
,
0010
0000
0000
0000
,
1000
0000
0000
0000
,
0001
0000
0000
0000
,
1000
0000
0000
0000
,
0010
0000
0000
0000
,
0100
0000
0100
0000
,
0100
0000
0000
0000
,
0001
0000
0000
0000
,
0010
0000
0000
0000
,
0100
0000
0100
0000
,
0100
0000
0000
0000
,
1000
0000
1000
0000
,
0010
0000
0010
0000
,
0100
0000
0100
0000
,
0001
0000
0001
0000
,
0010
0000
1001
0000
,
0100
0000
1001
0000
,
0001
0000
1001
0000
,
1000
0000
1000
0000
,
0010
0000
0000
0000
,
1001
0000
0000
0000
;

//---------------dance-single - ----------------
#NOTEDATA:;
#CHARTNAME:;
#STEPSTYPE:dance-single;
#DESCRIPTION:;
#CHARTSTYLE:;
#DIFFICULTY:Easy;
#METER:6;
#RADARVALUES:0.289096,0.405752,0.132200,0.061015,0.000000,199.000000,186.000000,13.000000,6.000000,0.000000,0.000000,0.000000,0.000000,0.000000,0.289096,0.405752,0.132200,0.061015,0.000000,199.000000,186.000000,13.000000,6.000000,0.000000,0.000000,0.000000,0.000000,0.000000;
#CREDIT:Venom;
#NOTES:
0000
0000
0000
0000
,
0000
0000
0000
0000
,
0000
0000
0000
0000
,
0000
0000
0000
0000
,
1000
1000
1000
0000
,
0100
0100
0100
0000
,
0010
0010
0010
0000
,
0001
0001
0001
0000
,
1000
0010
1000
0010
,
0100
0001
0100
0001
,
0010
0100
0010
0100
,
1000
0001
1000
0001
,
1000
0010
1000
0010
,
0100
0001
0100
0001
,
0010
0100
0010
0100
,
1000
0001
1000
0001
,
1000
0010
0100
0000
,
0001
0010
0100
0000
,
1000
0100
0010
0001
,
0100
0010
1000
0000
,
0001
0001
0101
0000
,
1000
1000
1100
0000
,
0001
0010
0100
1000
,
0010
0100
0001
1000
,
0100
0010
0001
1000
,
0020
0200
0000
0330
,
0001
0001
1000
0000
,
1000
1000
0001
0000
,
1000
0001
0010
0100
,
2000
0002
0000
3003
,
1000
1000
0001
0001
,
0100
0200
0000
0300
,
0010
0010
1000
0100
,
0010
0010
0001
0100
,
0010
1000
0001
0010
,
0100
0010
0001
0000
,
1000
1000
0100
0010
,
0001
0001
0100
0010
,
1000
0100
0010
0100
,
1000
0001
1000
0000
,
1001
0000
0001
0100
,
0101
0000
1000
0100
,
1000
1000
0010
0010
,
0100
0100
0001
0001
,
1010
0000
1000
0001
,
0011
0000
0001
1000
,
0010
0010
0100
0100
,
0001
0001
1000
0000
,
0001
0010
0100
1000
,
0001
1000
0100
0010
,
0001
0100
0010
1000
,
0001
1000
0001
1000
,
0001
0010
0110
0110
,
1000
0010
0110
0110
,
0001
1000
1100
1100
,
1000
0001
0100
0010
,
0200
0000
0000
0300
,
1001
0000
0000
0000
;

//---------------dance-single - ----------------
#NOTEDATA:;
#CHARTNAME:;
#STEPSTYPE:dance-single;
#DESCRIPTION:;
#CHARTSTYLE:;
#DIFFICULTY:Medium;
#METER:8;
#RADARVALUES:0.376261,0.463716,0.132200,0.122031,0.005085,259.000000,246.000000,13.000000,12.000000,0.000000,0.000000,0.000000,0.000000,0.000000,0.376261,0.463716,0.132200,0.122031,0.005085,259.000000,246.000000,13.000000,12.000000,0.000000,0.000000,0.000000,0.000000,0.000000;
#CREDIT:Venom;
#NOTES:
// measure 0
0000
0000
0000
0000
,  // measure 1
0000
0000
0000
0000
,  // measure 2
0000
0000
0000
0000
,  // measure 3
0000
0000
0000
0000
,  // measure 4
1000
1000
0001
0001
,  // measure 5
0100
0100
0010
0010
,  // measure 6
1000
1000
0100
0100
,  // measure 7
0010
0010
0001
0001
,  // measure 8
1000
0010
1000
0000
0001
0000
0001
0000
,  // measure 9
1000
0100
1000
0000
0001
0000
0001
0000
,  // measure 10
0100
0001
0010
0000
0001
0000
0001
0000
,  // measure 11
0100
0001
0100
0000
0010
1000
0010
0000
,  // measure 12
1000
0001
0100
0000
0010
0000
0010
0000
,  // measure 13
0100
0001
1000
0000
0100
0000
0100
0000
,  // measure 14
0010
0001
1000
0000
0010
0000
0010
0000
,  // measure 15
0100
0001
0010
0000
0010
0001
0100
0000
,  // measure 16
0001
0000
0010
0000
0100
1000
0010
0000
,  // measure 17
0100
0000
0000
0000
0001
0000
0000
0000
1000
0000
0100
0000
0000
1000
0000
0000
,  // measure 18
0010
0010
0100
0100
,  // measure 19
0001
1000
0100
0000
1000
0001
0100
0000
,  // measure 20
0001
0000
1000
0000
0001
0010
1000
0000
,  // measure 21
0010
0000
0001
0000
1000
0010
0100
0000
,  // measure 22
0010
0010
1000
1000
,  // measure 23
0001
0001
0010
0010
,  // measure 24
0100
0000
1000
0000
0010
0100
0000
0002
,  // measure 25
0000
2000
0000
0000
0000
0000
3003
0000
,  // measure 26
0110
0000
0110
0000
0001
1000
0001
0000
,  // measure 27
0110
0000
0110
0000
1000
0001
1000
0000
,  // measure 28
0001
0000
0010
0000
0100
1000
0000
0020
,  // measure 29
0000
0200
0000
0000
0000
0000
0330
0000
,  // measure 30
0001
1000
0001
1000
0100
0000
0100
0000
,  // measure 31
1000
0001
2000
0002
0000
0000
3003
0000
,  // measure 32
1000
0010
0000
0100
0000
0100
0000
0001
,  // measure 33
0100
0001
0000
0010
0000
0010
0000
0001
,  // measure 34
1000
0010
0000
0100
0000
0100
0000
0010
,  // measure 35
0000
0010
0000
1000
0000
0001
0000
1000
,  // measure 36
0100
1000
0000
0001
0000
0001
0000
0010
,  // measure 37
0001
0010
0000
0100
0000
0100
0000
1000
,  // measure 38
0010
0100
0000
0010
0000
0010
0000
1000
,  // measure 39
0000
1000
0000
0001
0000
1000
0010
0200
,  // measure 40
0000
0010
0000
0310
0000
0100
0001
0020
,  // measure 41
0000
0100
0000
0130
0000
0010
0001
1000
,  // measure 42
0000
1000
0000
0001
0000
0001
0000
1000
,  // measure 43
0000
1000
0000
0010
0000
0100
0010
2000
,  // measure 44
0000
0001
0000
3001
0000
1000
0001
0200
,  // measure 45
0000
0010
0000
0310
0000
0100
0000
0010
,  // measure 46
1000
0001
0000
0010
0000
0100
0000
0010
,  // measure 47
0000
0010
0000
1001
0000
0000
0000
0000
,  // measure 48
1000
0100
1000
0000
0010
0000
0010
0000
,  // measure 49
0100
0001
0100
0000
0001
0000
0001
0000
,  // measure 50
0010
0100
0010
0000
0001
0000
0001
0000
,  // measure 51
1000
0010
0100
0000
0010
0100
0001
0000
,  // measure 52
1000
0100
0010
0000
0011
0000
1100
0000
,  // measure 53
0001
0100
0010
0000
1010
0000
0101
0000
,  // measure 54
1000
0001
0100
0000
0110
0000
1001
0000
,  // measure 55
0001
0010
0100
0000
0010
0001
1000
0000
,  // measure 56
0220
0000
0000
0330
,  // measure 57
1001
0000
0000
0000
;

//---------------dance-single - ----------------
#NOTEDATA:;
#CHARTNAME:;
#STEPSTYPE:dance-single;
#DESCRIPTION:;
#CHARTSTYLE:;
#DIFFICULTY:Hard;
#METER:12;
#RADARVALUES:0.536063,0.550663,0.244061,0.254230,0.127115,369.000000,345.000000,24.000000,25.000000,0.000000,0.000000,0.000000,0.000000,0.000000,0.536063,0.550663,0.244061,0.254230,0.127115,369.000000,345.000000,24.000000,25.000000,0.000000,0.000000,0.000000,0.000000,0.000000;
#CREDIT:Venom;
#NOTES:
0000
0000
0000
0000
,
0000
0000
0000
0000
,
0000
0000
0000
0000
,
0000
0000
0000
0000
,
1000
0000
0000
0100
0000
0000
0010
0000
0000
0001
0000
0000
0100
0000
0010
0000
,
0100
0000
0000
0001
0000
0000
0010
0000
0000
0100
0000
0000
1000
0000
0001
0000
,
1000
0000
0000
0010
0000
0000
0001
0000
0000
1000
0000
0000
0100
0000
0001
0000
,
0010
0000
0000
1000
0000
0000
0001
0000
0000
0100
0000
0000
1000
0000
0001
0000
,
1000
0010
0100
0001
0010
0100
0010
0100
,
0010
0001
0100
0010
1000
0001
1000
0001
,
1000
0100
0010
0001
0100
0010
0100
0010
,
1000
0100
1000
0100
0001
0100
0001
0100
,
1000
0010
0100
0001
1000
0001
1000
0001
,
1000
0100
0010
0001
0100
0010
0100
0010
,
1000
0010
0100
0001
1000
0001
1000
0001
,
1000
0010
1000
0010
0001
0010
0001
0010
,
1000
0100
0010
0001
0100
0010
1000
0000
,
0001
0000
0010
0000
0100
0000
1000
0000
0010
0000
0100
0000
0000
0101
0000
0000
,
0001
0010
0100
0100
1000
0010
0100
0100
,
1000
0100
0001
0010
0100
0010
0001
0000
,
1000
0010
1000
0100
0001
0010
1000
0000
,
1000
0100
0001
0100
0010
0001
0100
0000
,
0001
0100
1000
0100
0001
0010
1000
0010
,
0001
0001
1000
1000
0010
0010
0100
0100
,
2001
0000
3020
0000
0130
0001
0000
0020
,
0000
0200
0000
0000
0000
0000
0330
0000
,
1001
0000
0000
0000
1001
0000
0000
0001
0000
0200
0010
0000
0310
0000
0000
0000
,
1001
0000
0000
0000
1001
0000
0000
1000
0000
0200
0010
0000
0310
0000
0000
0000
,
0012
0000
2003
0000
3010
0100
0000
0002
,
0000
2000
0000
0000
0000
0000
3003
0000
,
2000
0000
3100
0000
2000
0000
3100
0000
0010
0001
0000
0010
0001
0000
0000
0000
,
0002
0103
0002
0200
0000
0000
0303
0000
,
0001
0000
0010
0000
0100
0000
1000
0000
0010
0100
0010
0000
1000
0000
0001
0000
,
0010
0000
0100
0000
1000
0000
0001
0000
1000
0001
1000
0000
0001
0000
0100
0000
,
0010
1000
0100
0010
0000
0001
0000
0102
,
0000
1003
0000
2100
0000
3001
0000
1000
,
0001
0000
0100
0000
0010
0000
1000
0000
0010
1000
0010
0000
1000
0000
0100
0000
,
0010
0000
0001
0000
0100
0000
0010
0000
0100
0001
0100
0000
0001
0000
0010
0000
,
0100
1000
0010
0100
0000
0001
0000
0012
,
0000
1003
0000
2010
0000
3001
0100
0010
,
0000
1000
1000
1000
0000
0100
0100
0010
,
0000
0001
0001
0001
0000
0100
0010
2010
,
0000
3001
0000
0012
0000
1003
0000
0110
,
0000
0101
0000
1001
0000
1000
0100
0010
,
0000
0001
0001
0001
0000
0100
0010
1010
,
0000
0010
0100
0001
0000
1000
0000
0100
,
0010
0001
0000
0101
0000
1100
0000
0110
,
0000
1001
0000
0220
0000
0000
0330
0000
,
1000
0100
0010
0001
0100
0010
0100
0010
,
0100
0001
0010
0100
1000
0001
1000
0001
,
1000
0010
0001
0010
0100
0010
0100
0010
,
1000
0100
1000
0100
0001
0100
0001
0100
,
1000
0000
0010
0000
0100
0000
0001
0000
1000
0001
0000
0000
1000
0001
0000
0000
,
1000
0000
0010
0000
0100
0000
0001
0000
0010
0100
0000
0000
0010
0100
0000
0000
,
0010
0000
0001
0000
0100
0000
0010
0000
1000
0010
0000
0000
0100
0001
0000
0000
,
1000
0100
0001
0100
0010
0100
1000
0100
,
0220
0000
0000
0330
,
1001
0000
0000
0000
;
