#TITLE:Still Down to Get Down (ft. bruce take nap & PHAUN);
#SUBTITLE:;
#ARTIST:Discoholic;
#TITLETRANSLIT:;
#SUBTITLETRANSLIT:;
#ARTISTTRANSLIT:;
#GENRE:NU-DISCO;
#CREDIT:;
#BANNER:;
#BACKGROUND:;
#LYRICSPATH:;
#CDTITLE:;
#MUSIC:Still Down to Get Down (ft. bruce take nap & PHAUN).ogg;
#OFFSET:1.035001;
#SAMPLESTART:67.834564;
#SAMPLELENGTH:16.695648;
#LASTBEATHINT:0.067085;
#SELECTABLE:YES;
#BPMS:0.000000=115.000000
;
#STOPS:
;
#BGCHANGES:;
#KEYSOUNDS:;
#ATTACKS:;

//---------------dance-single - ----------------
#NOTES:
     dance-single:
     :
     Hard:
     12:
     0.405125,0.454626,0.267833,0.228445,0.043326,360.000000,326.000000,34.000000,29.000000,0.000000,0.000000,0.405125,0.454626,0.267833,0.228445,0.043326,360.000000,326.000000,34.000000,29.000000,0.000000,0.000000:
0000
0000
0000
0000
,
0000
0000
0000
0000
,
0000
0000
0000
0000
,
0000
0000
0000
0000
,
0000
0000
0000
0000
,
0001
0000
0000
0000
0001
0000
0000
0000
0001
0000
0010
0000
0000
0000
0010
0001
,
0010
0001
1000
0010
0000
0100
0001
0100
,
0010
0000
0010
0000
0010
1000
0001
1000
,
0001
0010
1000
0010
0001
0100
0001
0000
,
1000
0001
1000
0000
1001
0000
1000
0000
0001
0000
0010
0000
0100
0000
1000
0000
,
0001
0010
0100
0010
0001
1000
0001
0200
,
0010
0000
0001
0000
0310
1000
0000
0000
,
0002
0000
0203
0000
2300
0000
3100
0010
,
1000
0001
0010
0100
1000
0100
1000
0001
,
0010
0100
0010
0001
2000
0000
0001
0002
,
0000
0000
0000
0000
0000
3003
0001
0001
,
1000
1000
0001
0001
1000
1000
0001
0001
,
0000
0000
0010
0001
0100
0000
1001
0000
,
0001
0010
0001
1000
0020
0000
2030
0000
,
3100
0010
0001
1000
0010
0000
0010
0000
,
0100
0000
0101
0000
0011
0000
1000
1100
,
0000
0100
0010
0001
1000
0010
0100
0010
,
1000
0001
0010
0100
1000
0100
0010
0002
,
1000
0000
1000
0000
1003
0001
1000
0000
,
0020
2030
3200
0320
,
0032
0000
0100
0000
0013
0100
1000
0001
,
1000
0000
0010
0000
0100
0000
0001
0000
0000
0000
1000
0000
0000
0001
0000
0000
,
1000
0000
1000
0010
1000
0000
0010
0000
0000
0000
0100
0000
0001
0000
0100
0000
,
0010
1000
0001
0010
0100
0000
0010
0001
,
0100
0000
0101
0000
0100
0010
1000
0000
,
0001
0000
1001
0000
0001
1000
0010
1010
,
0000
0001
0100
0101
0000
0010
1000
1010
,
0010
0010
1010
0011
,
1000
0100
0001
0100
1000
0010
0100
0001
,
2000
3010
0200
0301
,
0001
0010
1000
0010
0001
0100
0010
1000
,
0001
1000
0002
0000
2003
0000
3100
0010
,
0001
0000
0000
1000
0000
0000
0000
0000
0010
0000
0000
0000
0100
0000
0000
0000
0001
0000
0000
0000
0010
0000
0000
0000
,
0100
0000
0010
0002
0000
0000
1003
1010
,
0000
1000
0001
0011
0000
1000
0100
1100
,
1000
1000
0101
1001
,
1100
0100
0010
0001
0010
0100
0010
0001
,
2000
3001
0200
0310
,
1000
0010
0100
0001
0010
0100
1000
0001
,
1000
0100
0010
0100
1000
0000
0001
0100
,
0010
0000
1000
0000
0001
0000
0010
0000
0001
0000
1000
0000
,
1100
0000
1100
0000
0101
0000
0100
0110
,
0000
0100
0001
1001
0000
1000
0100
0110
,
0020
0030
0110
1001
,
0001
0010
1000
0010
0001
0100
0010
1000
,
0002
0013
0200
1300
,
1000
0100
0001
0100
1000
0010
0100
0001
,
1000
0100
0020
0000
0230
0000
1300
0010
,
0100
0000
0102
0000
0013
0000
0100
1000
,
0010
0000
0100
0000
0001
0000
1000
1001
,
0000
0001
0010
0110
0000
0100
1000
1010
,
0010
0010
0110
0101
,
2001
0001
0001
0001
,
0010
0010
0100
3100
,
1002
1000
1000
0100
,
0010
0100
0100
1003
;

//---------------dance-single - ----------------
#NOTES:
     dance-single:
     :
     Medium:
     8:
     0.294841,0.311060,0.236323,0.031510,0.000000,262.000000,232.000000,30.000000,4.000000,0.000000,0.000000,0.294841,0.311060,0.236323,0.031510,0.000000,262.000000,232.000000,30.000000,4.000000,0.000000,0.000000:
0000
0000
0000
0000
,
0000
0000
0000
0000
,
0000
0000
0000
0000
,
0000
0000
0000
0000
,
0000
0000
0000
0000
,
1000
1000
1000
0000
,
0001
1000
0001
0000
,
0001
0001
0001
0000
,
1000
0100
0010
0001
0010
0100
1000
0000
,
0010
1001
0001
1000
,
0010
1000
0100
0010
,
0001
0100
0001
1000
,
1001
0000
0011
0000
1001
0000
0010
1000
,
0001
0010
0001
0100
,
0001
0000
1000
0000
0100
0000
0010
0100
,
1000
0000
0100
0000
1000
0000
0010
0100
,
0002
1003
2000
3001
,
0100
0000
0010
0100
0001
0000
1010
0000
,
1000
0000
0001
0010
0001
0000
0010
0000
,
0100
0000
1000
0100
1000
0000
0100
0000
,
0010
0000
1001
0000
0101
0000
0001
0010
,
0100
0010
0001
1000
,
0010
1000
0100
0010
,
0100
1000
0010
0100
,
0002
0013
0020
0130
,
1000
0000
1100
0000
0100
0000
1000
0010
,
0100
0010
0100
0001
,
1000
0001
0010
0001
0000
0010
0001
0010
,
0100
0000
0010
0000
0001
0000
1000
0010
,
0100
0000
0001
0000
0010
0001
0010
0000
,
0001
0000
1000
0000
0010
1000
0000
0110
,
0000
0000
0000
1001
0000
0000
0000
0110
,
0000
0000
1010
0011
,
1000
0100
0010
0001
,
1000
0000
0001
1000
0010
0000
0100
0000
,
0010
1000
0001
0010
,
0010
0001
1000
0000
0100
0000
0010
0100
,
1000
1000
0001
0001
,
1000
0000
0001
0100
0000
0000
0000
0110
,
0000
0000
0000
1010
0000
0000
0000
0101
,
0000
0000
0011
1100
,
0100
0010
0001
1000
,
0010
0000
0100
0010
0100
0000
0001
0000
,
1000
0001
0010
0001
,
1000
0100
0010
0100
1000
0000
0001
0100
,
0010
1000
0001
0010
,
0001
0000
1000
0000
0100
0000
0000
0110
,
0000
0000
0000
0011
0000
0000
0000
1100
,
0000
0000
1001
0110
,
1000
0001
0010
0001
,
1000
0000
0010
0100
0010
0000
0100
0000
,
0010
1000
0001
0100
,
0010
1000
0001
0000
0100
0000
0001
0100
,
0010
0100
0101
0001
,
1000
0000
1100
0000
1000
0000
0000
1001
,
0000
0000
0000
0101
0000
0000
0000
1010
,
0000
0000
1001
0110
,
1000
0100
0010
0001
,
1000
0001
0100
0100
,
0001
0010
0100
1000
,
0001
1000
0100
0010
;

//---------------dance-single - ----------------
#NOTES:
     dance-single:
     :
     Easy:
     5:
     0.165426,0.238292,0.015755,0.000000,0.000000,147.000000,145.000000,2.000000,0.000000,0.000000,0.000000,0.165426,0.238292,0.015755,0.000000,0.000000,147.000000,145.000000,2.000000,0.000000,0.000000,0.000000:
0000
0000
0000
0000
,
0000
0000
0000
0000
,
0000
0000
0000
0000
,
0000
0000
0000
0000
,
0000
0000
0000
0000
,
1000
0000
1000
0000
,
0010
0000
0000
0000
,
0100
0000
0100
0000
,
0001
0010
0001
0010
,
0000
1001
0001
0000
,
1000
0000
0010
1000
,
0100
0000
1000
0000
,
0001
0010
0100
1000
,
0001
0000
1000
0000
,
0010
0000
1000
0001
,
0100
0000
0010
0000
,
1000
1000
1000
1000
,
0000
0001
1000
0110
,
0010
1000
0001
0001
,
1000
0010
1000
1000
,
0000
0100
1000
0010
,
0000
0100
0000
0001
,
0000
1000
0000
0001
,
1000
0000
0001
0000
,
0100
0010
1000
0001
,
1000
0000
0000
0000
,
0001
0000
0000
0100
,
0010
0000
0000
0100
,
0001
0000
1000
0000
,
0100
0000
0000
0010
,
0010
0000
0000
0000
0000
0000
0000
0001
,
0000
0000
0000
1000
0000
0000
0000
0001
,
0000
0000
0100
0010
,
1000
0010
0100
0001
,
1000
0000
1000
0000
,
0001
0010
0100
1000
,
0001
0000
1000
0000
,
0010
0000
0100
0000
,
0001
0000
0000
0000
0000
0000
0000
1000
,
0000
0000
0000
0100
0000
0000
0000
1000
,
0000
0000
0001
1000
,
0010
0000
0100
0000
,
0001
1000
0001
0000
,
1000
0000
0100
0000
,
0010
0100
0010
0001
,
1000
0000
0001
0000
,
0100
0000
0100
0000
0010
0000
0000
1000
,
0000
0000
0000
0001
0000
0000
0000
0100
,
0000
0000
0010
0100
,
0001
0010
0100
1000
,
0001
0100
0001
1000
,
0001
0010
0100
1000
,
0100
1000
0010
1000
,
0000
0001
0001
0000
,
1000
0000
1000
0000
0001
0000
0000
0100
,
0000
0000
0000
0001
0000
0000
0000
0010
,
0000
0000
0100
1000
,
0001
0000
0001
0000
,
0001
0000
0001
0000
,
1000
0000
1000
0000
,
1000
0000
0001
0000
;

//---------------dance-single - ----------------
#NOTES:
     dance-single:
     :
     Beginner:
     3:
     0.115911,0.190634,0.023632,0.000000,0.000000,103.000000,100.000000,3.000000,0.000000,0.000000,0.000000,0.115911,0.190634,0.023632,0.000000,0.000000,103.000000,100.000000,3.000000,0.000000,0.000000,0.000000:
// measure 0
0000
0000
0000
0000
,  // measure 1
0000
0000
0000
0000
,  // measure 2
0000
0000
0000
0000
,  // measure 3
0000
0000
0000
0000
,  // measure 4
0000
0000
0000
0000
,  // measure 5
1000
0000
0000
0000
,  // measure 6
0010
0000
0000
0000
,  // measure 7
0100
0000
0000
0000
,  // measure 8
0001
0000
0001
0000
,  // measure 9
1000
1001
0001
0000
,  // measure 10
1000
0000
0010
0000
,  // measure 11
0000
0000
0000
0000
,  // measure 12
0100
0000
0010
0000
,  // measure 13
1000
0000
1000
0000
,  // measure 14
0001
0000
0001
0000
,  // measure 15
0100
0000
0000
0000
,  // measure 16
0010
0000
0000
0000
,  // measure 17
0000
0100
0000
1001
,  // measure 18
0001
0000
1000
1000
,  // measure 19
0001
0000
1000
1000
,  // measure 20
0000
0010
0000
0000
,  // measure 21
0100
0000
0000
0000
,  // measure 22
0001
0000
0000
0000
,  // measure 23
0010
0000
0000
0000
,  // measure 24
0100
0000
1000
0000
,  // measure 25
1001
0000
0000
0000
,  // measure 26
0010
0000
0000
0000
,  // measure 27
1000
0000
0000
0000
,  // measure 28
0100
0000
0000
0000
,  // measure 29
1000
1000
0000
0000
,  // measure 30
0001
0001
0000
0000
,  // measure 31
0100
0000
0010
0000
,  // measure 32
1000
0000
0001
1000
,  // measure 33
0010
0000
0000
0000
,  // measure 34
0100
0000
0100
0000
,  // measure 35
0001
0000
0000
0000
,  // measure 36
1000
1000
0001
0000
,  // measure 37
0100
0000
0000
0000
,  // measure 38
0010
0000
0000
0000
,  // measure 39
1000
0000
0001
0000
,  // measure 40
0010
0000
0100
0010
,  // measure 41
0100
0000
1000
0000
,  // measure 42
0010
0000
0000
0000
,  // measure 43
0100
0000
0001
0000
,  // measure 44
0010
0000
0000
0000
,  // measure 45
0100
0000
0000
0000
,  // measure 46
1000
0000
0000
0000
,  // measure 47
0001
0000
1000
0000
,  // measure 48
0010
0000
0100
0010
,  // measure 49
0100
0000
0010
0000
,  // measure 50
1000
0000
0100
0100
,  // measure 51
0010
0000
0001
0000
,  // measure 52
1000
1000
0100
1000
,  // measure 53
0000
0001
0001
0000
,  // measure 54
1000
1000
0000
0000
,  // measure 55
0010
0000
0100
0000
,  // measure 56
0001
0000
1000
0001
,  // measure 57
0100
0000
0100
0000
,  // measure 58
0100
0000
0100
0000
,  // measure 59
0010
0000
0010
0000
,  // measure 60
0010
0000
0010
0000
;
