#VERSION:0.83;
#TITLE:Stardust;
#SUBTITLE:;
#ARTIST:Jay Hardway;
#TITLETRANSLIT:;
#SUBTITLETRANSLIT:;
#ARTISTTRANSLIT:;
#GENRE:;
#ORIGIN:;
#CREDIT:;
#BANNER:Stardust.png;
#BACKGROUND:Stardust-bg.png;
#PREVIEWVID:;
#JACKET:Stardust-jacket.png;
#CDIMAGE:;
#DISCIMAGE:;
#LYRICSPATH:;
#CDTITLE:;
#MUSIC:Stardust.ogg;
#OFFSET:-0.273991;
#SAMPLESTART:11.523990;
#SAMPLELENGTH:13.764625;
#SELECTABLE:YES;
#BPMS:0.000=128.000,
16.000=64.000,
20.000=60.907,
21.000=62.568,
22.000=63.394,
23.000=64.519,
24.000=65.826,
25.000=67.457,
26.000=68.214,
27.000=69.522,
28.000=70.908,
29.000=72.029,
30.000=73.410,
31.000=74.468,
32.000=75.432,
33.000=77.150,
34.000=77.833,
35.000=79.538,
36.000=80.989,
37.000=83.507,
38.000=87.875,
39.000=93.182,
40.000=94.914,
41.000=96.689,
42.000=99.313,
43.000=100.620,
44.000=103.830,
45.000=109.493,
46.000=114.150,
47.000=115.875,
48.000=117.658,
49.000=120.866,
50.000=124.045,
51.000=123.726,
52.000=128.000,
112.000=64.000,
114.000=128.000,
206.000=64.000,
208.000=128.000,
240.000=64.000;
#STOPS:;
#DELAYS:;
#WARPS:;
#TIMESIGNATURES:0.000=4=4;
#TICKCOUNTS:0.000=4;
#COMBOS:0.000=1;
#SPEEDS:0.000=1.000=0.000=0,
12.000=6.000=4.000=0,
16.000=1.000=0.000=0,
138.000=4.000=2.000=0,
142.000=1.000=0.000=0,
236.000=6.000=4.000=0,
240.000=1.000=0.000=0;
#SCROLLS:0.000=1.000,
16.000=0.500,
52.000=1.000,
142.000=0.000,
142.500=1.000,
143.000=0.000,
143.500=1.000,
177.500=0.000,
178.500=1.000;
#FAKES:;
#LABELS:0.000=Song Start;
#BGCHANGES:;
#KEYSOUNDS:;
#ATTACKS:
;

//---------------dance-single - ----------------
#NOTEDATA:;
#CHARTNAME:;
#STEPSTYPE:dance-single;
#DESCRIPTION:;
#CHARTSTYLE:;
#DIFFICULTY:Hard;
#METER:13;
#RADARVALUES:0.455681,0.449690,0.219984,0.597099,0.259267,406.000000,378.000000,28.000000,76.000000,119.000000,0.000000,1.000000,0.000000,0.000000,0.455681,0.449690,0.219984,0.597099,0.259267,406.000000,378.000000,28.000000,76.000000,119.000000,0.000000,1.000000,0.000000,0.000000;
#CREDIT:Pilgrimsito;
#NOTES:
// measure 0
2001
0000
0000
0000
3020
0000
0000
0000
0130
0001
0000
0001
0100
0000
0010
0000
,  // measure 1
1000
0000
0100
0000
2000
0000
0000
0000
3010
0100
0000
0100
0020
0000
0000
0030
,  // measure 2
1002
0000
0000
0000
0023
0000
0000
0000
0130
1000
0000
1000
0100
0000
0010
0000
,  // measure 3
2M02
00M0
0M00
00M0
0M00
00M0
0M00
00M0
0M00
00M0
0M00
00M0
0M00
00M0
0M00
00M0
,  // measure 4
3M03
0000
0000
0000
,  // measure 5
00M1
M100
00M1
M100
00M1
M100
00M1
M100
,  // measure 6
001M
M100
001M
M100
00M1
1M00
00M1
1M00
,  // measure 7
010M
10M0
010M
10M0
010M
10M0
010M
10M0
,  // measure 8
0M10
M100
00M1
M100
00M1
M100
00M1
M100
,  // measure 9
001M
1M00
00M1
1M00
00M1
1M00
00M1
1M00
,  // measure 10
01M0
100M
01M0
100M
01M0
M001
01M0
M001
,  // measure 11
01M0
100M
00M1
1M00
001M
1M00
00M1
1M00
,  // measure 12
01M0
M001
01M0
M010
010M
10M0
010M
M010
,  // measure 13
010M
0100
1000
1000
0001
0001
0100
0100
,  // measure 14
0010
0010
1000
1000
0010
0010
1000
1000
,  // measure 15
0001
0001
0100
0100
0010
0010
1000
1000
,  // measure 16
0001
0001
1000
1000
0100
0100
0010
0010
,  // measure 17
0002
0100
0100
0100
,  // measure 18
0203
1000
1000
1000
,  // measure 19
2300
0010
0010
0010
,  // measure 20
3020
0000
0001
0000
0001
0000
0001
0030
,  // measure 21
1002
0000
0100
0000
1000
0000
0100
0003
,  // measure 22
0021
0000
0100
0000
0001
0000
0100
0030
,  // measure 23
1200
0000
0010
0000
1000
0000
0010
0300
,  // measure 24
2001
0000
0010
0000
0001
0000
0010
3000
,  // measure 25
0120
0000
1000
0000
0100
0000
0001
0030
,  // measure 26
0210
0000
0001
0000
0010
0000
1000
0300
,  // measure 27
0120
1000
0001
1000
,  // measure 28
0200
0000
0000
0000
0000
0000
0000
0330
0001
0000
0010
0000
0100
0000
0001
0000
,  // measure 29
0100
1000
0010
0100
0010
1000
0001
0010
,  // measure 30
1000
0010
0001
0100
1000
0100
0010
1000
,  // measure 31
0100
0001
0100
1000
0001
0100
0010
0100
,  // measure 32
0001
0010
1000
0010
0200
2300
3002
0203
,  // measure 33
0320
2030
3200
0320
0032
2003
3020
0230
,  // measure 34
0302
0000
0023
0000
0230
0000
2300
0000
3004
M000
M000
M000
M000
M000
M000
M000
,  // measure 35
M000
M000
M000
M000
M000
M000
M000
M000
M003
0000
0000
0000
0000
0000
0000
0000
,  // measure 36
0100
0010
1001
0000
1010
1000
0200
0000
,  // measure 37
1300
0001
0000
1000
0001
0000
0100
0000
1000
0000
0100
0000
0002
0000
0000
0000
,  // measure 38
0103
0010
0000
0100
0010
0000
1000
0000
0200
0000
0000
0300
0110
0000
1000
0000
,  // measure 39
0200
0000
0000
0300
0110
0000
1000
0000
0020
0000
0000
0030
0110
0000
1000
0000
,  // measure 40
0001
0100
0000
0001
0100
0000
0010
0000
0100
0000
0001
0000
2000
0000
0000
0000
,  // measure 41
3100
0010
0000
0100
0010
0000
0001
0000
0100
0000
0001
0000
0020
0000
0000
0000
,  // measure 42
0031
1000
0000
0001
1000
0000
0010
0000
0200
0000
0000
0300
0101
0000
0100
0000
,  // measure 43
2000
0000
0000
3000
1100
0000
0100
0000
0002
0000
0000
0003
0101
0000
0100
0000
,  // measure 44
0010
0010
0200
0300
0000
0000
0002
0000
,  // measure 45
1003
0001
0000
1000
0001
0000
0010
0000
1000
0000
0010
0000
0002
0000
0000
0000
,  // measure 46
0013
0100
0000
0010
0100
0000
1000
0000
0200
0000
0000
0300
0011
0000
1000
0000
,  // measure 47
0200
0000
0000
0300
0011
0000
1000
0000
0020
0000
0000
0030
0101
0000
1000
0000
,  // measure 48
0001
0010
0000
0001
0010
0000
0100
0000
0010
0000
0001
0000
2000
0000
0000
0000
,  // measure 49
3010
0100
0000
0010
0100
0000
0001
0000
0010
0000
0001
0000
0200
0000
0000
0000
,  // measure 50
0301
1000
0000
0001
1000
0000
0010
0000
0200
0000
0000
0300
1001
0000
0010
0000
,  // measure 51
0200
0000
0000
0000
0000
0000
0300
0000
1001
0000
0000
0000
1000
0000
0000
0000
0200
0000
0000
0000
0302
0000
0000
0000
0203
0000
0000
2300
0000
0000
3020
0000
,  // measure 52
0030
0000
0100
0000
1002
0000
0000
0000
1003
0100
0000
0100
2000
0000
0000
0000
,  // measure 53
3010
0000
0100
0000
0002
0000
0000
0000
0013
1000
0000
1000
0010
0000
0001
0000
,  // measure 54
0200
0000
0000
0300
0210
0000
0000
0000
0301
1000
0000
1000
0001
0000
0100
0000
,  // measure 55
0020
0000
0000
0030
0120
0000
0000
0000
1030
0001
0000
0001
1000
0000
0100
0000
,  // measure 56
0020
0000
0000
0030
0021
0000
0000
0000
0130
1000
0000
1000
0200
0000
0000
0000
,  // measure 57
0310
0000
0001
0000
2000
0000
0000
0000
3100
0001
0000
0001
0100
0000
1000
0000
,  // measure 58
0020
0000
0000
0000
0230
0000
0000
0000
0301
0010
0000
0010
0001
0000
0100
0000
,  // measure 59
M220
000M
M000
000M
M000
000M
M000
000M
M000
000M
M000
000M
M000
000M
M000
000M
,  // measure 60
M330
MMMM
0000
0000
;
