#TITLE:尊師;
#SUBTITLE:~The Guru~;
#ARTIST:rider;
#TITLETRANSLIT:Sonshi;
#SUBTITLETRANSLIT:;
#ARTISTTRANSLIT:;
#GENRE:HARDSTYLE;
#CREDIT:;
#BANNER:Sonshi ~The Guru~.png;
#BACKGROUND:Sonshi ~The Guru~-bg.png;
#LYRICSPATH:;
#CDTITLE:cdtitle.png;
#MUSIC:Sonshi ~The Guru~.ogg;
#OFFSET:-1.593000;
#SAMPLESTART:89.994003;
#SAMPLELENGTH:15.000000;
#SELECTABLE:YES;
#DISPLAYBPM:76.000000:152.000000;
#BPMS:0.000000=152.000000
,96.000000=76.000000
,112.000000=152.000000
,208.000000=304.000000
,214.000000=152.000000
;
#STOPS:215.000000=1.184000
;
#BGCHANGES:-4.500=Sonshi ~The Guru~.avi=1.000=0=0=0=StretchNoLoop==CrossFade_Fastest==,
99999=-nosongbg-=1.000=0=0=0 // don't automatically add -songbackground-
;
#KEYSOUNDS:;
#ATTACKS:;

//---------------dance-single - Daff_4K----------------
#NOTES:
     dance-single:
     Daff_4K:
     Beginner:
     4:
     0.179386,0.227145,0.103975,0.039990,0.000000,157.000000,144.000000,13.000000,5.000000,0.000000,0.000000,0.179386,0.227145,0.103975,0.039990,0.000000,157.000000,144.000000,13.000000,5.000000,0.000000,0.000000:
0000
0000
0000
0000
,
0000
0000
0000
0000
,
0000
0000
0000
0000
,
0000
0000
0000
0000
,
1000
0000
1000
0000
,
0001
0000
0001
0000
,
0100
0100
0100
0000
,
0020
0000
0000
0030
,
0000
0110
0000
1001
,
0000
0100
0100
0100
,
0100
0000
1000
0000
,
0010
0000
0100
0100
,
0000
0110
0000
1001
,
0000
0010
0010
0010
,
0010
0000
0001
0000
,
0200
0000
0000
0300
,
0000
0110
0000
1001
,
0000
0100
0100
0100
,
0100
0000
0001
0000
,
0010
0000
0100
0100
,
0000
0110
0000
1001
,
0000
0010
0010
0010
,
0010
0000
1000
0000
,
0200
0000
0300
0000
,
1001
0000
0000
0000
,
0010
0000
0010
0000
,
0100
0000
0100
0000
,
0001
0000
1000
0000
,
0001
0000
0000
0100
,
0200
0000
0300
0000
,
0010
0000
0000
1000
,
1000
0000
0001
0000
,
1000
0000
0000
0100
,
0200
0000
0300
0000
,
0010
0000
0000
0001
,
0001
0000
0000
0000
,
1001
0000
1000
0000
,
1000
0000
1000
0000
,
0010
0000
0010
0000
,
0100
0000
0100
0000
,
0001
0000
0001
0000
,
0001
0000
0001
0000
,
0010
0000
0010
0000
,
0100
0000
0100
0000
,
1000
0000
1000
0000
,
0001
0001
0001
0000
,
0010
0000
0010
0000
,
0100
0100
0100
0000
,
1000
1000
1000
0000
,
0001
0001
0001
0000
,
0100
0000
0010
0000
,
0100
0000
0010
0000
,
1001
0000
0000
0000
,
0000
0000
0000
0000
,
1000
0000
0001
0000
,
1000
1000
1000
0000
,
0010
0000
0100
0000
,
0001
0000
1000
0000
,
0001
0000
1000
0000
,
0001
0001
0001
0000
,
0010
0000
0100
0000
,
1000
0000
0001
0001
,
0000
1000
1000
0000
,
0010
0000
0100
0100
,
0100
0000
0001
0000
,
1000
1000
1000
0000
,
0001
0001
0001
0000
,
0010
0000
0100
0100
,
0100
0000
1001
0000
,
0010
0010
0010
0000
,
1001
0000
0000
0100
,
0100
0000
0000
0000
;

//---------------dance-single - Daff_4K----------------
#NOTES:
     dance-single:
     Daff_4K:
     Easy:
     6:
     0.285646,0.397505,0.311925,0.351916,0.000000,250.000000,211.000000,39.000000,44.000000,0.000000,0.000000,0.285646,0.397505,0.311925,0.351916,0.000000,250.000000,211.000000,39.000000,44.000000,0.000000,0.000000:
0000
0000
0000
0000
,
0000
0000
0000
0000
,
0000
0000
0000
0000
,
0000
0000
0000
0000
,
1000
1000
0001
0001
,
0100
0100
0010
0010
,
1000
0001
0010
0100
,
2002
0000
0000
3003
,
0000
0220
0330
2002
,
3003
0010
0001
0100
,
1000
1000
0010
0100
,
0001
0010
0100
1000
,
0000
2002
3003
0220
,
0330
0001
0010
1000
,
0100
0100
0010
0010
,
2002
0000
0000
3003
,
0000
0220
0330
2002
,
3003
0010
1000
0100
,
0001
0001
0010
0100
,
1000
0010
0100
0001
,
0000
2002
3003
0220
,
0330
1000
0010
0001
,
0100
0100
0010
0010
,
2002
0000
0000
3003
,
2000
0000
3000
0001
0002
0000
0003
0000
,
0200
0000
0300
0010
0020
0000
2030
0000
,
3002
0000
0003
1000
2000
0000
3000
0000
,
0200
0000
0300
0010
0020
0000
0032
0000
,
2003
0000
3010
0100
,
0002
0000
0013
0000
,
0200
0000
1300
0001
,
2000
0000
3010
0100
,
0002
0000
0013
0100
,
2000
0000
3010
0000
,
0200
0000
0301
1000
,
0200
0000
0300
0000
,
0110
0000
1001
0000
,
0001
0100
1000
0010
,
0100
0000
1001
0000
,
1000
0001
0010
0100
,
0110
0000
1001
0000
,
1000
0100
0001
0010
,
0100
0000
1001
0000
,
0020
0100
0130
0000
,
1001
0001
0100
1000
,
0100
0010
1000
0001
,
1001
1000
0100
0001
,
0100
0010
0001
1000
,
1001
0001
0010
1000
,
1001
1000
0010
0001
,
1000
0010
0100
0001
,
0010
0100
1000
0001
,
2002
0000
0000
0000
,
0000
0000
0000
3003
,
1001
1000
0100
0010
,
0011
0001
1000
0010
,
0110
0100
0001
1000
,
0100
0010
0001
0000
,
1001
0001
0100
0010
,
1010
1000
0001
0010
,
0110
0100
1000
0001
,
0100
0010
1000
0000
,
1001
0001
0100
0010
,
1010
1000
0100
0010
,
0011
0001
0100
1000
,
0010
0001
1000
0000
,
1001
1000
0100
0010
,
0001
1000
0010
0100
,
1001
0110
1001
0000
,
0110
1001
0110
0000
,
1001
0000
0000
0020
,
0130
0000
0000
0000
;

//---------------dance-single - Daff_4K----------------
#NOTES:
     dance-single:
     Daff_4K:
     Medium:
     10:
     0.427326,0.482684,0.559866,0.375910,0.023994,374.000000,304.000000,70.000000,47.000000,0.000000,0.000000,0.427326,0.482684,0.559866,0.375910,0.023994,374.000000,304.000000,70.000000,47.000000,0.000000,0.000000:
0000
0000
0000
0000
,
0000
0000
0000
0000
,
0000
0000
0000
0000
,
0000
0000
0000
0000
,
1000
0010
0100
0001
,
0010
0100
1000
0001
,
0100
0010
0100
0010
1000
0001
1000
0001
,
0020
0000
0130
1001
,
1010
0101
0011
1100
,
1000
0010
0001
0000
0010
1000
0100
0000
,
0001
0000
0010
0000
1000
0100
0001
0000
,
0100
0010
0100
0000
1000
0001
1000
0000
,
0110
1001
0110
1001
,
0001
0100
1000
0000
0100
0001
0010
0000
,
0011
1100
1010
0101
,
0220
0000
0330
1001
,
0011
1100
1010
0101
,
0001
0010
1000
0000
0010
0001
0100
0000
,
1000
0000
0010
0000
0001
0100
1000
0000
,
0100
0010
0100
0000
0001
1000
0001
0000
,
0110
1001
0110
1001
,
1000
0100
0001
0000
0100
1000
0010
0000
,
1010
0101
0011
1100
,
0220
0000
0000
0330
,
2001
0000
3020
0000
,
0032
0000
0203
0320
,
0032
0000
0203
0000
,
2300
0000
3020
0230
,
2300
0010
0010
0001
,
3002
0100
1000
1000
,
0023
1000
1000
0230
,
2300
0010
3020
0230
,
0302
0010
0010
1000
,
2003
0100
0001
0001
,
3020
0001
0001
0130
,
2002
0000
0000
3003
,
1000
0000
0000
0100
0000
0000
0001
0000
0200
0000
0000
0000
0310
0000
0001
0000
,
1000
0001
0100
0000
0010
1000
0010
0000
,
1000
0000
0000
0001
0000
0000
0010
0000
0200
0000
0000
0000
1300
0000
0001
0000
,
1000
0000
0000
0100
0000
0000
0010
0000
0100
0000
0010
0000
0001
0000
1000
0000
,
0001
0000
0000
0100
0000
0000
1000
0000
0200
0000
0000
0000
0310
0000
1000
0000
,
0001
1000
0100
0000
0010
0001
0010
0000
,
0001
0000
0000
1000
0000
0000
0010
0000
0200
0000
0000
0000
0301
0000
1000
0000
,
0001
0000
0000
0100
0000
0000
0010
0000
0100
0000
0010
0000
1000
0000
0000
0000
,
1002
1000
0100
0103
,
0210
0000
0310
0000
0100
0001
1000
0000
,
2001
0001
0100
3100
,
0210
0000
0310
0000
0100
1000
0001
0000
,
1000
0010
0100
0010
2000
0000
3001
0000
,
0001
0010
0100
0010
0002
0000
1003
0000
,
1000
0010
0100
0000
0001
0010
0100
0000
,
1000
0010
0100
0001
0010
0100
1000
0000
,
2002
0000
0000
0000
,
0000
0000
0000
3003
,
0101
0101
1010
1010
,
1000
0100
0001
0000
0010
1000
0100
0000
,
0110
0110
1001
1001
,
0001
0100
1000
0100
0002
0000
1003
0000
,
1100
1100
0011
0011
,
0001
0100
1000
0000
0010
0001
0100
0000
,
0110
0110
1001
1001
,
1000
0100
0001
0100
2000
0000
3001
0000
,
1010
1010
0101
0101
,
0010
1000
0100
0100
0010
0001
0100
0000
,
1001
1001
0110
0110
,
1000
0010
0100
0001
0010
0100
1000
0000
,
0011
0011
1100
1100
,
0010
0001
0100
0100
0010
1000
0100
0000
,
1001
0110
2002
3003
,
0110
1001
0220
0330
,
2002
0000
0000
0000
,
3003
0000
0000
0000
;

//---------------dance-single - Daff_4K----------------
#NOTES:
     dance-single:
     Daff_4K:
     Hard:
     13:
     0.559866,0.653043,0.479885,0.287931,0.247940,490.000000,430.000000,60.000000,36.000000,0.000000,0.000000,0.559866,0.653043,0.479885,0.287931,0.247940,490.000000,430.000000,60.000000,36.000000,0.000000,0.000000:
// measure 0
0000
0000
0000
0000
,  // measure 1
0000
0000
0000
0000
,  // measure 2
0000
0000
0000
0000
,  // measure 3
0000
0000
0000
0000
,  // measure 4
1000
0010
1000
0001
1000
0100
0010
0001
,  // measure 5
0100
0001
1000
0001
0010
0100
1000
0001
,  // measure 6
0100
0010
0000
0100
0010
0000
1000
0000
0100
0010
0000
0100
0010
0000
0001
0000
,  // measure 7
0200
0010
0310
1001
,  // measure 8
1010
0011
0101
1100
,  // measure 9
1000
0010
0001
1000
0100
0001
0010
0100
,  // measure 10
1000
0000
0000
1000
0001
0000
0100
0000
0010
0000
1000
0000
0002
0000
0000
0000
,  // measure 11
0013
0010
0100
0100
1000
0001
0100
0010
,  // measure 12
1010
0101
0011
1100
,  // measure 13
1000
0010
0001
0010
1000
0100
0010
0001
,  // measure 14
1000
0000
0010
1000
0000
0010
1000
0000
0001
0000
0010
0001
0000
0010
0001
0000
,  // measure 15
0200
0010
0310
1001
,  // measure 16
0011
1010
1100
0101
,  // measure 17
0001
0010
1000
0001
0100
1000
0010
0100
,  // measure 18
0001
0000
0000
0001
1000
0000
0100
0000
0010
0000
0001
0000
2000
0000
0000
0000
,  // measure 19
3010
0010
0100
0100
0001
1000
1001
0000
,  // measure 20
0011
1100
1010
0101
,  // measure 21
0001
0010
1000
0010
0001
0100
0010
1000
,  // measure 22
0001
0000
0010
0001
0000
0010
0001
0000
1000
0000
0010
1000
0000
0010
1000
0000
,  // measure 23
0001
0100
0010
1000
0100
0010
0001
0000
,  // measure 24
2001
0000
0000
3100
0020
0000
0000
0000
,  // measure 25
0032
0000
0000
1003
0020
0000
0230
0000
,  // measure 26
0302
0000
0000
0103
0020
0000
0000
0000
,  // measure 27
2030
0000
0000
3001
0020
0000
0200
0330
,  // measure 28
2001
0010
0100
3001
,  // measure 29
1020
0001
0100
1030
,  // measure 30
0210
1000
0010
0301
,  // measure 31
0011
1100
1010
0101
,  // measure 32
1002
0010
0100
1003
,  // measure 33
0021
1000
0100
0031
,  // measure 34
0210
0001
0010
1300
,  // measure 35
2002
0000
0000
3003
,  // measure 36
1000
0000
0010
1000
0000
0001
1000
0000
0200
0000
0000
0000
0310
0000
0001
0000
,  // measure 37
0100
1000
0100
0001
0010
0100
1000
0001
,  // measure 38
0100
0000
0010
1000
0000
0010
0100
0000
0002
0000
0000
0000
0013
0000
0100
0000
,  // measure 39
1000
0000
0000
0001
0000
0000
0100
0000
0010
0000
0001
0000
1000
0000
0100
0000
,  // measure 40
0001
0000
0010
0001
0000
1000
0001
0000
0200
0000
0000
0000
0310
0000
1000
0000
,  // measure 41
0100
0001
0100
1000
0010
0100
0001
1000
,  // measure 42
0100
0000
0010
0001
0000
0010
0100
0000
2000
0000
0000
0000
3010
0000
0100
0000
,  // measure 43
0001
0000
0000
1000
0000
0000
0100
0000
0010
0000
1000
0000
0001
0000
0100
0000
,  // measure 44
2100
0000
0010
0000
0001
0000
3100
0010
,  // measure 45
0002
0000
0000
0000
0100
0000
0000
0000
1003
0001
0000
1000
0100
0000
0010
0000
,  // measure 46
0002
0000
0010
0000
1000
0000
0103
0010
,  // measure 47
2000
0000
0000
0000
0100
0000
0000
0000
3001
1000
0000
0001
0100
0000
0010
0000
,  // measure 48
1000
0100
0001
0100
1000
0010
0100
0100
,  // measure 49
0001
0100
1000
0100
0001
0010
0100
0100
,  // measure 50
1000
0010
0000
1000
0010
0000
0100
0000
0001
0010
0000
0001
0010
0000
0100
0000
,  // measure 51
1000
0010
1000
0000
0001
0010
0001
0000
0100
0010
0100
0000
0010
0000
1000
0000
,  // measure 52
2002
0000
0000
0000
,  // measure 53
0000
0000
0000
0000
0000
0000
0000
0000
0000
0000
0000
0000
0000
0000
0000
0000
0000
0000
0000
0000
0000
0000
0000
0000
0000
0000
0000
0000
0000
0000
0000
0000
0000
0000
0000
0000
0000
0000
0000
0000
0000
0000
0000
0000
0000
0000
0000
0000
0000
3003
0000
0000
0000
0000
0000
0000
0000
0000
0000
0000
0000
0000
0000
0000
,  // measure 54
1010
0000
0000
0000
0101
0000
0000
0000
1001
0000
0000
1000
0100
0000
0010
0100
,  // measure 55
0010
0001
0100
1000
0100
0001
0010
0100
,  // measure 56
1100
0000
0000
0000
0011
0000
0000
0000
1001
0000
0000
1000
0010
0000
0001
0000
,  // measure 57
0010
0000
0100
0001
0000
1000
0001
0000
0010
0000
0100
0000
1000
0000
0001
0000
,  // measure 58
0011
0000
0000
0000
1100
0000
0000
0000
1001
0000
0000
0001
0100
0000
0010
0100
,  // measure 59
0010
1000
0100
0001
0100
1000
0010
0100
,  // measure 60
0101
0000
0000
0000
1010
0000
0000
0000
1001
0000
0000
0001
0010
0000
1000
0000
,  // measure 61
0010
0000
0100
1000
0000
0001
1000
0000
0010
0000
0100
0000
1001
0000
0000
0000
,  // measure 62
1000
0000
0001
0000
0110
0000
0000
0000
1001
0000
0000
0001
1000
0000
0010
1000
,  // measure 63
0010
0000
0100
0000
0001
0000
0010
0000
1000
0000
0010
0100
0000
0010
0001
0000
,  // measure 64
1000
0000
0001
0000
0100
0000
0010
0100
0010
0000
1000
0001
0000
1000
0001
0000
,  // measure 65
0010
0000
0100
0010
0000
0100
1000
0000
0001
0000
0100
0000
0110
0000
0000
0000
,  // measure 66
1001
0000
0000
0000
0110
0000
0000
0000
1001
0000
0000
1000
0001
0000
0010
0001
,  // measure 67
0010
0000
0100
0000
1000
0001
1000
0001
1000
0000
0010
0000
0100
0000
0001
0000
,  // measure 68
0011
0000
0000
1100
0000
0000
0010
0100
0010
0000
0000
0000
1001
0000
0000
0000
,  // measure 69
1010
0000
0000
0101
0000
0000
0010
0100
0010
0000
0000
0000
1001
0000
0000
0000
,  // measure 70
0220
0000
0330
2002
,  // measure 71
3003
0000
0000
0000
;

//---------------dance-single - 呪術師 ~The Sorcerer~ a.k.a. Daff_4K----------------
#NOTES:
     dance-single:
     呪術師 ~The Sorcerer~ a.k.a. Daff_4K:
     Challenge:
     15:
     0.651272,0.823402,0.367912,0.327921,0.491882,570.000000,524.000000,46.000000,41.000000,0.000000,0.000000,0.651272,0.823402,0.367912,0.327921,0.491882,570.000000,524.000000,46.000000,41.000000,0.000000,0.000000:
// measure 0
0000
0000
0000
0000
,  // measure 1
0000
0000
0000
0000
,  // measure 2
0000
0000
0000
0000
,  // measure 3
0000
0000
0000
0000
,  // measure 4
1000
0000
0001
0000
0010
0000
0100
0000
1000
0000
0010
0000
0100
0000
0001
0100
,  // measure 5
0001
0000
1000
0000
0010
0000
0100
0000
0001
0010
0000
0010
0100
0000
1000
0100
,  // measure 6
1000
0000
0001
1000
0000
0001
0100
0000
0010
0000
1000
0001
0000
1000
0001
0000
,  // measure 7
0020
0000
0000
0100
0000
0000
0100
0000
0130
0000
0000
0000
1001
0000
0000
0000
,  // measure 8
1010
0000
0000
0000
0101
0000
0000
0001
1000
0000
0100
0000
0110
0000
0000
0010
,  // measure 9
0001
0100
1000
0010
0001
0010
1000
0100
,  // measure 10
0001
0000
1000
0001
1000
0000
0100
0010
0100
0000
0010
0000
0002
0000
0000
0000
,  // measure 11
1003
0010
0001
1000
0100
0001
0010
0100
,  // measure 12
1100
0000
0000
0000
0011
0000
0000
0001
1000
0000
0010
0000
0110
0000
0000
0100
,  // measure 13
0001
0010
1000
0001
0100
1000
0010
0100
,  // measure 14
0001
0000
1000
0001
0000
1000
0100
0000
0010
0000
0001
1000
0000
0001
1000
0000
,  // measure 15
0020
0000
0000
0100
0000
0000
0100
0000
0130
0000
0000
0000
1001
0000
0000
0000
,  // measure 16
0011
0000
0000
0000
1100
0000
0000
1000
0001
0000
0100
0000
0110
0000
0000
0010
,  // measure 17
1000
0100
0001
0010
1000
0010
0001
0100
,  // measure 18
1000
0000
0001
1000
0001
0000
0100
0010
0100
0000
0010
0000
2000
0000
0000
0000
,  // measure 19
3001
0010
1000
0001
0100
1000
1001
0000
,  // measure 20
0101
0000
0000
0000
1010
0000
0000
1000
0001
0000
0010
0000
0110
0000
0000
0100
,  // measure 21
1000
0000
0010
0000
0001
0000
1000
0000
0100
0000
0001
1000
0001
0000
1000
0000
,  // measure 22
1100
0000
0000
0110
0000
0000
0011
0000
0101
0000
0000
0110
0000
0000
1010
0000
,  // measure 23
1000
0001
1000
0001
1000
0001
0010
0100
0010
0100
0010
0100
1000
0000
0000
0000
,  // measure 24
1002
0000
0000
0203
2300
0000
0000
0000
,  // measure 25
3020
0000
0000
0032
0203
0000
0320
0000
,  // measure 26
2030
0000
0000
3200
0302
0000
0000
0000
,  // measure 27
0023
0000
0000
2030
3200
0000
0020
0330
,  // measure 28
1002
0000
0000
0000
0010
0000
0000
0000
0103
0000
0000
0000
1001
0000
0000
1000
,  // measure 29
0020
0001
0100
1030
,  // measure 30
1200
0000
0000
0000
0001
0000
0000
0000
0310
0000
0000
0000
1001
0000
0000
0001
,  // measure 31
0020
0000
1030
0000
0201
0000
1300
0001
,  // measure 32
2001
0000
0000
0000
0010
0000
0000
0000
3100
0000
0000
0000
1001
0000
0000
0001
,  // measure 33
0020
1000
0100
0031
,  // measure 34
0201
1000
0310
1001
,  // measure 35
0220
0000
0000
0330
,  // measure 36
1000
0000
0001
1000
0000
0001
0010
0001
0020
0000
0000
0000
0130
0000
1000
0100
,  // measure 37
1000
0000
0010
0000
0100
0000
0010
0000
0001
0000
0010
0000
1000
0000
0001
0100
,  // measure 38
0001
0000
0100
0010
0000
1000
0001
1000
0002
0000
0000
0000
1003
0000
0100
1000
,  // measure 39
0100
0000
0010
0001
0000
0001
0100
0000
1000
0000
0001
0000
0010
0000
0100
0000
,  // measure 40
0001
0000
1000
0001
0000
1000
0010
1000
0020
0000
0000
0000
0130
0000
0001
0100
,  // measure 41
0001
0000
0010
0000
0100
0000
0010
0000
1000
0000
0010
0000
0001
0000
1000
0100
,  // measure 42
1000
0000
0100
0010
0000
0001
1000
0001
2000
0000
0000
0000
3001
0000
0100
0001
,  // measure 43
0100
0000
0010
1000
0000
1000
0100
0000
0001
0000
1000
0000
0010
0000
0100
0000
,  // measure 44
1200
0000
0000
0000
0001
0000
0000
0000
0010
0000
0000
0000
1300
0000
0010
1000
,  // measure 45
0020
0000
0000
0000
0031
0000
0010
0000
0100
0001
0000
0001
1000
0000
0010
0000
,  // measure 46
0201
0000
0000
0000
1000
0000
0000
0000
0010
0000
0000
0000
0301
0000
0010
0001
,  // measure 47
0020
0000
0000
0000
1030
0000
0010
0000
0100
1000
0000
1000
0001
0000
0010
0000
,  // measure 48
0001
0000
0100
0000
1000
0000
0001
0000
0010
0000
0100
0000
0001
0000
1000
0001
,  // measure 49
1000
0000
0100
0000
0001
0000
1000
0000
0010
0100
0000
0100
1000
0000
0001
0000
,  // measure 50
0100
0010
0100
0010
0100
0010
0100
0000
0001
1000
0001
1000
0001
1000
0001
0000
,  // measure 51
0010
0100
0010
0000
0001
1000
0001
0000
1000
0010
1000
0010
0100
0001
0100
0002
,  // measure 52
2000
0000
0000
0000
,  // measure 53
0000
0000
0000
0000
0000
0000
0000
0000
0000
0000
0000
0000
0000
0000
0000
0000
0000
0000
0000
0000
0000
0000
0000
0000
0000
0000
0000
0000
0000
0000
0000
0000
0000
0000
0000
0000
0000
0000
0000
0000
0000
0000
0000
0000
0000
0000
0000
0000
0000
3003
0000
0000
0000
0000
0000
0000
0000
0000
0000
0000
0000
0000
0000
0000
,  // measure 54
1000
0000
0100
1000
0100
0000
0010
0001
0010
0000
0001
1000
0001
0000
1000
0010
,  // measure 55
1000
0000
0010
0000
0001
0000
0010
0000
1000
0000
0100
0000
0010
0000
0001
0010
,  // measure 56
0001
0000
1000
0010
1000
0000
0010
0100
0010
0000
0100
0001
0100
0000
0001
1000
,  // measure 57
0001
0000
1000
0100
0000
0100
0001
0000
1000
0000
0010
0000
0001
0000
1000
0000
,  // measure 58
0001
0000
0100
0001
0100
0000
0010
1000
0010
0000
1000
0001
1000
0000
0001
0010
,  // measure 59
0001
0000
0010
0000
1000
0000
0010
0000
0001
0000
0100
0000
0010
0000
1000
0010
,  // measure 60
1000
0000
0001
0010
0001
0000
0010
0100
0010
0000
0100
1000
0100
0000
1000
0001
,  // measure 61
1000
0000
0001
0100
0000
0100
1000
0000
0100
0000
0001
0000
1001
0000
0000
0000
,  // measure 62
1100
0000
0011
0000
1001
0000
1000
0010
1000
0000
0001
0010
0001
0000
0100
0010
,  // measure 63
0100
0000
0010
0000
1000
0000
0001
0000
1001
0000
1000
0100
1000
0000
0001
0100
,  // measure 64
0001
0000
0010
0100
0010
0000
0001
1000
0001
0000
0100
0010
0000
1000
0010
0000
,  // measure 65
1000
0000
0100
0010
0000
0001
0010
0000
0001
0000
0100
0000
0010
0000
1000
0000
,  // measure 66
0001
0000
0010
0001
0010
0000
0100
1000
0100
0000
1000
0001
1000
0000
0001
0000
,  // measure 67
0110
0000
1000
0000
0110
0000
0001
0000
1000
0010
1000
0000
0001
0010
0001
0000
,  // measure 68
0110
0000
0000
1001
0000
0000
1000
0010
1000
0000
0001
0000
0010
0000
0100
0000
,  // measure 69
0110
0000
0000
1001
0000
0000
0001
0010
0001
0000
1000
0000
0010
0000
0100
0000
,  // measure 70
2002
0000
3003
0020
,  // measure 71
0130
0000
0000
0000
;
