#TITLE:Ska-sh All Neurons!!;
#SUBTITLE:;
#ARTIST:かめりあ feat. ななひら;
#TITLETRANSLIT:;
#SUBTITLETRANSLIT:;
#ARTISTTRANSLIT:Camellia feat. Nanahira;
#GENRE:;
#CREDIT:;
#MUSIC:Ska-sh All Neurons!!.ogg;
#BANNER:Ska-sh All Neurons!!.png;
#BACKGROUND:Ska-sh All Neurons!!-bg.png;
#CDTITLE:./CDTITLES/BEATMANIA IIDX.PNG;
#SAMPLESTART:62.951;
#SAMPLELENGTH:15.000;
#SELECTABLE:YES;
#OFFSET:0.000;
#BPMS:0.000=183.000;
#STOPS:;
#BGCHANGES:;
#FGCHANGES:;

//--------------- dance-single - t7r ----------------
#NOTES:
     dance-single:
     t7r:
     Beginner:
     3:
     0,0,0,0,0:
0000
0000
0000
0000
,
0000
0000
0000
0000
,
0000
0000
0000
0000
,
0000
0000
0000
0000
,
0000
0000
0000
0000
,
0000
0000
0000
0000
,
0010
0000
0000
0000
,
1000
0000
0000
0000
,
0001
0000
0000
0000
,
0010
0000
0000
0000
,
1001
0000
0000
0000
,
0000
0000
0000
0000
,
0001
0000
0000
0000
,
0001
0000
0000
0000
,
0100
0000
0000
0000
,
0100
0000
0000
0000
,
0010
0000
0010
0000
,
0010
0000
0000
0000
,
1000
0000
1000
0000
,
1000
0000
0000
0000
,
0001
0000
0000
0000
,
0010
0000
0000
0000
,
0100
0000
0000
0000
,
1000
0000
1000
0000
,
1000
0000
0000
0000
,
0010
0000
0000
0000
,
0100
0000
0000
0000
,
0001
0000
0000
0000
,
1000
0000
0000
0000
,
0001
0000
0001
0000
,
0001
0000
0000
0000
,
1000
0000
1000
0000
,
1000
0000
0000
0000
,
0010
0000
0010
0000
,
0010
0000
0000
0000
,
0100
0000
0000
0000
,
0001
0000
0000
0000
,
0000
0000
0000
0000
,
1000
0000
0000
0000
,
0000
0000
0000
0000
,
0010
0000
0000
0000
,
1000
0000
0000
0000
,
0001
0000
0000
0000
,
0010
0000
0010
0000
,
0010
0000
0000
0000
,
0001
0000
0000
0000
,
1000
0000
0000
0000
,
0001
0000
0000
0000
,
1000
0000
1000
0000
,
1000
0000
0000
0000
,
0001
0000
0001
0000
,
0001
0000
0000
0000
,
0100
0000
0100
0000
,
0100
0000
0000
0000
,
0010
0000
0010
0000
,
0010
0000
0000
0000
,
1000
1000
1000
0000
,
0000
0000
0000
0000
,
0001
0001
0001
0000
,
0000
0000
0000
0000
,
0010
0000
0000
0000
,
0000
0000
0000
0000
,
0100
0000
0000
0000
,
0000
0000
0000
0000
,
0010
0000
0000
0000
,
0000
0000
0000
0000
,
0001
0000
0000
0000
,
0001
0000
0000
0000
,
1000
0000
1000
0000
,
1000
0000
0000
0000
,
0001
0000
0001
0000
,
0001
0000
0000
0000
,
1000
0000
1000
0000
,
1000
0000
0000
0000
,
0010
0000
0010
0000
,
0010
0000
0000
0000
,
0100
0000
0100
0000
,
0100
0000
0000
0000
,
0010
0010
0010
0000
,
0010
0000
0000
0000
,
1000
1000
1000
0000
,
1000
0000
0000
0000
,
0001
0001
0001
0000
,
0001
0000
0000
0000
,
0100
0100
0100
0000
,
0100
0000
0000
0000
,
0010
0000
0000
0000
,
1000
0000
0000
0000
,
0001
0000
0000
0000
,
0010
0000
0010
0000
,
0010
0000
0000
0000
,
0001
0000
0000
0000
,
1000
0000
0000
0000
,
0001
0000
0001
0000
;

//--------------- dance-single - t7r ----------------
#NOTES:
     dance-single:
     t7r:
     Easy:
     7:
     0,0,0,0,0:
0000
0000
0000
0000
,
0000
0000
0000
0000
,
0000
0000
0000
0000
,
0000
0000
0000
0000
,
0000
0000
0000
0000
,
0000
0000
0000
0000
,
0002
0000
0000
0000
,
2003
0000
3020
0000
,
2030
0000
0000
0000
0000
0000
0000
3100
,
0000
0100
0000
1000
0000
0001
0000
0000
,
1000
1000
0100
0100
,
0010
0120
0000
0000
,
0031
0000
0001
0000
,
0100
0010
1000
0000
,
1000
0000
1000
0000
,
0100
0010
0001
0000
,
1000
1000
0100
0001
,
0100
0100
0010
0001
,
1000
0001
0100
0010
,
2002
0000
0000
3003
,
2000
0000
3010
0010
,
1000
1000
0001
0100
,
0002
0000
0013
0010
,
0001
1000
0100
0010
,
0200
0000
0310
0010
,
0001
1000
0020
0000
,
1030
0100
0001
0100
,
1000
0010
0001
0010
,
2000
0000
0001
3001
,
1000
1100
0000
0101
,
0000
1100
0000
0101
,
0001
0010
0000
0001
,
1000
1010
0000
0011
,
0000
1001
0020
0000
,
1030
1000
0001
0001
,
0010
0100
0010
0001
,
1000
0000
1000
0000
,
0100
0000
0100
0000
,
0001
0000
0010
0000
,
2002
0000
0000
3003
,
0010
0000
0000
0100
0000
0000
0110
0000
,
0001
0000
0000
1000
0000
0000
1001
0000
,
0100
0000
0000
0010
0000
0000
0110
0000
,
0001
0001
0002
0003
,
1000
0000
0000
0010
0000
0000
1010
0000
,
0100
0000
0000
0001
0000
0000
0101
0000
,
0001
0000
0000
1000
0000
0000
1001
0000
,
0020
0000
0000
0000
,
1030
0100
1000
0000
,
0001
0100
1000
0100
,
0001
0010
0001
0000
,
1000
0010
0100
0001
,
1000
0010
1000
0000
,
0001
0010
1000
0010
,
0001
0000
0100
0000
0001
0000
0000
0100
,
0000
0100
0000
0010
0000
1000
0000
0000
,
0001
0000
0011
0000
,
0001
0100
0001
0000
,
1000
0000
1010
0000
,
1000
0100
1000
0000
,
0001
0010
0100
1000
,
0001
2002
0000
3003
,
0020
0000
0000
0000
,
0000
0000
0000
0030
,
0200
0000
0000
0000
,
0000
0000
0000
0300
,
0001
0001
0100
1000
,
0100
0100
0010
1000
,
0001
1000
0100
0010
,
2002
0000
0000
3003
,
1000
0010
1000
0010
,
1000
0100
0001
0100
,
1000
0010
1000
0010
,
1000
0100
0110
0000
,
0001
0010
0001
0010
,
0001
0100
1000
0100
,
0001
1000
0001
1000
,
0010
0100
0001
1000
,
0002
0010
0000
1003
,
0000
0101
0000
1100
,
2000
0010
0000
3001
,
0000
1100
0000
0101
,
0100
0010
0000
0110
,
0000
1001
0000
0100
,
1000
0100
0001
0100
,
0010
0001
2000
3000
,
0001
0000
0000
1000
0000
0000
1001
0000
,
0100
0000
0000
0010
0000
0000
0110
0000
,
1000
0000
0000
0001
0000
0000
1001
0000
,
0100
0100
0020
0030
,
1000
0000
0000
0100
0000
0000
1100
0000
,
0001
0000
0000
0010
0000
0000
0011
0000
,
0001
0000
0000
1001
0000
0000
0110
0000
,
2002
0000
0000
0000
,
3003
0000
0000
0000
;

//--------------- dance-single - t7r ----------------
#NOTES:
     dance-single:
     t7r:
     Medium:
     10:
     0,0,0,0,0:
0000
0000
0000
0000
,
0000
0000
0000
0000
,
0000
0000
0000
0000
,
0000
0000
0000
0000
,
0000
0000
0000
0000
,
0000
0000
0000
0000
,
0020
0000
0000
0000
0000
0000
0000
0230
,
0000
0000
0000
0302
0000
0000
2003
0000
,
3020
0000
0000
0000
0000
0000
1030
0001
,
0000
1000
0000
1001
0000
0110
0000
0000
,
1000
0100
1000
0000
0001
0100
0001
0000
,
1000
2002
0000
3003
,
0001
0001
0100
0100
,
1000
0010
0001
0100
,
1000
1000
0100
0100
,
0001
0010
1000
0100
,
0001
1000
0001
0000
0100
0000
0010
0000
,
1000
0001
1000
0000
0010
0000
0100
0000
,
0001
0010
0001
0010
0100
1000
0100
1000
,
0020
0000
0000
0130
,
2020
3030
1100
0101
,
1000
0100
1000
0000
0002
0000
2003
0000
,
3001
0000
0011
0000
2000
0000
3010
0100
,
0001
0010
0100
0000
1000
0010
0100
0000
,
0020
0000
1030
0001
0100
0000
0001
0000
,
1000
0100
0010
0000
0100
0000
2000
0000
,
3001
0000
0100
1000
0000
0100
0001
0000
,
1000
0000
0100
0001
0000
0100
1000
0000
,
0100
0000
0010
0001
0010
0001
0010
0000
,
0001
0100
1000
0100
,
0001
0010
1000
0010
,
0001
0101
0000
1100
,
1000
1010
0000
0011
,
0000
1001
0020
0000
,
1030
0000
0010
0001
0000
0010
1000
0000
,
0001
0000
0010
1000
0000
0010
0001
0000
,
1000
1000
0100
0100
,
0010
0010
0001
0001
,
0100
0010
0100
0010
0100
0010
0100
0000
,
2002
0000
0000
3003
,
1000
0000
0000
0000
0001
0000
0000
0010
0000
0000
0100
0000
0000
1000
0000
0000
,
0001
0000
0000
0000
1000
0000
0000
0010
0000
0000
0100
0000
0000
0001
0000
0000
,
1000
0000
0000
0000
0010
0000
0000
1000
0000
0000
0001
0000
0000
0100
0000
0000
,
0001
0010
0001
0010
0001
0000
1001
0000
,
0100
0000
0000
0000
0001
0000
0000
0100
0000
0000
0010
0000
0000
1000
0000
0000
,
0001
0000
0000
0000
1000
0000
0000
0100
0000
0000
0010
0000
0000
0001
0000
0000
,
1000
0000
0000
1000
0000
0000
0001
0000
0000
0001
0000
0000
1000
0000
0000
0000
,
0020
0000
0000
0130
,
0001
0000
0010
0000
1000
0000
0000
0001
,
0000
0100
0000
1000
0000
0010
0100
0000
,
0001
0010
0001
0000
1000
0100
1000
0000
,
0001
0100
0010
2000
0000
3001
1000
0001
,
1000
0000
0100
0000
0001
0000
0000
1000
,
0000
0010
0000
0001
0000
0100
0010
0000
,
0100
0001
0100
0000
0010
1000
0010
0100
,
0000
0010
0000
0110
0000
1001
0000
0000
,
0010
1000
1010
0000
,
0001
0100
0001
0000
1000
0200
0000
0000
,
0310
0001
0011
0000
,
1000
0100
1000
0000
0001
0100
0010
0000
,
0100
0001
0100
0001
0100
0010
0100
0010
,
0100
0220
0000
0330
,
2002
0000
0000
0000
,
0000
0000
0000
3003
,
0220
0000
0000
0000
,
0000
0000
0000
0330
,
0010
0000
0000
1000
0000
0000
0001
0000
0100
0000
0000
0100
0000
0000
0001
0000
,
1000
0000
0000
0100
0000
0000
0010
0000
0001
0000
0000
0001
0000
0000
1000
0000
,
0001
0000
0000
0100
0000
0000
0001
0000
0000
0100
0000
0000
0001
0000
0000
0000
1000
0000
0000
0000
0001
0000
0000
0000
,
0020
0000
0000
0130
,
1000
0000
0100
0000
0000
0001
0100
0000
,
0010
0001
0010
0000
0001
0100
0001
0000
,
1000
0000
0010
0000
0000
0001
0010
0000
,
1000
0000
0100
0000
0010
0001
1000
0000
,
0001
0000
0100
0000
0000
1000
0100
0000
,
0010
0000
1000
0000
0001
1000
0100
0000
,
1000
0000
0100
0001
0000
0100
1000
0000
,
0001
0000
0100
1000
0000
0100
0001
0000
,
0100
0000
0010
1000
0010
1000
0010
0000
,
1000
1100
0000
0101
,
0001
0010
0100
0000
1000
0010
0100
0000
,
0001
1000
0010
0000
0100
0001
1000
0000
,
0001
0000
0000
0010
0000
0000
0001
0000
1000
0000
0001
0000
,
0000
0100
0100
0000
0010
1000
0001
0000
,
1000
0000
0010
0001
0000
0010
1000
0000
,
0001
0010
1000
0000
0001
0100
1000
0000
,
0001
0000
0000
0000
0100
0000
0000
1000
0000
0000
0100
0000
0000
0010
0000
0000
,
1000
0000
0000
0000
0100
0000
0000
0001
0000
0000
0100
0000
0000
0010
0000
0000
,
0001
0000
0000
0000
0100
0000
0000
1000
0000
0000
0001
0000
0000
0010
0000
0000
,
1000
0100
0010
0001
0010
0100
1000
0000
,
0001
0000
0000
0000
0100
0000
0000
0010
0000
0000
0110
0000
0000
1001
0000
0000
,
1100
0000
0000
0000
0100
0000
0000
0010
0000
0000
0110
0000
0000
1001
0000
0000
,
0001
0000
0000
0100
0000
0000
1000
0000
0000
0100
0000
0000
0001
0000
1000
0000
,
0002
0000
0000
0000
,
0003
0000
0000
0000
;

//--------------- dance-single - t7r ----------------
#NOTES:
     dance-single:
     t7r:
     Hard:
     15:
     0,0,0,0,0:
0000
0000
0000
0000
,
0000
0000
0000
0000
,
0000
0000
0000
0000
,
0000
0000
0000
0000
,
0000
0000
0000
0000
,
0000
0000
0000
0000
,
0002
0000
0000
0000
0000
0000
0103
0020
,
0000
0000
0000
2030
0000
0000
3002
0000
,
0023
0000
0000
0000
0000
0000
0130
0110
,
0000
1001
0000
0110
0000
1001
0000
0000
,
0010
1000
0010
1000
0001
0100
0001
0100
,
0101
2020
0000
3030
,
1001
1000
0100
0100
,
0001
0000
0010
0000
1000
0100
0001
0000
,
1100
1000
0010
0010
,
0001
0000
0100
0000
1000
0010
0001
0000
,
0010
0000
0000
0100
0010
0000
0100
0000
0001
0000
0000
0100
1000
0000
0100
0000
,
0010
0000
0000
1000
0100
0000
0001
0000
0100
0000
0000
0010
0001
0000
1000
0000
,
0001
0001
0100
0100
1000
1000
0100
0100
,
0020
0000
0000
0000
0000
0000
0000
0000
0000
0000
1030
0001
1000
0000
0000
0000
,
2200
3300
0101
1100
,
0100
0100
0100
0000
0012
0000
1003
0000
,
0001
0000
0000
0000
0101
0000
0000
0000
1100
0000
0000
0000
1000
0100
1000
0000
,
0001
0010
0001
0000
0100
0000
0000
0000
0010
0000
1000
0000
0001
0000
0000
0000
,
0012
0000
0000
0000
1003
1000
0010
0000
0000
1010
0000
0000
,
0011
0001
0100
0000
0010
1000
0001
0000
,
1000
0000
0000
1000
0100
0000
1000
0000
0001
0000
0100
0000
1000
0000
0100
0000
,
0001
0000
0000
0001
0010
0000
0100
0000
1000
0100
1000
0000
0001
1000
0001
0000
,
0100
0010
0010
0010
0010
0010
1000
0000
,
0001
0010
0001
0000
0100
0000
0000
0000
0010
1000
0010
0000
0100
0000
0000
0000
,
0001
0000
0000
0000
0011
0000
0000
0000
1010
0000
0000
0000
0100
0001
0100
0000
,
0010
1000
0010
0000
1000
0000
0100
0000
0001
0000
0100
0000
0020
0000
0000
0000
,
0031
0000
1010
1000
0001
0000
0011
0000
,
0001
0100
0001
0000
1000
0100
1000
0000
2002
0000
0000
0000
3003
0000
0000
0000
,
1000
0000
0000
1000
0010
0000
1000
0000
0001
0000
0010
0000
1000
0000
0010
0000
,
0001
0000
0000
0001
0100
0000
0010
0000
1000
0000
0001
0000
0200
0000
0000
0000
,
0320
1000
0100
0031
,
0200
0001
0010
1300
,
0001
0010
0001
0000
1000
0010
1000
0000
0001
0100
0001
0000
1000
0100
1000
0000
,
0020
0000
0000
0000
0000
0000
0000
0000
0000
0000
1030
0001
1000
0000
0000
0000
,
0010
0000
0000
0000
1010
0000
0000
1100
0000
0000
1010
0000
0000
1001
0000
0000
,
0010
0000
0000
0000
0011
0000
0000
0101
0000
0000
1001
0000
0000
0110
0000
0000
,
0100
0000
0000
0000
0101
0000
0000
0011
0000
0000
1001
0000
0000
1100
0000
0000
,
0100
0100
0100
0100
1000
0100
0010
0000
,
0011
0000
0000
0000
1001
0000
0000
0101
0000
0000
1001
0000
0000
1010
0000
0000
,
0110
0000
0000
0000
1010
0000
0000
1001
0000
0000
1100
0000
0000
0110
0000
0000
,
0001
0000
0100
1000
0000
0100
1000
0000
0100
0001
0000
0100
0001
0000
1000
0000
,
0020
0000
0000
0000
0000
0000
0000
0000
0000
0000
1030
0001
1000
0000
0000
0000
,
2001
0000
3010
0000
0001
0010
0100
0002
,
0000
0013
1000
0020
0000
0130
2000
0000
,
3001
0001
0100
0100
1000
1000
0100
0100
,
0001
0000
0010
0000
0100
0000
2000
0000
0000
0000
3001
0000
0100
0001
0100
0000
,
0002
0000
0013
0000
1000
0010
0100
2000
,
0000
3010
0001
0020
0000
0130
0002
0000
,
1003
1000
0100
0100
0001
0001
0100
1100
,
0000
0011
0000
1001
0000
0210
0000
0000
,
0301
0101
2100
3001
,
1000
0100
0010
1000
0010
0001
0100
0000
,
0010
1010
0012
1003
,
0001
0100
0010
0001
0010
1000
0100
0000
,
1000
0000
1000
0000
0010
0000
0010
0000
0001
0000
0001
0000
0010
0100
0010
0100
,
0010
0220
0000
0330
,
2002
0000
0000
0000
,
0000
0000
0000
3003
,
0220
0000
0000
0000
,
0000
0000
0000
0330
,
1100
0000
1000
0100
0000
1000
0100
0000
0001
0000
0100
0001
0000
0100
0001
0000
,
0100
0000
0010
0001
0000
0010
0001
0000
0010
0000
1000
0010
0000
1000
0010
0000
,
0001
0000
0000
0001
0000
0000
0100
0000
0000
0100
0000
0000
1000
0000
0100
0000
0001
0000
1000
0000
0100
0000
0010
0000
,
0200
0000
0000
0000
0000
0000
0000
0000
0000
0000
1300
0001
1000
0000
0000
0000
,
0001
0000
0000
0000
0101
0000
0000
0001
0100
0000
0010
0000
0001
0000
0000
0010
,
1000
0100
0001
0100
0100
1000
0010
0100
,
0001
0000
0000
0000
1100
0000
0000
1000
0100
0000
0010
0000
1000
0000
0000
0010
,
0001
0000
0100
0000
1000
0000
0100
0000
0001
0010
0100
0000
1000
0000
0001
0000
,
0010
0000
0000
0000
0011
0000
0000
0001
0010
0000
0100
0000
0001
0000
0000
0100
,
1000
0010
0001
0010
0010
1000
0100
0010
,
0001
0000
0100
0000
0001
0010
0100
0000
1000
0000
0010
1000
0000
0010
0001
0000
,
0010
0100
0010
0000
1000
0100
1000
0000
0001
0010
0001
0000
2000
0000
0000
0000
,
3001
0000
0100
0000
0001
0010
0001
0000
1000
0000
0100
0000
1000
0010
1000
0000
,
0001
0000
0010
0000
0001
0100
0001
0000
1000
0000
0010
0000
0110
0000
0000
0000
,
0100
0000
0100
0000
1010
0000
0000
0100
0001
0000
0100
0000
0010
0000
0000
0100
,
1000
0000
0100
0000
0010
0000
0100
0000
0001
1000
0010
0000
1000
0001
0100
0000
,
0001
0000
0000
0000
0000
0000
0010
0000
0000
0100
0000
0000
1000
0000
0000
0000
0000
0000
0100
0000
0000
0000
0000
0000
0010
0000
0000
0000
0000
0000
0000
0000
0011
0000
0000
0000
0000
0000
0000
0000
1001
0000
0000
0000
0000
0000
0000
0000
,
0000
0000
0100
0000
0010
0100
0010
0000
1000
0000
0100
0000
0001
0000
0100
0000
,
1000
0000
0000
0010
0001
0000
0010
0000
0100
0000
0001
0000
0100
0000
1000
0000
,
0110
0001
1000
0000
0110
1000
0001
0000
,
1100
0000
0000
0000
1010
0000
0000
0101
0000
0000
0011
0000
0000
1001
0000
0000
,
0101
0000
0000
0000
0110
0000
0000
1010
0000
0000
1001
0000
0000
0011
0000
0000
,
1001
0000
0000
0000
1100
0000
0000
0110
0000
0000
0011
0000
0000
1001
0000
0000
,
0100
0100
0100
0100
0001
0100
1010
0000
,
0011
0000
0000
0000
1001
0000
1000
0100
0000
0001
0100
0000
0010
0001
0000
1000
,
0010
0000
0000
0000
0110
0000
0010
1000
0000
0010
0001
0000
0010
0100
0000
0001
,
1000
0000
0100
0001
0000
0100
0010
0000
0001
1000
0000
0001
0100
0010
1000
0001
,
2000
0000
0000
0000
,
3000
0000
0000
0000
;
