#VERSION:0.83;
#TITLE:Shanghai Wu Long;
#SUBTITLE:;
#ARTIST:Hommarju;
#TITLETRANSLIT:;
#SUBTITLETRANSLIT:;
#ARTISTTRANSLIT:;
#GENRE:ORIENTAL RAVE;
#ORIGIN:;
#CREDIT:;
#BANNER:;
#BACKGROUND:;
#PREVIEWVID:;
#JACKET:shanghaiwulong-jacket.png;
#CDIMAGE:;
#DISCIMAGE:;
#LYRICSPATH:;
#CDTITLE:cdtitle.png;
#MUSIC:shanghaiwulong.ogg;
#OFFSET:-1.463106;
#SAMPLESTART:26.726000;
#SAMPLELENGTH:11.228000;
#SELECTABLE:YES;
#BPMS:0.000=171.000;
#STOPS:;
#DELAYS:;
#WARPS:;
#TIMESIGNATURES:0.000=4=4;
#TICKCOUNTS:0.000=4;
#COMBOS:0.000=1;
#SPEEDS:0.000=1.000=0.000=0;
#SCROLLS:0.000=1.000;
#FAKES:;
#LABELS:0.000=Song Start;
#BGCHANGES:;
#KEYSOUNDS:;
#ATTACKS:
;

//---------------dance-single - ----------------
#NOTEDATA:;
#CHARTNAME:;
#STEPSTYPE:dance-single;
#DESCRIPTION:;
#CHARTSTYLE:;
#DIFFICULTY:Challenge;
#METER:16;
#RADARVALUES:0.899760,1.118948,0.245829,0.152584,0.712057,743.000000,714.000000,29.000000,18.000000,0.000000,0.000000,0.000000,0.000000,0.000000,0.899760,1.118948,0.245829,0.152584,0.712057,743.000000,714.000000,29.000000,18.000000,0.000000,0.000000,0.000000,0.000000,0.000000;
#CREDIT:TonyAkita;
#NOTES:
// measure 0
0000
0000
0000
0000
,  // measure 1
1010
0010
0100
0000
0011
0010
0100
0000
,  // measure 2
1000
0100
0001
0100
1000
0100
0010
0000
,  // measure 3
0011
0010
0100
0000
1010
0010
0100
0000
,  // measure 4
0001
0000
0100
0000
1000
0000
0100
0000
0001
0000
0100
0010
1000
0000
0000
0000
,  // measure 5
1010
1000
0100
0000
0011
0001
0100
0000
,  // measure 6
0010
1000
0010
0001
0010
0100
0001
0000
,  // measure 7
0101
0001
0010
0000
1100
1000
0010
0000
,  // measure 8
0100
0000
1000
0000
0100
0000
0001
0000
1000
0000
0100
0010
0100
0000
0000
0000
,  // measure 9
0220
0000
0000
0330
,  // measure 10
0001
0010
0001
0010
0100
0000
1000
0100
1000
0000
0001
0000
1001
0000
0000
0000
,  // measure 11
0001
0000
1000
0010
1000
0000
0100
0000
0010
0000
0000
0000
0011
0000
0001
0000
,  // measure 12
1000
0000
0001
0010
0001
0000
0100
0000
0010
0000
0000
0000
1010
0000
1000
0000
,  // measure 13
0001
0000
1000
0010
1000
0000
0100
0000
0010
0000
0001
1000
0001
1000
0100
0000
,  // measure 14
0010
0000
0001
0010
0001
0000
1000
0000
1001
0000
0000
0000
0001
0000
0100
0000
,  // measure 15
0010
0000
0100
0001
0100
0000
0010
0000
1000
0000
0000
0000
1001
0000
0001
0000
,  // measure 16
1000
0000
0100
1000
0100
0000
0010
0000
0001
0000
0000
0000
1001
0000
1000
0000
,  // measure 17
0001
0000
0010
0100
0010
0000
0100
0000
1000
0000
0001
1000
0001
0000
0100
0000
,  // measure 18
0010
1000
0010
1000
0100
0000
0010
0100
0010
0000
0001
0000
0011
0000
0000
0000
,  // measure 19
0001
0010
0001
0010
0100
0000
1000
0000
0001
0000
0100
0010
1000
0000
0010
0000
,  // measure 20
1000
0010
1000
0010
0100
0000
0001
0000
1000
0000
0100
0010
0001
0000
0010
0000
,  // measure 21
0100
1000
0000
1000
0001
0000
0100
0000
0010
0000
0100
0001
0100
0001
1000
0000
,  // measure 22
0001
0000
1000
0100
1000
0000
0100
0000
0010
0000
0001
0010
0100
0000
1000
0000
,  // measure 23
0001
0000
1000
0000
0001
0000
0010
0000
0100
0000
1000
0001
0100
0000
0010
0000
,  // measure 24
1000
0000
0001
0000
1000
0000
0010
0000
0100
0000
0001
1000
0100
0000
0010
0000
,  // measure 25
0001
0010
0001
0010
0001
0000
0010
0100
1000
0000
0001
0100
0001
0100
0010
0000
,  // measure 26
1000
0010
1000
0010
0100
0000
0001
1000
0100
0000
0100
0000
0110
0000
0000
0000
,  // measure 27
0001
0000
1000
0000
0001
0000
0100
0010
0000
0010
0000
1000
0010
0000
0100
0000
,  // measure 28
0001
1000
0001
1000
0100
0000
0010
0001
1000
0000
1000
0000
1010
0000
0000
0000
,  // measure 29
1000
0000
0001
0000
1000
0000
0100
0010
0000
0010
0000
0001
0010
0000
0100
0000
,  // measure 30
1000
0001
1000
0001
0100
0000
0010
1000
0001
0000
0001
0000
0011
0000
0000
0000
,  // measure 31
0001
1000
0001
0010
0100
1000
1100
0000
,  // measure 32
1000
0010
1000
0010
0100
0000
0001
0000
1000
0000
0001
0000
0011
0000
0000
0000
,  // measure 33
0010
0000
0001
0000
0010
0000
0100
1000
0000
0001
0000
1000
0010
0000
0100
0000
,  // measure 34
0001
0100
0001
0100
0010
0000
1000
0000
0001
0000
1000
0000
1001
0000
0000
0000
,  // measure 35
2000
0000
3100
0200
0000
0001
0301
0000
,  // measure 36
0100
0000
0100
0000
0100
0000
1000
0000
0001
0000
0100
0010
0100
0000
0000
0000
,  // measure 37
0002
0000
0103
0200
0000
1000
1300
0000
,  // measure 38
0100
0000
0001
0000
0010
0000
0100
0000
1000
0000
0001
0100
0010
0000
0000
0000
,  // measure 39
2000
0000
3010
0020
0000
0001
0031
0000
,  // measure 40
0010
0000
0010
0000
0010
0000
1000
0000
0001
0000
0010
0100
0010
0000
0000
0000
,  // measure 41
0002
0000
0013
0020
0000
1000
1030
0000
,  // measure 42
0010
0000
0001
0000
0100
0000
0010
0000
1000
0000
0001
0010
0100
0000
0000
0000
,  // measure 43
1000
0100
0001
0100
1000
0100
0010
0001
,  // measure 44
0100
1000
0100
0001
0020
0001
0031
0000
,  // measure 45
0001
0010
0100
1000
0001
0100
1000
0100
,  // measure 46
0001
0000
0100
0000
0010
0000
1000
0000
0001
0000
0010
0100
1000
0000
0000
0000
,  // measure 47
0001
0100
1000
0100
0001
0010
0100
1000
,  // measure 48
0100
0001
0100
1000
0020
1000
1030
0000
,  // measure 49
1000
0010
0100
0001
1000
0100
0001
0100
,  // measure 50
1000
0100
1000
0100
0001
0000
0100
0010
0100
0010
0000
0001
1000
0000
0001
0000
,  // measure 51
0100
0001
0100
0001
0100
0010
0100
0010
,  // measure 52
1000
0010
1000
0010
1000
0001
1000
0001
,  // measure 53
0010
0001
0010
0001
0010
0100
0010
0100
,  // measure 54
1000
0100
1000
0100
1000
0001
1000
0001
,  // measure 55
1000
0100
1000
0000
0100
0010
0100
0000
0010
0001
0010
0000
0001
0100
0001
0000
,  // measure 56
0100
0010
0100
0000
0010
1000
0010
0000
1000
0001
1000
0000
0001
1000
0001
0000
,  // measure 57
1000
0010
1000
0010
0100
0001
0100
0001
1000
0100
1000
0100
0010
0001
0010
0001
,  // measure 58
1000
0001
0010
0001
1000
0001
0100
0001
1000
0010
1000
0001
1000
0010
0100
0002
,  // measure 59
2000
0000
0000
3003
,  // measure 60
0001
0100
0001
0100
0010
0000
1000
0010
1000
0000
0001
0000
1001
0000
0000
0000
,  // measure 61
0010
0001
0010
0001
0010
0100
0010
0100
1000
0100
0010
0001
1000
0000
0001
1000
,  // measure 62
0010
1000
0010
1000
0010
0100
0010
0100
0001
0100
0010
1000
0001
0000
1000
0001
,  // measure 63
0010
0001
0010
0001
0010
0100
0010
0100
1000
0100
0010
0001
0010
0000
0100
1000
,  // measure 64
0001
0000
0100
0000
1000
0000
0100
0010
0100
0000
0001
0000
1001
0000
0000
0000
,  // measure 65
0001
0100
0001
0100
0010
0100
0010
0100
0001
0100
0010
1000
0001
0000
1000
0001
,  // measure 66
1000
0100
1000
0100
0010
0100
0010
0100
1000
0100
0010
0001
1000
0000
0001
1000
,  // measure 67
0001
0100
0001
0100
0010
0100
0010
0100
0001
0100
0010
1000
0001
0000
0010
0100
,  // measure 68
1000
0000
0100
0000
0001
0000
0100
0000
1000
0000
0100
0010
0001
0000
0000
0000
,  // measure 69
0001
0010
0001
0010
0100
0000
1000
0000
0001
0000
1000
0100
0010
0000
0001
0000
,  // measure 70
1000
0010
1000
0010
0100
0000
0001
0000
1000
0000
0001
0100
0010
0000
1000
0000
,  // measure 71
0001
1000
0001
1000
0100
0000
0010
0000
0001
0000
0010
0100
1000
0001
0100
0000
,  // measure 72
0010
0000
1000
0000
0001
0010
0100
1000
0001
0000
0000
0000
1001
0000
0000
0000
,  // measure 73
1000
0010
1000
0010
0100
0000
0001
0000
1000
0000
0001
0000
1001
0000
0000
0000
,  // measure 74
0001
0010
0001
0010
0100
0000
1000
0000
0001
1000
0001
1000
0001
0000
0000
0000
,  // measure 75
1000
0000
0100
0000
0001
0000
0100
0000
1000
0100
0000
0100
0010
0000
0001
1000
,  // measure 76
0001
0010
0001
1000
0001
0100
0010
1000
0010
0000
0010
0000
1010
0000
0000
0000
,  // measure 77
2000
0000
3010
0020
0000
0001
0031
0000
,  // measure 78
0010
1000
0010
1000
0100
0000
0010
0100
0010
0000
0001
0000
0011
0000
0000
0000
,  // measure 79
2002
0000
0000
0000
,  // measure 80
3003
0000
0000
0000
;

//---------------dance-single - ----------------
#NOTEDATA:;
#CHARTNAME:;
#STEPSTYPE:dance-single;
#DESCRIPTION:;
#CHARTSTYLE:;
#DIFFICULTY:Hard;
#METER:14;
#RADARVALUES:0.745965,0.779873,0.237352,0.135630,0.326360,616.000000,588.000000,28.000000,16.000000,0.000000,0.000000,0.000000,0.000000,0.000000,0.745965,0.779873,0.237352,0.135630,0.326360,616.000000,588.000000,28.000000,16.000000,0.000000,0.000000,0.000000,0.000000,0.000000;
#CREDIT:TonyAkita;
#NOTES:
0000
0000
0000
0000
,
1000
0010
1000
0000
0001
0010
0100
0000
,
1000
0100
0001
0100
0010
0000
1001
0000
,
0001
0100
0001
0000
1000
0100
0010
0000
,
0001
0000
0010
0000
1000
0000
0010
0000
0100
0000
1000
0001
1000
0000
0000
0000
,
0100
1000
0100
0000
0010
0001
0010
0000
,
0001
1000
0001
0100
0010
0000
1010
0000
,
0010
1000
0010
0000
0100
0001
0100
0000
,
0001
0000
1000
0000
0001
0000
0010
0000
0100
0000
1000
0001
1000
0000
0000
0000
,
2002
0000
0000
3003
,
1000
0010
1000
0010
1000
0000
0001
0000
0001
0000
0001
0000
1001
0000
0000
0000
,
1000
0010
0000
1000
0001
0000
0010
0000
0100
0000
0000
0000
1100
0000
1000
0000
,
0001
0010
0000
0001
1000
0000
0010
0000
0100
0000
0000
0000
0101
0000
0001
0000
,
1000
0100
0000
0010
0001
0000
0010
0000
0100
0000
1000
0001
1000
0000
0010
0000
,
0100
0001
0000
0100
0010
0000
1000
0000
0001
0000
0000
0000
1001
0000
1000
0000
,
0100
0001
0000
0100
1000
0000
0100
0000
0010
0000
0000
0000
0011
0000
0001
0000
,
0100
1000
0000
0100
0001
0000
0100
0000
0010
0000
0000
0000
1010
0000
1000
0000
,
0001
0010
0000
0100
1000
0000
0100
0000
0010
0000
0001
1000
0001
0000
0100
0000
,
0010
1000
0010
1000
0010
0000
0100
0000
0100
0000
0100
0000
0101
0000
0000
0000
,
1000
0000
0100
0000
0001
0000
0100
0000
1000
0000
0100
0010
0100
0000
0010
0000
,
0001
0000
0010
0000
1000
0000
0010
0000
0001
0000
0010
0100
0010
0000
0100
0000
,
1000
0001
0000
1000
0001
0000
1000
0000
0010
0000
1000
0000
0100
0000
0010
0000
,
0001
0000
1000
0001
1000
0000
0010
0000
0100
0000
0001
1000
0001
0000
0010
0000
,
0100
1000
0010
1000
0100
0010
0011
0000
,
0010
0001
0100
0001
0010
0100
1100
0000
,
1000
0001
1000
0001
1000
0000
0010
0000
1000
0000
0010
0000
0100
0000
0001
0000
,
0010
0001
0010
0001
0010
0000
0100
0000
0100
0000
0100
0000
1100
0000
0000
0000
,
1000
0001
1000
0010
0100
1000
0100
0001
,
1000
0100
1000
0100
0010
0000
0001
0000
0001
0000
0001
0000
1001
0000
0000
0000
,
0001
1000
0001
0010
0100
0001
0100
1000
,
0001
0100
0001
0100
0010
0000
1000
0000
1000
0000
1000
0000
1001
0000
0000
0000
,
1000
0010
1000
0100
0010
0010
0011
0000
,
0001
0010
0001
0010
0001
0000
0010
0000
0100
0000
0100
0000
1100
0000
0000
0000
,
1000
0000
0001
0000
1000
0000
0010
0100
0000
0001
0000
1000
0100
0000
0010
0000
,
0001
0010
0001
0010
0001
0000
1000
0000
1000
0000
1000
0000
1001
0000
0000
0000
,
0002
0000
0100
0203
0000
0010
0310
0000
,
1000
0010
0001
0010
0100
0000
0101
0000
,
2000
0000
0100
3200
0000
0010
0310
0000
,
0001
0000
0010
0000
0100
0000
1000
0000
0001
0000
0100
0010
0100
0000
0000
0000
,
0002
0000
0100
0203
0000
0010
0310
0000
,
1000
0010
0001
0010
0100
0000
0101
0000
,
2000
0000
0100
3200
0000
0010
0310
0000
,
0001
0000
0010
0000
0100
0000
1000
0000
0001
0000
0100
0010
0100
0000
0000
0000
,
0010
0000
1000
0000
0001
0000
0000
0000
0010
0000
0000
0010
0000
0000
0100
0000
,
1000
0000
0001
0000
1000
0000
0000
0000
0010
0000
0000
0010
0000
0000
0100
0000
,
0001
0000
1000
0000
0100
0000
0000
0000
0010
0000
0000
0010
0000
0000
0100
0000
,
1000
0000
0001
0000
0100
0000
0000
0000
0010
0000
0000
0010
0000
0000
0100
0000
,
0001
0000
1000
0000
0001
0000
0000
0000
0010
0000
0000
0010
0000
0000
0100
0000
,
1000
0000
0001
0000
1000
0000
0000
0000
0010
0000
0000
0010
0000
0000
0100
0000
,
0001
0000
0100
0000
0010
0000
0000
0000
1000
0000
0000
1000
0000
0000
0100
0000
,
1000
0100
0010
0100
1000
0001
0100
0000
,
0010
1000
0010
1000
0010
0100
0010
0100
,
0001
0100
0001
0100
0001
1000
0001
1000
,
0100
1000
0100
1000
0100
0010
0100
0010
,
0001
0010
0001
0010
0001
1000
0001
1000
,
0010
0001
0010
1000
0010
0001
0010
1000
,
0100
0001
0100
1000
0100
0001
0100
1000
,
0001
0010
0001
1000
0001
0100
0001
1000
,
0010
1000
0001
1000
0100
1000
0001
1000
,
2002
0000
0000
3003
,
1000
0010
1000
0010
1000
0000
0001
0000
0001
0000
0001
0000
1001
0000
0000
0000
,
0001
0100
0010
0100
1000
0100
0010
0000
,
1000
0100
0010
0100
0001
0100
0010
0000
,
0001
0100
0010
1000
0001
0010
0100
1000
,
0001
0000
0001
0000
0011
0000
0000
0001
1000
0000
1000
0000
1010
0000
0000
0000
,
1000
0010
0100
0010
0001
0010
0100
0000
,
0001
0010
0100
0010
1000
0010
0100
0000
,
1000
0010
0100
0001
1000
0100
0010
0001
,
0010
0000
1000
0000
0010
0000
0001
0000
0010
0000
0100
0010
0100
0000
0000
0000
,
1000
0010
0000
0010
0100
0000
0001
0000
1000
0000
0100
1000
0100
0000
0010
0000
,
0001
0010
0000
0010
0100
0000
1000
0000
0001
0000
0100
0001
0100
0000
0010
0000
,
1000
0100
0000
0010
0001
0000
0010
0000
0100
0000
1000
0001
1000
0001
1000
0000
,
0010
0100
1000
0100
0001
0000
1001
0000
,
1000
0100
0000
0100
0010
0000
0001
0000
1000
0000
0010
1000
0010
0000
0100
0000
,
0001
0100
0000
0100
0010
0000
1000
0000
0001
0000
0010
0001
0010
0000
0100
0000
,
1000
0000
0100
0000
0001
0000
0100
0000
0010
0001
0000
1000
0010
0000
0100
0001
,
1000
0100
0001
0100
1000
0001
1001
0000
,
0002
0000
0100
0203
0000
0010
0310
0000
,
1000
0010
1000
0010
1000
0000
0001
0000
0001
0000
0001
0000
1001
0000
0000
0000
,
0220
0000
0000
0000
,
0330
0000
0000
0000
;

//---------------dance-single - ----------------
#NOTEDATA:;
#CHARTNAME:;
#STEPSTYPE:dance-single;
#DESCRIPTION:;
#CHARTSTYLE:;
#DIFFICULTY:Medium;
#METER:10;
#RADARVALUES:0.544942,0.576428,0.237352,0.186491,0.033907,450.000000,422.000000,28.000000,22.000000,0.000000,0.000000,0.000000,0.000000,0.000000,0.544942,0.576428,0.237352,0.186491,0.033907,450.000000,422.000000,28.000000,22.000000,0.000000,0.000000,0.000000,0.000000,0.000000;
#CREDIT:TonyAkita;
#NOTES:
0000
0000
0000
0000
,
1000
0001
0010
0000
0100
1000
0001
0000
,
0100
0001
0010
0001
0100
0000
0110
0000
,
0001
1000
0100
0000
0010
0001
1000
0000
,
0010
1000
0100
1000
0010
0000
0110
0000
,
1000
0100
0010
0000
0001
1000
0010
0000
,
0100
0001
0100
1000
0100
0000
0110
0000
,
0001
0010
0100
0000
1000
0001
0100
0000
,
0010
1000
0010
0001
0010
0000
0110
0000
,
2002
0000
0000
3003
,
1000
0001
1000
0001
0010
0100
0110
0000
,
1000
0000
0001
0100
0010
0000
1000
0000
,
0001
0000
1000
0100
0010
0000
0001
0000
,
1000
0000
0010
0100
0001
0000
0100
0000
,
0010
1000
0001
1000
0100
0000
0110
0000
,
0001
0000
1000
0010
0100
0000
0001
0000
,
1000
0000
0001
0010
0100
0000
1000
0000
,
0001
0000
0100
0010
1000
0000
0001
0000
,
0010
0100
0010
0100
1000
0001
1001
0000
,
0001
0100
0001
0100
0010
0000
1010
0000
,
1000
0100
1000
0100
0010
0000
0011
0000
,
0001
1000
0000
0001
0010
0000
0000
0000
0100
0000
1000
0000
0010
0000
0000
0000
,
0100
0001
0100
1000
0100
0000
0110
0000
,
1000
0010
1000
0010
0100
0000
0101
0000
,
0001
0010
0001
0010
0100
0000
1100
0000
,
1000
0001
0000
1000
0010
0000
0000
0000
0100
0000
0001
0000
0010
0000
0000
0000
,
0010
0100
0010
0100
1000
0001
1001
0000
,
1000
0010
0100
0001
,
1000
0100
0001
0100
1000
0000
0110
0000
,
0001
0100
0010
1000
,
0001
0010
1000
0010
0001
0000
0110
0000
,
1000
0100
1000
0010
1000
0100
0010
0000
,
0001
0100
0001
0010
0001
0100
0010
0000
,
1000
0000
0001
0000
1000
0000
0000
0010
0000
0010
0000
0000
0100
0000
0001
0000
,
1000
0100
0010
0001
0010
0100
1001
0000
,
0002
0000
2003
0000
,
3020
0000
0100
0130
,
0200
0000
0302
0000
,
2003
0000
3000
1001
,
0002
0000
0023
0000
,
0230
0000
1000
1300
,
2000
0000
3020
0000
,
0230
0000
0300
0101
,
0001
0010
0001
0000
1000
0000
0010
0000
,
0100
0001
0100
0000
0001
0000
1000
0000
,
0100
1000
0100
0000
0010
0000
0001
0000
,
1000
0010
1000
0000
0010
0000
0100
0000
,
0001
0100
1000
0000
0100
0000
0010
0000
,
1000
0100
0001
0000
0100
0000
0010
0000
,
0001
1000
0010
0000
0100
0000
0001
0000
,
1000
0100
0010
0100
1000
0100
0010
0000
,
0001
0010
0001
0010
0001
0010
0001
0010
,
0100
1000
0100
1000
0100
1000
0100
1000
,
0100
0010
0100
0010
0100
0010
0100
0010
,
0001
1000
0001
1000
0001
1000
0001
1000
,
0002
0010
0010
0010
,
0023
0100
0100
0100
,
0230
1000
1000
1000
,
2300
0001
0001
3001
,
0220
0000
0000
0330
,
0001
1000
0001
1000
0100
0010
0110
0000
,
0001
0010
0100
1000
0100
0000
0010
0000
,
0001
0100
0010
1000
0010
0000
0100
0000
,
0001
0010
1000
0010
0001
0000
0010
0000
,
0100
0010
0100
0000
1000
0100
1000
0000
,
1000
0100
0010
0001
0010
0000
0100
0000
,
1000
0010
0100
0001
0100
0000
0010
0000
,
1000
0100
0001
0100
1000
0000
0100
0000
,
0010
0001
0100
0010
1000
0000
1001
0000
,
0001
0000
1000
0010
0100
0000
0001
1000
,
0100
0000
0010
0001
0100
0000
0010
1000
,
0001
0000
0010
0100
1000
0000
0001
0100
,
0010
0000
1000
0001
0010
0000
0110
0000
,
1000
0100
1000
0100
0010
0000
0011
0000
,
0001
0100
0001
0100
0010
0000
1010
0000
,
0001
0000
1000
0000
0001
0000
0000
0000
1000
0001
0000
1000
0010
0000
0000
0000
,
0100
0001
0010
0100
1000
0000
1001
0000
,
1000
0100
0010
0001
,
0010
0100
0010
0100
1000
0001
1001
0000
,
0220
0000
0000
0000
,
0330
0000
0000
0000
;

//---------------dance-single - ----------------
#NOTEDATA:;
#CHARTNAME:;
#STEPSTYPE:dance-single;
#DESCRIPTION:;
#CHARTSTYLE:;
#DIFFICULTY:Easy;
#METER:6;
#RADARVALUES:0.343919,0.406890,0.194968,0.194968,0.000000,284.000000,261.000000,23.000000,23.000000,0.000000,0.000000,0.000000,0.000000,0.000000,0.343919,0.406890,0.194968,0.194968,0.000000,284.000000,261.000000,23.000000,23.000000,0.000000,0.000000,0.000000,0.000000,0.000000;
#CREDIT:TonyAkita;
#NOTES:
0000
0000
0000
0000
,
2000
0000
0010
0000
,
3010
1000
0001
0000
,
0002
0000
0010
0000
,
0013
0001
1000
0000
,
2000
0000
0001
0000
,
3001
1000
0100
0000
,
0200
0000
0010
0000
,
0310
0001
1000
0000
,
2002
0000
0000
3003
,
0010
0010
0010
1001
,
1000
0100
0010
0000
,
0001
1000
0010
0000
,
0100
1000
0100
0001
,
0100
0010
1000
0000
,
0001
0010
0100
0000
,
1000
0001
0100
0000
,
0010
0001
0010
1000
,
0100
0100
0100
1001
,
1000
1000
0001
0100
,
0001
0000
0001
0000
0010
0100
0010
0000
,
0100
0100
1000
0001
,
0100
0010
0110
0000
,
1000
0010
1000
1001
,
0001
0010
0001
1001
,
1000
0100
0001
0100
,
0010
0010
0010
1001
,
0001
0001
1000
1000
,
0010
0000
0100
0000
0001
0001
0001
0000
,
1000
1000
0001
0001
,
0010
0000
0100
0000
1000
1000
1000
0000
,
0001
0100
0101
0000
,
0010
1000
1010
0000
,
0001
1000
0001
1000
,
0100
0100
0100
1001
,
0002
0000
0023
0000
,
0230
0000
0300
1000
,
2000
0000
3020
0000
,
0230
0000
0300
1001
,
0002
0000
2003
0000
,
3200
0000
0300
0010
,
0020
0000
0032
0000
,
2003
0000
3000
0110
,
0001
0001
0001
0000
,
1000
0000
0100
0000
,
0010
0001
0100
0000
,
0010
0000
1001
0000
,
1000
1000
1000
0000
,
0001
0000
0010
0000
,
0100
1000
0010
0000
,
0100
0000
1001
0000
,
0001
0001
0001
0001
,
0001
0001
0001
0000
,
1000
1000
1000
1000
,
1000
1000
1000
0000
,
0010
0100
0010
0100
,
0010
0100
0010
0100
,
0001
0100
0001
0100
,
0010
1000
0010
1000
,
2002
0000
0000
3003
,
0010
0010
0010
1001
,
0001
0010
1000
0010
,
0001
0100
1000
0100
,
0001
0010
0100
1000
,
0010
0000
0100
0000
0001
0001
0001
0000
,
1000
0010
1000
0100
,
0010
0001
0100
0001
,
0010
0100
1000
0001
,
0200
0010
0310
1001
,
1000
0010
0100
0101
,
0001
1000
0100
0110
,
0010
0001
0100
0110
,
0010
1000
0001
1001
,
0001
0000
0010
0000
0100
0100
0100
0000
,
1000
0000
0001
0000
0100
0100
0100
0000
,
0010
0010
1000
0001
,
0010
0010
0010
1001
,
1000
0000
0001
0000
,
0100
0100
0100
0100
,
2002
0000
0000
0000
,
3003
0000
0000
0000
;

//---------------dance-single - ----------------
#NOTEDATA:;
#CHARTNAME:;
#STEPSTYPE:dance-single;
#DESCRIPTION:;
#CHARTSTYLE:;
#DIFFICULTY:Beginner;
#METER:4;
#RADARVALUES:0.211922,0.301353,0.067815,0.067815,0.000000,175.000000,167.000000,8.000000,8.000000,0.000000,0.000000,0.000000,0.000000,0.000000,0.211922,0.301353,0.067815,0.067815,0.000000,175.000000,167.000000,8.000000,8.000000,0.000000,0.000000,0.000000,0.000000,0.000000;
#CREDIT:TonyAkita;
#NOTES:
0000
0000
0000
0000
,
1000
0000
0001
0000
,
0010
0010
0010
0000
,
0001
0000
1000
0000
,
0100
0100
0100
0000
,
1000
0000
0010
0000
,
1000
1000
1000
0000
,
0001
0000
0010
0000
,
0001
0001
0001
0000
,
0110
0000
0000
0000
,
1000
1000
1000
1000
,
1000
0000
0100
0000
,
0001
0000
0100
0000
,
1000
0000
0010
0000
,
0100
0100
0100
0000
,
0001
0000
0100
0000
,
1000
0000
0100
0000
,
0001
0000
0010
0000
,
0100
0100
0100
0100
,
0100
0000
1000
0000
,
0010
0000
0001
0000
,
0100
0000
1000
0000
,
0001
0001
0001
0000
,
1000
1000
1000
0000
,
0001
0001
0001
0000
,
0100
0000
0010
0000
,
1000
1000
1000
1000
,
1000
0000
0010
0000
,
0001
0000
0010
0000
,
1000
0000
0100
0000
,
0001
0000
0100
0000
,
1000
1000
1000
0000
,
0001
0001
0001
0000
,
0100
0000
0100
0000
,
0010
0010
0010
0010
,
0020
0000
0000
0000
,
0030
0000
0000
0000
,
0200
0000
0000
0000
,
0300
0000
0000
0000
,
0002
0000
0000
0000
,
0003
0000
0000
0000
,
2000
0000
0000
0000
,
3000
0000
0000
0000
,
0001
0000
0001
0000
,
0002
0000
0003
0000
,
0100
0000
0010
0000
,
0110
0000
0000
0000
,
1000
0000
1000
0000
,
2000
0000
3000
0000
,
0100
0000
0010
0000
,
0110
0000
0000
0000
,
0001
0001
0001
0001
,
0001
0001
0001
0000
,
1000
1000
1000
1000
,
1000
1000
1000
0000
,
0020
0000
0000
0000
,
0000
0000
0030
0000
,
0200
0000
0000
0000
,
0000
0000
0300
0000
,
1001
0000
0000
0000
,
1000
1000
1000
1000
,
1000
0000
0010
0000
,
0001
0000
0100
0000
,
1000
0000
0010
0000
,
0100
0100
0100
0000
,
0001
0000
0010
0000
,
1000
0000
0100
0000
,
0001
0000
0010
0000
,
0100
0100
0100
0000
,
1000
1000
1000
0000
,
0001
0001
0001
0000
,
0100
0100
0100
0000
,
0010
0000
1001
0000
,
0001
0001
0001
0000
,
1000
1000
1000
0000
,
1001
0000
0110
0000
,
1001
0000
0000
0000
,
1000
0000
0001
0000
,
0100
0100
0100
0100
,
0100
0000
0000
0000
;
