#VERSION:0.83;
#TITLE:SCREW // owo // SCREW;
#SUBTITLE:;
#ARTIST:かめりあ;
#TITLETRANSLIT:;
#SUBTITLETRANSLIT:;
#ARTISTTRANSLIT:Camellia;
#GENRE:TWERKCORE // uwu // BEATJUGGLE;
#ORIGIN:;
#CREDIT:;
#BANNER:SCREW owo SCREW.png;
#BACKGROUND:SCREW owo SCREW-bg.png;
#PREVIEWVID:;
#JACKET:SCREW owo SCREW-jacket.png;
#CDIMAGE:;
#DISCIMAGE:;
#LYRICSPATH:;
#CDTITLE:cdtitle.png;
#MUSIC:SCREW owo SCREW.ogg;
#OFFSET:-0.795000;
#SAMPLESTART:17.636999;
#SAMPLELENGTH:15.000000;
#SELECTABLE:YES;
#DISPLAYBPM:114.000000:228.000000;
#BPMS:0.000=114.000,
148.000=228.000,
180.000=114.000,
188.000=228.000,
209.000=456.000,
210.000=228.000,
210.500=456.000,
213.000=228.000,
213.500=456.000,
215.000=228.000,
225.000=456.000,
226.000=228.000,
226.500=456.000,
229.000=228.000,
229.500=456.000,
231.000=228.000,
262.000=114.000;
#STOPS:200.000=0.789,
209.000=0.132,
210.500=0.066,
211.000=0.132,
212.000=0.132,
213.500=0.066,
214.000=0.132,
225.000=0.132,
226.500=0.066,
227.000=0.132,
228.000=0.132,
229.500=0.066,
230.000=0.132,
249.000=0.263,
254.500=0.263,
261.000=0.263;
#DELAYS:;
#WARPS:;
#TIMESIGNATURES:0.000=4=4;
#TICKCOUNTS:0.000=4;
#COMBOS:0.000=1;
#SPEEDS:0.000=1.000=0.000=0;
#SCROLLS:0.000=1.000;
#FAKES:;
#LABELS:0.000=Song Start;
#BGCHANGES:-1.500=SCREW owo SCREW.avi=1.000=0=0=0=StretchNoLoop==CrossFade_Fastest==,
99999=-nosongbg-=1.000=0=0=0 // don't automatically add -songbackground-
;
#KEYSOUNDS:;
#ATTACKS:
;

//---------------dance-single - Daff_4K // -w- // Daff_4K----------------
#NOTEDATA:;
#CHARTNAME:Daff_4K // -w- // Daff_4K;
#STEPSTYPE:dance-single;
#DESCRIPTION:Daff_4K // -w- // Daff_4K;
#CHARTSTYLE:;
#DIFFICULTY:Beginner;
#METER:6;
#RADARVALUES:0.218395,0.258455,0.312511,0.033785,0.000000,181.000000,144.000000,37.000000,4.000000,0.000000,0.000000,0.000000,0.000000,0.000000,0.218395,0.258455,0.312511,0.033785,0.000000,181.000000,144.000000,37.000000,4.000000,0.000000,0.000000,0.000000,0.000000,0.000000;
#CREDIT:Daff_4K // -w- // Daff_4K;
#DISPLAYBPM:114.000000:228.000000;
#NOTES:
0000
0000
0000
0000
,
0000
0000
0000
0000
,
0000
0000
0000
0000
,
0000
0000
0000
0000
,
1001
0000
0110
0000
,
1001
0000
0110
0000
,
1000
0000
0001
0000
,
0010
0010
0010
0000
,
1001
0000
0010
0000
,
0110
0000
0100
0000
,
1001
0000
0001
0000
,
0100
0100
0100
0000
,
1001
0000
0010
0000
,
0110
0000
0100
0000
,
1001
0000
1000
0000
,
0100
0100
0100
0000
,
0110
0000
1001
0000
,
1000
0000
0001
0000
,
1001
0000
0110
0000
,
0010
0010
0010
0000
,
1000
1000
0000
0001
,
0001
0001
0000
1000
,
1000
0000
0010
0000
,
0100
0000
0020
0000
,
0030
0000
0010
0000
,
1000
0000
0001
0000
,
0010
0000
0010
0000
,
0001
0000
1000
0000
,
1001
0000
0010
0000
,
1001
0000
0100
0000
,
0110
0000
1000
0000
,
0110
0000
0001
0000
,
1001
0000
0110
0000
,
1001
0000
0110
0000
,
0001
0000
1000
0000
,
0010
0010
0010
0010
,
0020
0000
0030
0000
,
1001
0000
0001
0000
,
0100
0100
0100
0000
,
0110
0000
0010
0000
,
1000
1000
1000
0000
,
1001
0000
1000
0000
,
0100
0100
0100
0000
,
0010
0010
0010
0000
,
0200
0000
0300
0000
,
1001
0000
0010
0000
,
1001
0000
0100
0000
,
1001
0000
0110
0000
,
1001
0000
0110
0000
,
0100
0100
0100
0100
,
0000
1001
0000
0010
,
0000
0100
0000
0001
,
0000
1001
0000
0100
,
0100
0000
0010
0010
,
0000
1001
0000
0010
,
0000
0100
0000
1000
,
0000
1001
0000
0100
,
0100
0000
0010
0010
,
0000
1001
0000
1000
,
0000
0100
0000
0010
,
0000
1001
0000
0001
,
0000
0100
0000
0010
,
0000
1000
1000
0000
,
0100
0000
0001
0001
,
0000
0100
0000
1000
,
0000
0001
0001
0001
,
0000
1000
1000
1000
,
0000
0010
0020
0000
,
0030
0000
0000
0000
;

//---------------dance-single - Daff_4K // uwu // Daff_4K----------------
#NOTEDATA:;
#CHARTNAME:Daff_4K // uwu // Daff_4K;
#STEPSTYPE:dance-single;
#DESCRIPTION:Daff_4K // uwu // Daff_4K;
#CHARTSTYLE:;
#DIFFICULTY:Easy;
#METER:11;
#RADARVALUES:0.553831,0.631778,0.489881,0.388527,0.177371,459.000000,401.000000,58.000000,46.000000,0.000000,0.000000,0.000000,0.000000,0.000000,0.553831,0.631778,0.489881,0.388527,0.177371,459.000000,401.000000,58.000000,46.000000,0.000000,0.000000,0.000000,0.000000,0.000000;
#CREDIT:Daff_4K // uwu // Daff_4K;
#DISPLAYBPM:114.000000:228.000000;
#NOTES:
0000
0000
0000
0000
,
0000
0000
0000
0000
,
0000
0000
0000
0000
,
0000
0000
0000
0000
,
1000
0001
0100
0110
0010
1000
0100
0010
,
0001
1000
0100
0110
0010
0001
0100
0010
,
1000
1000
0001
0001
0010
0010
0100
0100
,
1000
0010
0100
0001
2002
0000
3003
0000
,
1000
0000
0100
0000
0010
0100
0000
0010
0001
0000
0100
0000
1000
0000
0100
0000
,
0010
0000
1000
0000
0001
1000
0000
0001
0010
0000
0100
0000
1000
0100
1000
0000
,
0001
0000
0100
0000
0010
0100
0000
0010
1000
0000
0100
0000
0001
0000
0100
0000
,
0010
0000
0001
0000
1000
0001
0000
1000
0010
0000
0100
0000
2002
0000
3003
0000
,
0001
0000
0010
0000
0100
0010
0000
0001
1000
0000
0010
0000
0100
0001
0100
0000
,
0001
0000
1000
0000
0100
0010
0000
0100
1000
0000
0001
0000
0100
0010
0000
0000
,
1000
0000
0010
0000
0100
0010
0000
1000
0001
0000
0010
0000
0100
1000
0100
0000
,
1000
0010
0001
0100
1000
0001
0110
0000
,
2002
3003
0220
0330
,
1100
0011
0101
1010
,
2002
3003
0220
0330
,
0001
0010
0100
1000
0010
0100
0001
1000
,
1100
0000
0000
0010
0001
0000
0101
0000
0000
0010
1000
0000
0001
0000
0000
0000
,
0101
0000
0000
0010
1000
0000
1100
0000
0000
0010
0001
0000
1000
0000
0000
0000
,
0110
0000
0000
0010
0001
0000
0100
0000
1000
0000
0001
0000
0010
0000
1000
0000
,
0100
0100
0010
0010
0002
1000
1003
0000
,
2010
0000
0001
0000
0100
0100
3100
0010
,
0001
0001
0100
1000
1000
0100
0001
0010
,
0012
0000
1000
0000
0100
0100
0103
0010
,
1000
1000
0100
0001
0001
0100
1000
0001
,
0200
0000
0010
0000
0310
0000
2000
0001
0000
0000
3001
0000
0010
0000
0100
0000
,
2000
0000
0010
0000
3010
0000
0200
0001
0000
0000
0301
0000
1000
0001
1000
0000
,
0200
0000
0010
0000
0310
0000
0002
1000
0000
0000
1003
0000
0010
0000
0100
0000
,
0001
0000
0000
0011
0000
0000
1000
0000
0000
1010
0000
0000
0100
0000
1001
0000
,
0001
1000
0100
0110
0010
0001
0100
0010
,
1000
0001
0100
0110
0010
1000
0100
0010
,
0001
0001
1000
1000
0010
0010
0100
0100
,
0001
0010
0001
0000
1000
0010
1000
0000
0001
0100
0001
0000
1000
0100
1000
0000
,
2002
0000
0000
3003
,
0102
1000
0010
1000
,
0103
0010
0100
0000
0001
1000
0001
0000
,
1200
0010
0001
0010
,
1300
0001
1000
0000
0010
0100
0001
0000
,
2100
0001
0010
0001
,
3100
0010
0100
0000
1000
0001
1000
0000
,
0201
0310
1200
0310
,
1001
0110
2002
3003
,
1100
0000
0101
0000
0010
1000
0100
0010
,
0101
0000
1100
0000
0010
0001
0100
0010
,
2001
3100
1002
0103
,
2001
3010
1002
0013
,
0001
0100
0001
0000
1000
0100
1000
0000
,
1001
0000
0001
0100
0001
0000
1000
0010
,
1000
0000
0001
0010
0100
0000
1000
0010
,
0100
0202
0303
0110
,
2002
0000
3003
0000
1100
0000
0010
0001
,
0010
0001
1000
0100
1000
0000
0001
0010
,
0001
0000
1000
0010
0100
0000
0001
0010
,
0100
2200
3300
0110
,
2002
0000
3003
0000
0101
0000
0010
1000
,
0010
1000
0002
0000
0010
0000
1000
0000
,
0100
0000
0013
0100
0010
0000
0100
1000
,
0001
2001
0010
0001
,
0100
0000
3010
0100
0010
0000
0100
0001
,
1000
0000
0000
0000
1001
0000
0000
0000
0001
0000
0000
0100
0000
0000
0001
0000
,
1000
0000
0000
0010
0000
0000
1000
0000
0001
0000
0000
0000
1000
0000
0000
0100
,
0000
0000
1000
0000
0001
0000
0000
0100
0000
0000
0001
0000
0010
0000
0000
0100
,
0000
0000
1000
0000
0001
0000
0000
0000
0101
0000
0000
0010
1000
0000
1100
0000
,
0000
0010
0001
0000
1000
0000
0100
0000
1100
0000
0000
0010
0001
0000
0101
0000
,
0000
0010
1000
0000
0100
0000
0010
0000
2002
0000
0000
0000
0000
0000
0000
0000
,
3003
0000
0000
0000
;

//---------------dance-single - Daff_4K // owo // Daff_4K----------------
#NOTEDATA:;
#CHARTNAME:Daff_4K // owo // Daff_4K;
#STEPSTYPE:dance-single;
#DESCRIPTION:Daff_4K // owo // Daff_4K;
#CHARTSTYLE:;
#DIFFICULTY:Medium;
#METER:14;
#RADARVALUES:0.779467,0.918950,0.684145,0.641914,0.633467,646.000000,565.000000,81.000000,76.000000,0.000000,0.000000,0.000000,0.000000,0.000000,0.779467,0.918950,0.684145,0.641914,0.633467,646.000000,565.000000,81.000000,76.000000,0.000000,0.000000,0.000000,0.000000,0.000000;
#CREDIT:Daff_4K // owo // Daff_4K;
#DISPLAYBPM:114.000000:228.000000;
#NOTES:
0000
0000
0000
0000
,
0000
0000
0000
0000
,
0000
0000
0000
0000
,
0000
0000
0000
0000
,
1010
0000
0100
0001
0010
0000
1001
0000
1000
0010
0100
0000
0001
1000
0100
0000
,
0011
0000
0100
1000
0010
0000
1001
0000
0001
0010
0100
0000
1000
0001
0100
0000
,
0001
0010
0100
0000
1000
0010
0100
0000
0001
0100
0010
0000
1000
0100
0010
0000
,
0001
0100
0010
1000
0100
0010
0001
1000
0020
0000
0000
0000
0130
0000
1001
0000
,
1100
0000
0000
0000
0011
0000
0000
0000
0001
0000
0200
0000
0000
0000
1300
0000
0100
0010
0100
0000
0010
0000
1000
0000
0001
0000
0010
0000
0100
0000
0000
0000
,
0110
0000
0000
0000
1001
0000
0000
0000
1000
0000
0020
0000
0000
0000
0031
0000
0010
0100
0010
0000
1000
0000
0100
0000
0010
0000
0001
0000
0100
0000
0000
0000
,
0101
0000
0000
0000
1010
0000
0000
0000
1000
0000
0200
0000
0000
0000
0301
0000
0100
0010
0100
0000
0010
0000
0001
0000
1000
0000
0010
0000
0100
0000
0000
0000
,
0110
0000
1001
0000
0001
0020
0000
1030
0010
0100
1000
0001
0200
0000
0300
0000
,
0110
0000
0000
0000
1001
0000
0000
0000
1000
0000
0020
0000
0000
0000
0130
0000
0001
0100
0001
0000
2000
0000
0000
0000
3100
0000
0010
0000
0001
0000
0000
0000
,
0101
0000
0000
0000
1010
0000
0000
0000
1000
0000
0002
0000
0000
0000
0013
0000
0100
0010
0100
0000
2000
0000
0000
0000
3001
0000
0100
0000
0010
0000
0000
0000
,
0110
0000
0000
0000
0000
0000
1001
0000
0000
0000
0000
0000
0001
0000
0000
0020
0000
0000
0000
0000
0000
0130
0000
0000
1000
0000
0000
0000
0001
0000
1000
0000
0000
0000
0001
0000
0200
0000
0000
0000
0000
0000
0310
0000
0000
0000
0000
0000
,
1010
1100
0011
0101
1001
0110
2002
3003
,
0220
0000
0000
0330
2002
0000
0000
3003
,
0110
0000
1000
0100
1000
0000
0001
0100
0001
0000
0010
0100
0010
0100
0010
0000
,
2002
0000
0000
3003
0220
0000
0000
0330
,
2010
3100
0012
0103
1001
0110
2002
3003
,
1020
0000
0130
0001
1000
0000
1200
0000
0310
0001
0100
1000
0100
0001
0010
0000
,
0021
0000
0130
1000
0001
0000
0201
0000
0310
1000
0100
0001
0100
1000
0010
0000
,
0110
0000
0100
0001
0010
1000
0010
0001
0100
0010
1000
0100
0001
0100
1000
0010
,
0100
0001
1000
0001
1000
0100
0010
0001
2000
0000
0001
0000
0002
0000
3003
0000
,
0002
0000
0010
0000
2003
0000
0000
3200
0000
0310
0002
0000
1003
0000
0001
0100
,
0001
0000
1000
0010
1000
0000
0001
0010
0100
0010
0001
1000
0100
1000
0001
0000
,
2000
0000
0010
0000
3002
0000
0000
0203
0000
0310
2000
0000
3001
0000
1000
0100
,
1000
0000
0001
0010
0001
0000
1000
0010
0100
0010
1000
0001
0100
0001
1000
0000
,
0100
0010
0100
0000
1001
0000
0001
0100
0000
1000
0100
0000
0001
0000
1000
0000
,
0010
0100
0010
0000
1001
0000
1000
0010
0000
0001
0010
0000
1000
0001
1000
0000
,
0100
0010
0100
0000
1001
0000
1000
0100
0000
0001
0100
0000
1000
0000
0001
0000
,
0011
0000
0000
1100
0000
0000
1010
0000
0000
0101
0000
0000
0110
0000
1001
0000
,
0011
0000
0100
1000
0010
0000
1001
0000
0001
0010
0100
0000
1000
0001
0100
0000
,
1010
0000
0100
0001
0010
0000
1001
0000
1000
0010
0100
0000
0001
1000
0100
0000
,
1000
0010
0100
0000
0001
0010
0100
0000
1000
0100
0010
0000
0001
0100
0010
0000
,
1000
0100
0010
0001
0100
0010
1000
0001
0010
0100
0010
0100
2000
0000
3001
0000
,
2002
0000
0000
0000
0000
0000
0000
3003
,
0101
0000
1010
0000
1000
0200
0000
0310
,
0001
1000
0001
0000
1000
0000
0010
0000
0001
0000
0010
0000
0100
0000
0000
0000
,
0110
0000
1001
0000
1000
0020
0000
0031
,
0010
0100
0010
0000
0100
0000
0001
0000
0010
0000
0100
0000
1000
0000
0000
0000
,
1100
0000
0011
0000
0001
0200
0000
0310
,
1000
0001
1000
0000
0001
0000
0010
0000
1000
0000
0010
0000
0100
0000
0000
0000
,
0110
1001
1010
0101
,
0001
0010
0100
2000
0002
0000
3003
0000
,
0201
0000
0000
0000
0000
0000
0320
0000
0000
0000
0000
0000
1030
0000
0000
0200
0000
0000
0000
0000
0000
0301
0000
0000
0100
0000
0000
0000
0010
0000
0100
0000
0000
0000
0010
0000
0001
0000
0000
0000
1000
0000
0001
0000
0000
0000
0000
0000
,
1200
0000
0000
0000
0000
0000
0000
0000
0000
0000
0000
0000
0320
0000
0000
0000
0000
0000
0000
0000
0000
0000
0000
0000
0031
0000
0000
0000
0000
0000
0200
0000
0000
0000
0000
0000
0000
0000
0000
0000
0000
0000
1300
0000
0000
0000
0000
0000
0100
0000
0000
0000
0000
0000
0000
0000
0010
0000
0000
0000
0100
0000
0000
0000
0000
0000
0000
0000
0010
0000
0000
0000
1000
0000
0000
0000
0000
0000
0000
0000
0000
0001
0000
0000
0000
0000
0000
0000
0000
0000
1000
0000
0000
0000
0000
0000
,
0001
0100
0010
0100
1000
0001
0010
1000
,
0100
0010
0100
0001
1000
0010
0001
0100
,
0010
0000
1000
0000
0001
0000
0010
0000
0100
0000
1000
0000
0001
1000
0001
0000
,
0200
0000
0310
1000
0100
0001
1000
0010
,
0001
0000
0100
0000
1000
0000
0001
0000
0010
0000
1000
0000
0100
0000
0010
0100
,
0010
0001
0202
0000
0303
0010
1000
0000
,
0022
0000
0000
0000
0033
0000
0100
0000
2000
0000
0000
0000
3001
0000
1000
0001
,
1000
0100
0010
0001
0100
1000
0001
0010
,
1000
0000
0100
0000
0001
0000
1000
0000
0010
0000
0001
0000
0100
0000
0010
0100
,
0010
1000
2200
0000
3300
0010
0001
0000
,
2020
0000
0000
0000
3030
0000
0100
0000
0002
0000
0000
0000
1003
0000
0001
1000
,
0001
0100
0110
0000
1001
0000
1000
0100
,
0001
1000
0010
0100
0010
0001
1000
0010
,
0001
0000
0110
0000
1001
0000
0001
0100
,
1000
0001
0010
0100
0010
1000
0001
0010
,
1000
0000
0010
0000
0001
0000
0000
0000
2000
0000
0000
0010
0000
0000
3010
0000
,
0200
0000
0000
0001
0000
0000
0301
0000
1000
0001
1000
0000
0002
0000
0000
0010
,
0000
0000
0013
0000
0200
0000
0000
1000
0000
0000
1300
0000
0020
0000
0000
0100
,
0000
0000
0130
0000
1001
0000
0000
0000
0021
0000
0130
1000
0001
0000
0201
0000
,
0310
1000
0100
0001
0100
1000
0010
0000
1020
0000
0130
0001
1000
0000
1200
0000
,
0310
0001
0100
1000
0100
0001
0010
0000
2002
0000
0000
0000
0000
0000
0000
0000
,
3003
0000
0000
0000
;

//---------------dance-single - Daff_4K // OwO // Daff_4K----------------
#NOTEDATA:;
#CHARTNAME:Daff_4K // OwO // Daff_4K;
#STEPSTYPE:dance-single;
#DESCRIPTION:Daff_4K // OwO // Daff_4K;
#CHARTSTYLE:;
#DIFFICULTY:Hard;
#METER:17;
#RADARVALUES:0.965284,1.176593,0.701037,0.692591,1.114902,800.000000,717.000000,83.000000,82.000000,0.000000,0.000000,0.000000,0.000000,0.000000,0.965284,1.176593,0.701037,0.692591,1.114902,800.000000,717.000000,83.000000,82.000000,0.000000,0.000000,0.000000,0.000000,0.000000;
#CREDIT:Daff_4K // OwO // Daff_4K;
#DISPLAYBPM:114.000000:228.000000;
#NOTES:
0000
0000
0000
0000
,
0000
0000
0000
0000
,
0000
0000
0000
0000
,
0000
0000
0000
0000
,
1001
0000
1000
0100
0001
0100
0010
0000
0001
0100
1000
0000
0001
0010
1000
0000
,
1001
0000
0001
0100
1000
0100
0010
0000
1000
0100
0001
0000
1000
0010
0001
0000
,
1000
0010
0100
0010
0001
0010
1000
0001
0010
0100
0010
1000
0010
0001
0100
0010
,
1000
0100
1000
0000
0001
0100
0001
0000
1000
0010
1000
0000
0001
0010
0001
0000
0200
0000
0000
0000
0000
0000
0000
0000
0310
0000
0000
0000
1001
0000
0000
0000
,
1100
0000
0000
0000
0011
0000
0000
0000
0001
0000
2000
0000
0000
0000
3010
0000
0100
0001
0100
0000
0001
1000
0001
0000
1000
0000
0100
0000
0010
0000
0000
0000
,
0110
0000
0000
0000
1001
0000
0000
0000
0001
0000
0200
0000
0000
0000
0310
0000
1000
0001
1000
0000
0001
0010
0001
0000
0010
0000
0100
0000
1000
0000
0001
0000
,
0101
0000
0000
0000
1010
0000
0000
0000
1000
0000
0002
0000
0000
0000
0013
0000
0100
1000
0100
0000
1000
0001
1000
0000
0001
0000
0100
0000
0010
0000
0000
0000
,
0110
0000
1001
0000
1000
0200
0000
0310
0001
0100
0010
2000
0002
0000
3003
0000
,
0011
0000
1100
0000
1000
0002
0000
0103
0010
1000
1200
0000
0310
0001
0101
0000
,
0110
0000
1002
0000
0103
2000
0000
3100
0010
1000
1002
0000
0013
0210
0000
1300
,
1010
0000
0000
0000
0000
0000
0101
0000
0000
0000
0000
0000
0001
0000
0000
2000
0000
0000
0000
0000
0000
3100
0000
0000
0010
0000
0001
0000
1000
0000
0001
0000
1000
0000
0020
0000
0200
0000
0000
0000
0000
0000
0330
0000
0000
0000
0000
0000
,
0101
0000
0000
0000
0011
0000
0000
0000
1100
0000
0000
0000
1010
0000
0000
0000
0110
0000
0000
0000
1001
0000
0000
0000
1000
0000
0001
1000
0001
0000
0010
0000
,
0220
0000
0330
1001
0220
0000
0330
1001
,
1000
0010
0001
0010
1000
0100
0010
0001
1000
0001
0010
1000
0010
0001
0100
0000
,
0120
2030
3200
0301
0120
0032
0203
1300
,
0110
0000
1001
0000
1100
0000
0101
0000
0011
0000
1010
0000
1000
0100
0010
0000
,
0011
0000
0001
0100
1000
0000
0110
0000
0010
1000
0100
0001
1000
0010
0001
1000
,
1010
0000
1000
0100
0001
0000
0110
0000
0010
0001
0100
1000
0001
0010
1000
0001
,
1001
0000
1000
0100
0001
1000
0010
0001
0100
1000
0001
0010
1000
0100
0010
0001
,
0100
0100
0010
0010
1000
0001
0010
0100
2000
0000
0001
0000
0002
0000
3003
0000
,
0001
0000
0200
0000
1000
0000
0000
0000
0320
0000
0000
0000
1030
0000
0002
0000
0000
0000
0013
0000
1000
0000
0001
0000
0100
0000
1000
0000
0010
0000
0100
0010
,
0100
0001
0010
1000
0001
0100
1000
0010
0001
1000
0100
0001
0010
1000
0010
0001
,
1000
0000
0000
0200
0000
0000
0001
0000
0000
0000
0000
0000
0320
0000
0000
0000
0000
0000
0031
0000
0000
2000
0000
0000
0000
0000
0000
3010
0000
0000
0001
0000
0000
1000
0000
0000
0100
0000
0000
0001
0000
0000
0010
0000
0100
0000
0010
0000
,
0100
1000
0010
0001
1000
0100
0001
0010
1000
0001
0100
1000
0010
0001
0010
1000
,
0001
0020
1000
0000
0230
0000
2300
0001
0000
3010
0001
1000
0100
0010
1000
0100
,
0001
0200
1000
0000
0320
0000
0032
1000
0000
0103
1000
0001
0010
0100
0001
0000
,
1000
0020
0001
0000
0230
0000
0302
1000
0000
0013
1000
0001
0100
0010
0001
1000
,
2020
0000
3030
0202
0000
0303
0022
0000
0033
2200
0000
3300
1000
0010
0100
0001
,
1001
0000
1000
0010
0001
0010
0100
0000
1010
1000
0100
0000
0011
0001
0100
0000
,
1001
0000
0001
0010
1000
0010
0100
0000
0011
0001
0100
0000
1010
1000
0100
0000
,
1000
0010
0001
1000
0100
0010
0100
0001
0010
1000
0001
0100
0010
0100
1000
0001
,
1000
0010
1000
0000
0001
0010
0001
0000
1000
0100
1000
0000
0001
0100
0001
0000
0010
0100
0010
0100
1000
0001
1000
0001
0200
0000
0000
0000
0310
0000
0000
0000
,
2002
0000
0000
0000
0000
0000
0000
0000
3003
0000
1000
0001
1000
0001
0100
0000
0010
0000
1000
0000
0100
0000
0010
0000
0001
0000
1000
0000
0010
0000
0000
0000
,
0110
0000
0000
0000
1001
0000
0000
1000
0200
0000
0001
0000
0000
0000
0310
0000
,
0001
1000
0001
0000
1000
0010
1000
0000
0010
0000
0001
0000
0010
0000
1000
0000
,
1100
0000
0000
0000
0011
0000
0000
0001
2000
0000
0010
0000
0000
0000
3100
0000
,
0010
0100
0010
0000
0001
1000
0001
0000
1000
0000
0010
0000
0001
0000
0010
0000
,
0110
0000
0000
0000
1001
0000
0000
0001
0200
0000
1000
0000
0000
0000
0310
0000
,
1000
0001
1000
0000
0001
0010
0001
0000
0010
0000
1000
0000
0010
0000
0001
0000
,
0100
0010
0100
0000
0001
1000
0001
0000
0010
0000
0100
0000
1000
0000
0010
0000
,
0100
0010
0100
0000
0001
0000
1000
0000
0200
0000
0000
0000
0310
0000
0000
0000
,
1001
0000
0000
0000
0000
0000
0101
0000
0000
0000
0000
0000
0010
0000
0000
1000
0000
0000
0000
0000
0000
0001
0000
0000
1000
0000
0100
0000
0010
0000
0100
0000
0010
0000
0001
0000
1000
0000
0000
0000
0000
0000
0110
0000
0000
0000
0000
0000
,
1001
0000
0000
0000
0000
0000
0000
0000
0000
0000
0000
0000
1100
0000
0000
0000
0000
0000
0000
0000
0000
0000
0000
0000
0010
0000
0000
0000
0000
0000
0001
0000
0000
0000
0000
0000
0000
0000
0000
0000
0000
0000
1000
0000
0000
0000
0000
0000
0001
0000
0000
0000
0100
0000
0000
0000
0010
0000
0000
0000
0100
0000
0000
0000
0010
0000
0000
0000
1000
0000
0000
0000
0100
0000
0000
0000
0000
0000
0000
0000
0000
0010
0000
0000
0000
0000
0000
0000
0000
0000
0001
0000
0000
0000
0000
0000
,
1000
0010
1000
0000
0010
0000
0100
0000
0001
0010
0001
0000
0010
0000
0100
0000
,
1000
0001
1000
0000
0001
0000
0100
0000
0010
0100
0010
0000
1000
0000
0001
0000
,
1000
0100
1000
0000
0001
0100
0001
0000
0010
0100
0010
0000
0001
1000
0001
2000
,
0002
0000
3003
0000
1000
0010
1000
0000
0001
0010
0001
0000
1000
0100
1000
0000
,
0001
0100
0001
0000
0010
0100
0010
0000
0001
1000
0001
0000
0100
0000
0010
0000
,
1000
0001
0022
0000
0033
1100
0220
0330
,
2002
0000
0000
0000
3003
0000
0101
0000
2020
0000
3030
0000
1000
0000
0100
0010
,
0100
0000
1000
0000
0001
0010
0001
0000
1000
0010
1000
0000
0001
0100
0001
0000
,
1000
0100
1000
0000
0010
0100
0010
0000
1000
0001
1000
0000
0100
0000
0010
0000
,
0001
1000
2020
0000
3030
0101
0220
0330
,
2002
0000
0000
0000
3003
0000
1100
0000
0022
0000
0033
0000
0001
0000
0100
0010
,
0100
0000
0001
0000
1000
0000
0100
0000
0010
0000
0001
0000
0100
0010
0100
0000
,
0001
1000
0001
0000
0010
0100
0010
0000
0001
0000
0100
0000
1000
0000
0001
0000
,
0010
0000
1000
0000
0001
0000
0100
0000
0010
0000
1000
0000
0100
0010
0100
0000
,
1000
0001
1000
0000
0010
0100
0010
0000
1000
0000
0100
0010
0100
0000
0010
0000
,
0001
0000
1000
0000
2002
0000
3003
0000
0001
0100
0001
0000
0010
0000
0100
1000
,
0100
0000
0010
0000
0001
1000
0001
0000
0100
0000
0010
0000
1000
0100
1000
0000
,
0010
0000
0100
0001
0100
0000
0010
0000
1000
0001
1000
0000
0100
0000
0010
0000
,
0001
1000
0001
1000
0001
0000
0000
0000
1010
0000
1000
0100
0001
0000
0110
0000
,
0010
0001
0100
1000
0001
0010
1000
0001
0011
0000
0001
0100
1000
0000
0110
0000
,
0010
0000
0000
0000
1000
0000
0000
0000
0100
0000
0000
0000
0001
0000
0000
0000
1000
0000
0000
0000
0010
0000
0000
0000
0001
0000
0000
0000
1000
0000
0001
0000
1000
0000
0000
0000
0020
0030
0000
0000
0000
0000
0000
0000
0200
0300
0000
0000
0000
0000
0000
0000
0002
0003
0000
0000
0000
0000
0000
0000
2000
3000
0000
0000
;

//---------------dance-single - Daff_4K // @w@ // Daff_4K----------------
#NOTEDATA:;
#CHARTNAME:Daff_4K // @w@ // Daff_4K;
#STEPSTYPE:dance-single;
#DESCRIPTION:Daff_4K // @w@ // Daff_4K;
#CHARTSTYLE:;
#DIFFICULTY:Challenge;
#METER:18;
#RADARVALUES:1.072671,1.291383,0.810838,0.743268,1.444306,889.000000,793.000000,96.000000,88.000000,0.000000,0.000000,0.000000,0.000000,0.000000,1.072671,1.291383,0.810838,0.743268,1.444306,889.000000,793.000000,96.000000,88.000000,0.000000,0.000000,0.000000,0.000000,0.000000;
#CREDIT:Daff_4K // @w@ // Daff_4K;
#DISPLAYBPM:114.000000:228.000000;
#NOTES:
// measure 0
0000
0000
0000
0000
,  // measure 1
0000
0000
0000
0000
,  // measure 2
0000
0000
0000
0000
,  // measure 3
0000
0000
0000
0000
,  // measure 4
1001
0000
0010
1000
0100
0010
0001
0000
0110
1000
0001
0000
1000
0001
0110
0000
,  // measure 5
1001
0000
0010
0001
0100
0010
1000
0000
0110
0001
1000
0000
0001
1000
0110
0000
,  // measure 6
1100
0000
0010
0001
0101
0000
0010
1000
1001
0000
0001
0010
0110
0000
0100
1000
,  // measure 7
0001
0100
0001
0000
1000
0100
1000
0000
0010
0100
0010
0100
0001
1000
0001
1000
0200
0000
0000
0000
0000
0000
0000
0000
0310
0000
0000
0000
1001
0000
0000
0000
,  // measure 8
1100
0000
0000
0000
0011
0000
0000
0001
0200
0000
1000
0000
0000
0000
0310
0000
1000
0100
1000
0100
0000
0010
0001
0010
0001
0000
1000
0000
0010
0000
0100
0000
,  // measure 9
0110
0000
0000
0000
1001
0000
0000
0001
0020
0000
1000
0000
0000
0000
0130
0000
1000
0001
1000
0001
0000
0010
0000
0100
1000
0100
1000
0000
0010
0000
0100
0000
,  // measure 10
0101
0000
0000
0000
1010
0000
0000
1000
0200
0000
0001
0000
0000
0000
0310
0000
0001
0100
0001
0100
0000
0010
1000
0010
1000
0000
0001
0000
0010
0000
0100
0000
,  // measure 11
0110
0000
0000
0000
1001
0000
0000
1000
0020
0000
0001
0000
0000
0000
0130
0000
0001
0000
1000
0000
0100
0000
0010
0000
2002
0000
0000
0000
3003
0000
0000
0000
,  // measure 12
1010
0000
0000
0000
0101
0000
0000
0001
2000
0000
0100
0000
0000
0000
3010
0000
0100
0001
0100
0000
1010
0000
0000
0000
1000
0000
0001
0000
0011
0000
0000
0000
,  // measure 13
0110
0000
0000
0000
1001
0000
0000
1000
0200
0000
0001
0000
0000
0000
0310
0000
0001
0100
0001
0000
0110
0000
0000
0000
1000
0000
1001
0000
0000
0000
0001
0000
,  // measure 14
0011
0000
0000
0000
0000
0000
0000
0000
0000
0000
0000
0000
0000
0000
0000
0000
0000
0000
0000
0000
0000
0000
0000
0000
1100
0000
0000
0000
0000
0000
0000
0000
0000
0000
0000
0000
0000
0000
0000
0000
0000
0000
1000
0000
0000
0000
0000
0000
0002
0000
0000
0000
0000
0000
0000
0000
0000
0000
0000
0000
0100
0000
0000
0000
0000
0000
0000
0000
0000
0000
0000
0000
0000
0000
0000
0000
0000
0000
0000
0000
0000
0000
0000
0000
0013
0000
0000
0000
0000
0000
0000
0000
0000
0000
0000
0000
0001
0000
0000
0000
0000
0000
0000
0000
0100
0000
0000
0000
0000
0000
0000
0000
0001
0000
0000
0000
0000
0000
0000
0000
1000
0000
0000
0000
0000
0000
0000
0000
0100
0000
0000
0000
0000
0000
0000
0000
1000
0000
0000
0000
0000
0000
0000
0000
0020
0000
0000
0000
0000
0000
0000
0000
0000
0000
0000
0000
0200
0000
0000
0000
0000
0000
0000
0000
0000
0000
0000
0000
0330
0000
0000
0000
0000
0000
0000
0000
0000
0000
0000
0000
0000
0000
0000
0000
0000
0000
0000
0000
0000
0000
0000
0000
,  // measure 15
1001
0000
0000
0000
0100
0000
0010
0000
1001
0000
0000
0000
0010
0000
0100
0000
0110
0000
0000
0000
1001
0000
0000
0000
1000
0001
1000
0001
0100
0000
0010
0000
,  // measure 16
2002
0000
0000
0000
3003
0000
0010
0100
2002
0000
0000
0000
3003
0000
0100
0010
,  // measure 17
1002
0000
0000
0000
0103
0000
0010
0000
1000
0001
1000
0000
0001
0000
0010
0000
0100
0000
1000
0000
0010
0000
0100
0000
0001
0000
1000
0001
1000
0000
0100
0000
,  // measure 18
0120
0032
0203
1300
0120
2030
3200
0302
,  // measure 19
0103
0010
0100
0000
1000
0010
1000
0000
0001
0010
0001
0000
1000
0100
1000
0000
0001
0100
0001
0000
0010
0100
0010
0000
0100
0000
0000
0000
1001
0000
0000
0000
,  // measure 20
0201
0000
0310
1000
1100
0000
0012
0000
1003
0100
0100
0001
0010
0010
1000
0001
,  // measure 21
1200
0000
0310
0001
0101
0000
2010
0000
3001
0100
0100
1000
0010
0010
0001
1000
,  // measure 22
1002
0000
0103
0010
1000
0100
0010
0001
1000
0010
0010
0001
0100
0100
1000
0001
,  // measure 23
0100
0000
0010
0000
0100
0000
0010
0000
0000
1000
0000
0000
0100
0000
0010
0000
0100
0000
0010
0000
0000
0001
0000
0000
0200
0000
0000
0000
0000
0000
0310
0000
0000
0000
0000
0000
2002
0000
0000
0000
0000
0000
3003
0000
0000
0000
0000
0000
,  // measure 24
1000
0000
0000
0200
0000
0000
0001
0000
0000
0000
0000
0000
0320
0000
0000
0000
0000
0000
0032
0000
0000
1000
0000
0000
0000
0000
0000
0103
0000
0000
1000
0000
0000
0100
0000
0000
0001
0000
0000
1000
0000
0000
0100
0000
0010
0000
0100
0000
,  // measure 25
0010
0000
0001
0000
0100
0000
1000
0000
0100
0000
0010
0100
0010
0000
1000
0000
0100
0000
0010
0000
0001
0000
1000
0000
0010
0000
0100
0000
0001
0000
1000
0000
,  // measure 26
0001
0000
0000
0200
0000
0000
1000
0000
0000
0000
0000
0000
0320
0000
0000
0000
0000
0000
2030
0000
0000
0001
0000
0000
0000
0000
0000
3100
0000
0000
0001
0000
0000
0100
0000
0000
1000
0000
0000
0001
0000
0000
0100
0000
0010
0000
0100
0000
,  // measure 27
0010
1000
0100
0001
1000
0010
0001
0100
1000
0100
0010
0001
0010
1000
0100
0010
,  // measure 28
0002
0100
1003
0000
0201
0000
0310
2000
0000
3100
0001
1000
0010
0100
0010
0001
,  // measure 29
0200
0000
0010
0000
1300
0000
0000
0000
0120
0000
0000
0000
1030
0000
0002
0000
0000
0000
0013
0000
1000
0000
0010
0000
0100
0000
0010
0000
0001
1000
0001
0000
,  // measure 30
2000
0100
3001
0000
1200
0000
0310
0002
0000
0103
1000
0001
0010
0100
0010
1000
,  // measure 31
1002
0000
0013
0210
0000
1300
1020
0000
0130
0102
0000
1003
0100
0010
0001
1000
,  // measure 32
1010
0000
0100
0001
0010
1000
0010
0001
1001
0010
0100
0000
0110
1000
0001
0000
,  // measure 33
0011
0000
0100
1000
0010
0001
0010
1000
1001
0010
0100
0000
0110
0001
1000
0000
,  // measure 34
1010
0010
0100
0001
1001
1000
0100
0010
0011
0010
0100
1000
1001
0001
0100
0010
,  // measure 35
1000
0100
1000
0000
0001
0100
0001
0000
1000
0010
1000
0000
0001
0010
0001
0000
0100
0010
0100
0010
1000
0001
1000
0001
0020
0000
0000
0000
0130
0000
0000
0000
,  // measure 36
2002
0000
0000
0000
0000
0000
0000
3003
,  // measure 37
0011
0000
0000
0000
1100
0000
0000
1000
0010
0000
0001
0000
1000
0000
0100
0000
,  // measure 38
0001
0010
0001
0010
0000
1000
0010
1000
0010
0000
0001
0100
0001
0000
1000
0000
,  // measure 39
1010
0000
0000
0000
0101
0000
0000
0001
1000
0000
0100
0000
0001
0000
0100
0000
,  // measure 40
0010
0001
0010
0001
0000
1000
0010
1000
0010
0000
0100
0000
0001
0000
1000
0000
,  // measure 41
1010
0000
0000
0000
0101
0000
0000
0001
0010
0000
1000
0000
0001
0000
0100
0000
,  // measure 42
1000
0010
1000
0010
0000
0001
0010
0001
0010
0000
1000
0100
1000
0000
0001
0000
,  // measure 43
1000
0010
1000
0000
0001
0010
0001
0000
1000
0100
1000
0000
0001
0100
0001
0000
,  // measure 44
0010
0100
0010
0100
1000
0001
1000
0001
0200
0000
0000
0000
0310
0000
0000
0000
,  // measure 45
1010
0000
0000
0000
0000
0000
0000
0000
0000
0000
0000
0000
0000
0000
0000
0000
0000
0000
0000
0000
0000
0000
0000
0000
0101
0000
0000
0000
0000
0000
0000
0000
0000
0000
0000
0000
0000
0000
0000
0000
0000
0000
0001
0000
0000
0000
0000
0000
0020
0000
0000
0000
0000
0000
0000
0000
0000
0000
0000
0000
1000
0000
0000
0000
0000
0000
0000
0000
0000
0000
0000
0000
0000
0000
0000
0000
0000
0000
0000
0000
0000
0000
0000
0000
0130
0000
0000
0000
0000
0000
0000
0000
0000
0000
0000
0000
1000
0000
0000
0000
0000
0000
0000
0000
0010
0000
0000
0000
0000
0000
0000
0000
0100
0000
0000
0000
0000
0000
0000
0000
0010
0000
0000
0000
0000
0000
0000
0000
0001
0000
0000
0000
0000
0000
0000
0000
0010
0000
0000
0000
0000
0000
0000
0000
1000
0000
0000
0000
0000
0000
0000
0000
0100
0000
0000
0000
0000
0000
0000
0000
0010
0000
0000
0000
0000
0000
0000
0000
0001
0000
0000
0000
0000
0000
0000
0000
0000
0000
0000
0000
0000
0000
0000
0000
0000
0000
0000
0000
0000
0000
0000
0000
,  // measure 46
0011
0000
0000
0000
0000
0000
0000
0000
0000
0000
0000
0000
0000
0000
0000
0000
0000
0000
0000
0000
0000
0000
0000
0000
1100
0000
0000
0000
0000
0000
0000
0000
0000
0000
0000
0000
0000
0000
0000
0000
0000
0000
1000
0000
0000
0000
0000
0000
0020
0000
0000
0000
0000
0000
0000
0000
0000
0000
0000
0000
0001
0000
0000
0000
0000
0000
0000
0000
0000
0000
0000
0000
0000
0000
0000
0000
0000
0000
0000
0000
0000
0000
0000
0000
0130
0000
0000
0000
0000
0000
0000
0000
0000
0000
0000
0000
0001
0000
0000
0000
0000
0000
0000
0000
0010
0000
0000
0000
0000
0000
0000
0000
0100
0000
0000
0000
0000
0000
0000
0000
0010
0000
0000
0000
0000
0000
0000
0000
1000
0000
0000
0000
0000
0000
0000
0000
0010
0000
0000
0000
0000
0000
0000
0000
0001
0000
0000
0000
0000
0000
0000
0000
0000
0000
0000
0000
0100
0000
0000
0000
0000
0000
0010
0000
0000
0000
0000
0000
0000
0000
0000
0000
0000
0000
0100
0000
0000
0000
0000
0000
0010
0000
0000
0000
0000
0000
0000
0000
0000
0000
0000
0000
,  // measure 47
1000
0100
1000
0000
0001
0000
0100
0000
0010
1000
0010
0000
0100
0000
0001
1000
,  // measure 48
0001
0100
0001
0000
1000
0000
0100
0000
0010
0001
0010
0000
0100
0000
1000
0001
,  // measure 49
1000
0010
1000
0000
0001
0010
0001
0000
1000
0100
1000
0100
0010
0001
0010
0002
,  // measure 50
2000
0000
3003
0000
1000
0010
1000
0000
0001
0010
0001
0000
1000
0100
1000
0000
,  // measure 51
0001
0100
0001
0000
0010
0100
1000
0000
0010
0100
0001
0000
0010
0100
0010
0100
,  // measure 52
1000
0001
0202
0303
0010
1010
2002
3003
,  // measure 53
0022
0000
0033
0000
0100
0000
1100
0000
2002
0000
3003
0000
0001
0000
1000
0100
,  // measure 54
1000
0100
0010
0000
0001
0010
0001
0000
1000
0010
1000
0000
0001
0100
0001
0000
,  // measure 55
1000
0100
1000
0000
0010
0100
0001
0000
0010
0100
1000
0000
0010
0100
0010
0100
,  // measure 56
0001
1000
2200
3300
0010
0011
2002
3003
,  // measure 57
2020
0000
3030
0000
0100
0000
0101
0000
2002
0000
3003
0000
1000
0000
0001
0100
,  // measure 58
0001
0100
0010
0000
1000
0000
0010
0100
0010
0000
0001
0000
1000
0000
0100
0000
,  // measure 59
0001
0000
0010
0001
0010
0000
0100
1000
0100
0000
1000
0001
1000
0001
0100
0000
,  // measure 60
0010
1000
0001
1000
0001
0000
0010
0100
0010
0000
1000
0000
0001
0000
0100
0000
,  // measure 61
1000
0000
0010
1000
0010
0000
0100
0001
0100
0000
0001
1000
0001
1000
0100
0000
,  // measure 62
0010
0000
0001
0000
2002
0000
3003
0000
1000
0010
0100
0010
1000
0000
0001
0100
,  // measure 63
0010
0100
0001
0000
1000
0100
0010
0100
1000
0010
0100
0000
0001
0010
0100
0010
,  // measure 64
0001
0000
1000
0100
0010
0100
1000
0000
0001
0100
0010
0100
0001
0000
1000
0100
,  // measure 65
0010
0100
1000
0002
2000
0000
3003
0000
1020
0000
0130
0001
0011
0000
2100
0000
,  // measure 66
3001
0010
0010
1000
0100
0100
0001
1000
0021
0000
0130
1000
1010
0000
0102
0000
,  // measure 67
1003
0000
0000
0000
0010
0000
0000
0000
0010
0000
0000
0000
0001
0000
0000
0000
0100
0000
0000
0000
0100
0000
0000
0000
1000
0000
0001
0000
1000
0000
0001
0000
0100
0000
0000
0000
0020
0030
0000
0000
0000
0000
0000
0000
2000
3000
0000
0000
0000
0000
0000
0000
0002
0003
0000
0000
0000
0000
0000
0000
2002
3003
0000
0000
;
