#TITLE:Reason of being;
#SUBTITLE:;
#ARTIST:sak;
#TITLETRANSLIT:;
#SUBTITLETRANSLIT:;
#ARTISTTRANSLIT:;
#GENRE:;
#CREDIT:;
#MUSIC:Reason of being.ogg;
#BANNER:Reason of being.png;
#BACKGROUND:Reason of being-bg.png;
#CDTITLE:;
#SAMPLESTART:21.509;
#SAMPLELENGTH:22.737;
#SELECTABLE:YES;
#OFFSET:-0.035;
#BPMS:0.000=190.000
,381.000=160.000
,383.000=140.000
,384.000=120.000
,385.000=71.000
;
#STOPS:;
#BGCHANGES:;
#FGCHANGES:;

//--------------- dance-single - ----------------
#NOTES:
     dance-single:
     :
     Beginner:
     2:
     0,0,0,0,0:
0000
0000
0000
0000
,
0000
0000
0000
0000
,
0000
0000
0000
0000
,
0001
0000
0000
0000
,
0000
0000
0000
0000
,
0000
0000
0000
0000
,
0000
0000
0000
0000
,
0000
0000
0000
0000
,
1000
0000
0000
0000
,
0000
0000
0000
0000
,
0000
0000
0000
0000
,
0001
0000
0000
0001
,
0000
0000
1000
0000
,
0000
1000
0000
0000
,
0100
0000
0000
0100
,
0000
0000
0010
0000
,
0000
0010
0000
0000
,
0001
0000
0000
1000
,
0000
0000
0001
0000
,
0000
1000
0000
0000
,
0010
0000
0000
0100
,
0000
0000
0010
0000
,
0000
0100
0000
0000
,
0001
0000
0000
1000
,
0000
0000
0100
0000
,
0000
1000
0000
0000
,
0001
0000
0000
0100
,
0000
0000
0001
0000
,
0000
0001
0000
0000
,
1000
0000
0000
0100
,
0000
0000
1000
0000
,
0000
1000
0000
0000
,
0010
0000
0000
0010
,
0000
0000
0001
0000
,
0000
1000
0000
0000
,
0001
0000
0000
0000
,
0000
0000
1000
0000
,
0000
0000
0000
0000
,
0100
0000
0000
0000
,
0000
0000
1000
0000
,
0000
0000
0000
0000
,
0001
0000
0000
0000
,
0000
0000
0100
0000
,
0000
0000
0000
0000
,
0001
0000
0000
0000
,
0000
0000
1000
0000
,
0000
0001
0000
0000
,
1000
0000
0000
1000
,
0000
0000
0100
0000
,
0000
0100
0000
0000
,
1000
0000
0000
0001
,
0000
0000
0100
0000
,
0000
0000
0000
0000
,
0001
0000
0000
1000
,
0000
0000
0001
0000
,
0000
1000
0000
0000
,
0010
0000
0000
0100
,
0000
0000
0010
0000
,
0000
0000
0000
0000
,
1000
0000
0000
0001
,
0000
0000
1000
0000
,
0000
1000
0000
0000
,
0001
0000
0000
0001
,
0000
0000
1000
0000
,
0000
0100
0000
0000
,
1000
0000
0000
0001
,
0000
0000
0100
0000
,
0000
0001
0000
0000
,
1000
0000
0000
1000
,
0000
0000
0001
0000
,
0000
1000
0000
0000
,
0001
0000
0000
0001
0000
0000
1000
0000
,
0000
1000
0000
0000
0001
0000
0000
0000
,
0000
1000
0000
0000
,
0100
0000
0000
0100
,
0000
0000
0010
0000
,
0000
0010
0000
0000
,
0001
0000
0000
0001
,
0000
0000
1000
0000
,
0000
1000
0000
0000
,
0001
0000
0000
0001
,
0000
0000
1000
0000
,
0000
0001
0000
0000
,
0100
0000
0000
0010
,
0000
0000
1000
0000
,
0000
0001
0000
0000
,
1000
0000
0000
0100
,
0000
0000
0010
0000
,
0000
0100
0000
0000
,
0010
0000
0000
0001
,
0000
0000
1000
0000
,
0000
0000
0000
0000
,
0001
0000
0000
0000
,
0000
0000
1000
0000
,
0000
0000
0000
0000
,
0000
0001
0000
0000
,
0000
0000
0100
0000
;

//--------------- dance-single - ----------------
#NOTES:
     dance-single:
     :
     Easy:
     6:
     0,0,0,0,0:
0000
0000
0000
0000
,
0000
0000
0000
0000
,
0000
0000
0000
0000
,
0001
0000
0000
0000
,
0000
0000
0000
0000
,
0000
0000
0000
0000
,
0000
0000
0000
0000
,
0000
0000
0000
0000
,
1000
0000
0000
0000
,
0000
0000
0000
0000
,
0000
0000
0000
0000
,
0010
0000
0000
0010
0000
0000
0010
0000
,
1000
0000
0010
0000
0100
0000
0000
0100
,
0000
0100
0001
0100
,
0001
0000
0000
0001
0000
0000
0001
0000
,
1000
0000
0001
0000
1000
0000
0000
1000
,
0000
1000
0010
0100
,
0001
0000
0000
0001
0000
0000
1000
0000
,
0001
0000
0100
0000
1000
0000
0000
1000
,
0000
0001
1000
0100
,
0010
0000
0000
0010
0000
0000
0001
0000
,
0100
0000
1000
0000
0100
0000
0000
0100
,
0000
0010
0001
1000
,
0001
0000
0001
1000
,
0000
1000
0100
0000
,
0100
0010
0000
0010
,
0001
0000
0001
0100
,
0000
0100
0010
0000
,
0010
1000
0000
1000
,
0001
0000
1000
0001
,
0000
0100
0010
0000
,
0010
1000
0000
0001
,
0100
0000
0010
1000
,
0000
0100
0001
0000
,
0001
1000
0100
0010
,
0001
0001
1000
0001
,
1000
0100
0000
0010
,
0001
0100
0010
1000
,
0000
1000
0100
0010
,
0001
1000
0000
0001
,
0100
0010
1000
1000
,
0000
0100
0010
0001
,
1000
0001
0000
0001
,
1000
0100
0010
0001
,
0000
0001
0100
0010
,
1000
0001
0000
0001
,
1000
0001
1000
0100
,
0010
0000
0000
0010
,
0001
0100
0100
0010
,
1000
0001
0000
1000
,
0001
0000
0010
0100
,
1000
0001
1000
0000
,
0000
0001
0000
0000
,
1000
0000
0001
1000
,
0000
1000
0001
0000
,
0001
0100
0000
0100
,
0010
0000
0010
0100
,
0000
0100
0001
0000
,
0000
1000
0000
0000
,
0001
0000
0000
1000
,
0001
1000
0001
0000
,
0100
0010
1000
0100
,
0010
0001
0010
0001
,
0000
0100
0010
0000
,
1000
0001
0010
0100
,
1000
0010
1000
0010
,
0000
1000
0001
0000
,
0100
0001
1000
0001
,
0100
0010
0100
0010
,
0000
1000
0100
0000
,
0010
0001
0100
0010
,
1000
0000
0000
1000
0000
0000
0001
0000
,
0000
0001
0000
0000
1000
0000
0000
0000
,
0001
0100
0001
0100
,
0010
0000
0000
0010
,
1000
0100
0010
0000
,
0010
0001
0010
0001
,
1000
0000
0001
1000
,
0100
0010
0001
0000
,
1000
0001
0100
0010
,
1000
0000
0000
0001
,
1000
0010
0100
0000
,
0100
0001
0000
0001
,
1000
0000
1000
0100
,
0010
0001
1000
0000
,
1000
0001
0000
0001
,
0100
0010
1000
0100
,
1000
0001
0100
0000
,
0001
0100
0000
0010
,
1000
0100
1000
0001
,
0100
0001
1000
0000
,
0000
0000
0000
0000
,
0000
1000
0010
1000
,
0001
0010
0001
0000
,
0000
0000
0000
0000
,
0000
0001
0100
0001
,
1000
0100
1000
0000
;

//--------------- dance-single - ----------------
#NOTES:
     dance-single:
     :
     Medium:
     9:
     0,0,0,0,0:
0000
0000
0000
0000
,
0000
0000
0000
0000
,
0000
0000
0000
0000
,
0001
0000
0000
0000
,
0000
0000
0000
0000
,
0000
0000
0000
0000
,
0000
0000
0000
0000
,
0000
0000
0000
0000
,
1000
0000
0000
0000
,
0000
0000
0000
0000
,
0000
0000
0000
0000
,
0001
0000
0000
0001
0000
0000
1000
0000
,
0100
0000
1000
0000
0010
0000
0000
0010
,
0000
0010
1000
0001
,
0100
0000
0000
0100
0000
0000
1000
0000
,
0001
0000
0100
0000
1000
0000
0000
1000
,
0000
0000
0100
0010
0001
1000
0100
0000
,
1000
0000
0000
0001
0000
0000
1000
0000
,
0100
0000
0010
0000
0100
0000
0000
0010
,
0000
0100
0001
1000
,
0001
0000
0000
1000
0000
0000
0001
0000
,
0100
0000
1000
0000
0010
0000
0000
0100
,
0000
0000
0010
1000
0100
0010
0001
0000
,
1000
0000
0000
0001
0000
1000
0001
0000
,
0010
0000
0100
0000
1000
0000
1000
0010
,
0100
0100
0000
0100
,
0001
0000
0000
1000
0000
0001
0100
0000
,
0001
0000
0010
0000
0100
0000
0000
0010
,
0000
0001
1000
0000
0000
0000
0001
0000
,
1000
0000
0000
0100
0000
0000
1000
0000
0100
0000
0000
0000
0010
0000
0000
0000
,
0001
0000
0000
0000
0010
0000
0000
0000
1000
0000
0000
0010
0000
0000
1000
0000
,
0100
1000
0001
0010
,
0001
0000
0000
0010
0000
0000
0001
0000
0100
0000
0000
0000
0010
0000
0000
0000
,
1000
0000
0000
0000
0100
0000
0000
0000
0001
0000
0000
1000
0000
0000
0001
0000
,
1000
0000
0001
0010
0100
1000
0001
0000
,
1000
0000
0001
0100
0001
0000
1000
0000
,
0010
0000
1000
0000
0100
0000
0010
0100
,
0010
0001
0100
0001
,
1000
0000
0100
0010
0100
0000
0010
0000
,
0001
0000
1000
0000
0001
0000
1000
0100
,
1000
0100
0001
0100
,
1000
0000
0010
0100
0010
0000
0100
0000
,
0001
0000
0100
0000
1000
0000
0010
1000
,
0010
0100
0001
1000
,
0100
0000
0010
0100
0010
0000
0001
0000
,
1000
0000
0100
0000
0010
0000
0001
0010
,
0001
1000
0001
0100
,
0010
0000
0000
0010
,
0100
1000
1000
0100
,
0001
0000
1000
0000
0000
0000
0001
0100
,
0001
0000
1000
0100
,
1000
0100
0010
0000
,
0000
0010
0001
0010
,
0001
0000
0000
0100
0001
0000
1000
0000
,
0000
0100
1000
0000
0010
0000
0000
0100
,
0010
0000
1000
0000
0000
0001
1000
0000
,
0001
0000
0000
0100
0001
0000
0100
0000
,
0010
1000
0001
0000
,
0000
1000
0000
0000
,
0001
1000
0001
1000
0001
1000
0001
0000
,
1000
0100
0010
0001
1000
0000
1000
0000
,
0001
0100
0001
0000
0100
0000
0010
0000
,
1000
0010
0100
0001
,
1000
0010
0100
0001
1000
0000
1000
0000
,
0010
0100
0001
0000
1000
0000
0010
0000
,
0001
0010
0100
1000
,
0100
0000
1000
0000
0010
0000
0100
0001
,
0010
0100
1000
0000
0100
0000
1000
0000
,
0001
0010
0001
0010
,
0001
1000
0001
1000
0100
0000
0010
0000
,
0001
1000
0001
0000
0100
0000
0001
0000
,
1000
0000
0000
1000
0000
0000
0001
0000
,
0000
0000
0001
0000
0000
0000
0000
0000
1000
0000
0000
0010
0000
0000
1000
0000
,
0100
0010
0010
0010
,
0001
0000
0000
0010
0000
0000
0001
0000
0100
0000
0000
0000
0010
0000
0000
0000
,
0010
0000
0000
0000
0010
0000
0000
0000
1000
0000
0000
0001
0000
0000
0100
0000
,
0010
1000
1000
1000
,
0001
0000
0000
1000
0000
0000
0010
0000
0100
0000
0000
0000
0001
0000
0000
0000
,
0001
0000
0000
0000
0001
0000
0000
0000
1000
0000
0000
0100
0000
0000
1000
0000
,
0001
0000
0000
0000
0100
0000
0000
0010
0000
0000
0100
0000
0010
0000
0000
0000
,
1000
0000
0000
0100
0000
0000
0010
0000
0001
0000
0000
0000
0010
0000
0000
0100
,
0000
0010
0100
0001
1000
0000
0000
0000
,
0001
0000
1000
0000
0000
0000
0100
0010
,
0001
0000
0000
0000
1000
0010
0100
0000
,
0001
0000
1000
0000
0001
0000
0001
0100
,
0001
0100
0010
0010
,
1000
0000
0010
1000
0010
0000
0010
0000
,
1000
0000
0100
0000
0010
0000
0010
0100
,
0010
0001
0010
0100
,
1000
0000
1000
0001
0100
0000
0010
0100
,
0010
0100
0010
0000
1000
0000
0000
0000
,
0000
0000
0000
0000
,
0001
1000
0001
0100
,
0010
1000
0100
0000
,
0000
0000
0000
0000
,
0000
0001
0100
0001
,
0010
0100
1000
0000
;

//--------------- dance-single - ----------------
#NOTES:
     dance-single:
     :
     Hard:
     14:
     0,0,0,0,0:
0000
0000
0000
0000
,
0000
0000
0000
0000
,
0000
0000
0000
0000
,
0001
0000
0000
0000
,
0000
0000
0000
0000
,
0000
0000
0000
0000
,
0000
0000
0000
0000
,
0000
0000
0000
0000
,
1000
0000
0000
0000
,
0000
0000
0000
0000
,
0000
0000
0000
0000
0000
0000
1000
0010
,
0001
0010
1000
0100
0001
0100
1000
0100
,
1000
0010
0100
0001
1000
0100
0001
1000
,
0010
0001
1000
0100
0010
0100
1000
0000
,
0001
0100
1000
0001
0010
1000
0001
0100
,
0010
0100
0001
1000
0100
0010
0001
0100
,
0010
0000
1000
0000
0001
0100
0001
0100
0001
0100
0001
0100
0010
1000
0010
1000
,
0010
1000
0100
0010
0001
0100
0010
1000
,
0001
1000
0001
0100
1000
0100
0001
1000
,
0100
0001
0100
1000
0010
0100
0001
0000
,
0001
0100
1000
0001
0010
0100
0001
1000
,
0100
0010
0001
1000
0001
1000
0100
1000
,
0010
0000
0100
0000
0001
1000
0001
1000
0001
1000
0001
1000
0001
0000
1000
0000
,
0010
0000
0000
0100
0000
0001
0010
0000
,
0100
0000
1000
0000
0100
0000
1000
0010
,
0100
0001
1000
0000
0000
0000
1000
0000
,
0001
0000
0000
1000
0000
0001
0010
0000
,
0100
0000
1000
0000
0001
0000
1000
0010
,
0000
0000
1000
0000
0001
0000
0000
0000
0100
0010
0100
0010
0100
0000
0000
0000
,
0001
0000
0000
1000
0000
0000
0001
0000
1000
0000
0000
0000
0001
0000
0100
0000
,
1000
0000
0100
0000
0001
0000
0000
0000
1000
0000
0000
0001
0000
0000
1000
0000
,
0001
0000
1000
0100
0001
0100
1000
0000
,
0010
0000
0000
0100
0000
0000
0010
0000
0100
0000
0000
0000
0001
0000
0010
0000
,
1000
0000
0010
0000
0001
0000
0000
0000
0100
0000
0000
0010
0000
0000
0100
0000
,
0010
0000
1000
0010
0001
0010
1000
0000
,
0001
0100
0010
0100
0001
1000
1000
0100
,
0010
0001
1000
0100
0001
0000
0001
0100
,
1000
0010
0100
0010
1000
0100
0001
0100
,
1000
0000
0010
1000
0100
1000
0100
0010
,
0001
0100
0010
1000
0100
0100
0010
0010
,
0001
1000
0001
0100
0010
0001
0010
1000
,
0001
0000
1000
0001
1000
0100
0100
0010
,
0001
0100
1000
0100
0001
0000
1000
0010
,
0001
0010
1000
0100
1000
0001
0100
0001
,
1000
1000
0001
0001
0100
0010
1000
0100
,
0010
0010
0001
1000
0001
0001
1000
1000
,
0010
0100
0001
0010
0001
0010
0100
1000
,
0010
0000
0000
0010
,
0100
1000
0001
0100
,
0010
0000
1000
0000
0000
0000
0100
0010
,
0001
0000
0001
1000
,
0100
1000
0010
0000
,
0000
0000
0000
0010
0000
0000
0100
0010
0100
0010
0000
0000
,
1000
0000
0100
1000
0001
0000
0001
0000
,
0100
0001
1000
0000
1000
0000
0010
1000
,
0001
0000
0001
0000
0010
0001
1000
0000
,
0001
0100
1000
0001
,
0010
0100
1000
0000
,
0000
0001
0000
0000
,
1000
0001
1000
0001
1000
0001
1000
0001
1000
0001
1000
0001
1000
0000
0000
0000
,
0100
0000
0010
0000
0001
0000
1000
0000
0100
0000
0000
0000
0100
0000
0010
0001
,
0010
0100
1000
0000
0001
0000
1000
0000
,
0001
0100
0010
0100
1000
0100
0010
0000
,
0001
0000
0010
0000
0100
0000
1000
0000
0001
0000
0000
0000
0100
0000
0010
0100
,
0010
0100
0001
0000
1000
0000
0001
0000
,
0010
0000
1000
0100
1000
0010
0001
0000
,
1000
0000
0000
0000
0001
0000
0000
0000
1000
0000
0000
0000
0010
0000
1000
0100
,
1000
0100
0010
0000
1000
0000
0001
0000
,
0100
0010
0001
0010
1000
0010
0100
0000
,
0100
0000
0010
0000
0001
0000
1000
0000
0100
0000
0000
0000
0100
0000
0010
0100
,
0010
0000
0001
0000
0010
0000
0000
0000
0001
0000
0000
0000
1000
0001
1000
0001
,
1000
0000
0000
1000
0000
0000
0001
0000
,
0000
0000
0001
0000
0000
0000
0000
0000
0100
0000
0000
0100
0000
0000
0010
0000
,
1000
0000
0001
0100
0010
1000
0010
0000
,
0100
0000
0000
0001
0000
0000
0001
0000
1000
0000
0000
0000
0100
0000
0010
0000
,
0001
0000
1000
0000
0100
0000
0000
0000
0010
0000
0000
0010
0000
0000
0001
0000
,
1000
0000
0001
1000
0100
0001
0100
0000
,
1000
0000
0000
1000
0000
0000
0001
0000
0100
0000
0000
0000
0010
0000
1000
0000
,
0100
0000
0010
0000
0001
0000
0000
0000
1000
0000
0000
0001
0000
0000
1000
0000
,
0100
0000
0000
0000
0010
0001
0010
0000
0100
0000
1000
0000
0100
0000
0010
0000
,
0001
0000
0000
0100
0000
0000
0010
0000
1000
0000
0000
0000
0010
1000
0010
0000
,
0100
0000
0000
0001
0000
0000
0010
0000
0000
0100
0000
0000
1000
0000
0000
0000
0000
0000
0001
0000
1000
0000
0001
0000
,
1000
0100
0010
0000
0001
0100
0001
0100
,
0010
0000
0000
0000
0000
0000
1000
0000
0010
0000
1000
0000
0010
0000
0000
0100
0000
0000
0010
0000
0000
0000
0000
0000
,
1000
0000
0100
0000
0010
0001
0100
0001
,
0010
0100
1000
0010
0001
0010
1000
0100
,
0010
0001
0100
0001
1000
0001
0100
0001
,
1000
0100
0010
0001
1000
0100
0001
0100
,
1000
0010
0001
0010
1000
0100
1000
0010
,
0100
0010
1000
0001
0100
0001
0010
0001
,
0100
0010
0100
0010
0100
0010
0100
0010
0100
0000
0000
0000
0000
0000
0000
0000
,
0000
0000
0000
0000
,
0100
0010
0001
0010
,
0100
1000
0100
0000
,
0000
0000
0000
0000
,
0000
0010
0100
0010
,
1000
0100
0001
0000
;

//--------------- dance-single - ----------------
#NOTES:
     dance-single:
     :
     Challenge:
     17:
     0,0,0,0,0:
0000
0000
0000
0000
,
0000
0000
0000
0000
,
0000
0000
0000
0000
,
0001
0000
0000
0000
,
0000
0000
0000
0000
,
0000
0000
0000
0000
,
0000
0000
0000
0000
,
0000
0000
0000
0000
,
1000
0000
0000
0000
,
0000
0000
0000
0000
,
0000
0000
0000
0000
0000
0000
0000
0000
0000
0000
0000
0000
1000
0100
1000
0001
,
0010
0001
0100
0010
1000
0100
1000
0100
,
1000
0001
0100
0001
0010
0001
0100
0010
,
1000
0100
0010
0001
0010
0100
1000
0000
,
0001
0100
0010
1000
0100
0010
0001
0010
,
0001
1000
0010
1000
0001
0100
0010
1000
,
0100
0000
0010
0000
0001
0100
0010
1000
0100
0010
0001
0100
0010
1000
0100
0010
,
0001
0000
0010
0000
0100
0000
1000
0100
1000
0000
0010
0000
0100
0000
0001
0000
,
0010
0000
0001
0010
0001
0000
0010
0000
0010
0000
0001
0000
0010
0000
0001
1000
,
0001
0100
0010
1000
0100
0010
0001
0000
,
0001
0000
0010
0000
0100
0000
1000
0100
1000
0000
0010
0000
0100
0000
0001
0000
,
0100
0000
0001
1000
0001
0000
0100
0000
0010
0000
1000
0000
0100
0000
0010
0001
,
0010
0000
0001
0000
1000
0010
1000
0010
0100
0001
0100
0001
1000
0010
0100
0001
,
2000
0000
0000
3002
0000
0023
0230
0000
,
2300
0000
3002
0000
0103
0000
0100
0010
,
1000
0001
2000
0000
3000
0000
2000
0000
,
3020
0000
0000
0230
0000
0320
2030
0000
,
3002
0000
0203
0000
0310
0000
0010
1000
,
0000
0000
0001
0000
1000
0000
0000
0000
0001
1000
0001
1000
0001
0000
0000
0000
,
1000
0000
0001
0100
0001
0000
1000
0001
1000
0000
0000
0000
1000
0100
0010
0001
,
0010
0001
0010
0100
1000
0001
1000
0100
1000
0000
0001
0100
0001
0000
1000
0010
,
1000
0000
0000
0000
0001
0100
0001
0100
0010
1000
0100
0010
0001
0010
0100
1000
,
0001
0000
1000
0010
1000
0000
0001
1000
0001
0000
0000
0000
0010
0100
1000
0100
,
1000
0100
0010
0001
0010
0001
0010
0100
1000
0000
0100
1000
0100
0000
0010
0001
,
0010
0000
0000
0000
0001
0100
1000
0100
0010
1000
0100
0010
0001
1000
0001
1000
,
0001
0000
1000
0000
0100
0000
0001
0000
0100
0000
1000
0100
1000
0000
0010
0000
,
0100
0001
0100
0001
0100
0000
0001
0100
0010
0000
1000
0000
0100
0000
0010
0000
,
0001
0000
1000
0000
0100
0000
0010
0001
0010
0001
0100
0000
0010
0000
0100
0000
,
0010
0000
1000
0000
0100
0000
1000
0000
0001
0000
1000
0001
1000
0000
0100
0000
,
0010
0001
0010
0001
0010
0000
0001
0010
0100
0000
0100
0010
0001
0000
0001
0100
,
1000
0000
1000
0100
0001
0000
1000
0001
1000
0000
0001
1000
0001
0000
0001
0010
,
0200
0000
0000
0000
0310
0000
0100
0000
0010
0000
0001
0010
0001
0000
1000
0000
,
0100
0010
0100
0010
0001
0000
0010
0001
0010
0000
1000
0000
0010
0000
0001
0000
,
0100
1000
0100
0010
0100
0001
0100
0001
,
1000
0001
1000
0000
0010
1000
0010
0000
0100
0000
0001
0100
0001
0000
0100
0000
,
1000
0000
0100
0000
0010
0000
1000
0000
0100
0010
0100
0000
0010
0001
0010
0000
,
0001
0100
0001
0000
1000
0100
1000
0100
0010
0001
0000
0010
0001
0000
1000
0100
,
0020
0000
0030
0010
,
0001
0100
1000
0001
,
1000
0000
0100
0000
0000
0000
1000
0100
,
0010
0000
0010
0100
,
1000
0001
2000
0000
,
0000
0000
0000
0000
0000
0000
3001
0000
0000
0000
0000
0000
1000
0000
0001
0000
1000
0000
0001
0000
0000
1000
0000
0000
,
0001
0000
0001
0100
0001
0000
1000
0000
,
1000
0100
1000
0000
0010
0000
0010
0100
,
0010
0000
0000
0100
0000
0000
0100
0010
0100
0001
0100
0010
,
1000
0000
1000
0010
1000
0000
0001
0000
,
0001
0010
0001
0000
2000
0000
0000
0000
,
0000
3000
0000
0000
,
0001
1000
0001
1000
0001
1000
0001
1000
0001
1000
0001
1000
0001
0000
0000
0000
,
1000
0000
0100
0000
0010
0000
0001
0000
1000
0000
0010
0000
0100
0000
0001
0100
,
0001
0000
1000
0000
0100
0000
1000
0000
0001
0000
0100
0001
0100
0000
0010
0000
,
1000
0010
0100
0010
0001
0010
1000
0100
,
1000
0000
0100
0000
0010
0000
0001
0000
1000
0000
0001
0000
0100
0000
0010
1000
,
0010
0000
1000
0000
0100
0000
0010
0000
0001
0000
1000
0100
1000
0000
0001
0100
,
0001
0100
1000
0100
0010
0100
0001
0100
,
0010
0000
1000
0000
0100
0000
0000
0000
0100
0000
0010
0000
0001
0000
1000
0001
,
1000
0000
0010
0000
0100
0000
0001
0000
1000
0000
0100
0000
1000
0000
0001
1000
,
0001
0100
1000
0100
0010
0100
1000
0100
,
0010
0000
1000
0000
0001
0000
1000
0000
0010
0000
1000
0000
0100
0000
0010
0100
,
0010
0000
0001
0000
0100
0000
0010
0000
1000
0000
0010
0100
0010
0000
0100
0000
,
0010
0000
0000
0010
0000
0000
1000
0000
,
0000
0000
1000
0000
0000
0000
0000
0000
0001
0000
0000
1000
0000
0000
0001
0000
,
1000
0000
0000
0000
0001
0100
0001
0100
0010
1000
0100
0010
0001
0000
0000
0000
,
1000
0000
0000
0001
0000
0000
1000
0000
0010
0000
0000
0000
1000
0010
0100
0010
,
1000
0100
0010
0001
1000
0000
0000
0000
0001
0000
0000
1000
0000
0000
0010
0000
,
1000
0000
0000
0000
0001
0010
0100
0010
0100
1000
0100
0010
0001
0000
0000
0000
,
1000
0000
0000
0001
0000
0000
0100
0000
0001
0000
0000
0000
1000
0001
1000
0100
,
1000
0100
0010
0001
0010
0001
1000
0001
1000
0000
0000
0001
0000
0000
1000
0000
,
0010
0000
0100
0000
0001
0010
0001
0100
0010
1000
0100
0010
0001
0010
0001
0100
,
0001
0000
0000
1000
0000
0000
0001
0000
0100
0000
0000
0000
0010
1000
0010
1000
,
0100
0000
0000
0010
0000
0000
0100
0000
0000
0010
0000
0000
0001
0000
0000
1000
0000
0000
0100
0000
0000
0010
0000
0000
0001
0000
0000
0000
0000
0000
0000
0000
0000
0000
0000
0000
1000
0000
0000
0000
0010
0000
0000
0000
0100
0000
0000
0000
,
0001
0100
1000
0000
0010
0100
0010
0100
,
0001
0000
0000
0000
0000
0000
0001
0000
0100
0000
0010
0000
1000
0000
0000
0100
0000
0000
0001
0000
0000
0000
0000
0000
,
1000
0000
0100
0010
0001
0000
0001
0100
0010
0000
1000
0000
0010
0000
0100
0000
,
0001
0010
0001
1000
0100
0010
0001
1000
,
0001
1000
0010
1000
,
0100
0000
0000
0000
0010
0000
0000
0000
0001
0010
0001
0010
0100
0010
0100
0010
,
0001
0000
0100
0000
0001
0010
0100
1000
0100
0010
0100
0010
0001
0100
0010
1000
,
0001
0000
1000
0000
0100
0000
1000
0000
0001
0000
1000
0000
0010
0100
0010
0100
,
0010
0100
0010
0100
0001
1000
0001
1000
0001
0000
0000
0000
0000
0000
0000
0000
,
0000
0000
0000
0000
,
0100
0010
1000
0010
,
1000
0001
0100
0000
,
0000
0000
0000
0000
,
0000
0001
0100
0001
,
1000
0100
0010
0000
;
