#VERSION:0.83;
#TITLE:Rainmaker;
#SUBTITLE:;
#ARTIST:kamome sano;
#TITLETRANSLIT:;
#SUBTITLETRANSLIT:;
#ARTISTTRANSLIT:;
#GENRE:;
#ORIGIN:;
#CREDIT:;
#BANNER:Rainmaker.png;
#BACKGROUND:Rainmaker-bg.png;
#PREVIEWVID:;
#JACKET:Rainmaker-jacket.png;
#CDIMAGE:;
#DISCIMAGE:;
#LYRICSPATH:;
#CDTITLE:;
#MUSIC:Rainmaker.ogg;
#OFFSET:-0.107000;
#SAMPLESTART:84.215179;
#SAMPLELENGTH:15.000000;
#SELECTABLE:YES;
#BPMS:0.000=180.000;
#STOPS:77.000=0.111,
77.333=0.111,
77.667=0.111,
78.000=0.111,
78.333=0.111,
78.667=0.111,
79.000=0.056,
79.167=0.056,
79.333=0.056,
79.500=0.056,
79.667=0.056,
79.833=0.056,
80.000=0.042,
80.125=0.042,
80.250=0.042,
80.375=0.042,
80.500=0.056,
80.667=0.056,
80.833=0.056;
#DELAYS:;
#WARPS:;
#TIMESIGNATURES:0.000=4=4;
#TICKCOUNTS:0.000=4;
#COMBOS:0.000=1;
#SPEEDS:0.000=1.000=0.000=0;
#SCROLLS:0.000=1.000;
#FAKES:;
#LABELS:0.000=Song Start;
#BGCHANGES:;
#KEYSOUNDS:;
#ATTACKS:
;

//---------------dance-single - ----------------
#NOTEDATA:;
#CHARTNAME:;
#STEPSTYPE:dance-single;
#DESCRIPTION:;
#CHARTSTYLE:;
#DIFFICULTY:Hard;
#METER:14;
#RADARVALUES:0.632552,0.792691,0.240209,0.392342,0.396346,553.000000,523.000000,30.000000,49.000000,0.000000,0.000000,0.000000,0.000000,0.000000,0.632552,0.792691,0.240209,0.392342,0.396346,553.000000,523.000000,30.000000,49.000000,0.000000,0.000000,0.000000,0.000000,0.000000;
#CREDIT:;
#NOTES:
// measure 0
0000
0000
0000
0000
,  // measure 1
0000
0000
0000
0000
,  // measure 2
0000
0000
0000
0000
,  // measure 3
0000
0000
0000
0000
,  // measure 4
0000
0000
0000
0000
,  // measure 5
2000
0000
0000
0000
,  // measure 6
0000
3000
0002
0000
,  // measure 7
0000
0000
0203
0000
,  // measure 8
0000
0000
0020
0000
,  // measure 9
0000
0000
0330
0000
,  // measure 10
0001
0100
2000
0000
3000
0100
0001
0100
,  // measure 11
2000
0000
0000
3000
0000
0100
0000
0001
0000
0010
0000
0000
,  // measure 12
1000
0000
0000
0000
0001
0000
0000
0001
0200
0000
0000
0000
0000
0000
0000
0000
,  // measure 13
0000
0000
0000
0000
0300
0100
1000
0001
,  // measure 14
1000
0010
0100
0010
1000
0001
0100
0001
,  // measure 15
1000
0100
0002
0000
0003
0100
1000
0100
,  // measure 16
0002
0000
0000
0003
0000
0100
0000
1000
0000
0001
0000
0010
,  // measure 17
0000
0000
0000
0000
1000
0000
0000
0000
0000
0000
0000
0000
0001
0000
0000
0000
0000
0000
0000
0000
0000
0100
0000
0000
0010
0000
0000
0000
0000
0000
0001
0000
0000
0000
0000
0000
1000
0000
0000
0000
0000
0000
0001
0000
0000
0000
0000
0000
,  // measure 18
0100
0001
1000
0010
0100
0001
1000
0100
,  // measure 19
1000
0001
2002
0000
0000
0000
0000
0000
,  // measure 20
0000
3003
0001
0001
0001
2000
3000
1000
,  // measure 21
0002
0000
0003
0000
0001
1000
0100
0010
0001
0000
0000
0000
0001
0000
1000
0000
,  // measure 22
0100
0000
0010
0000
0010
0100
1000
0000
,  // measure 23
0001
0000
0000
0000
0001
0000
0100
0000
0010
0000
0000
0000
1000
0000
1000
0001
,  // measure 24
0200
0010
1000
0010
,  // measure 25
0001
0000
0010
0000
1000
0000
0310
0100
,  // measure 26
0010
1000
0001
0010
0100
0000
0100
1000
,  // measure 27
0001
0000
1000
0000
1000
0010
0100
0000
,  // measure 28
0010
0000
0000
0000
0010
0000
1000
0000
0100
0000
0000
0000
0010
0000
0010
0001
,  // measure 29
2000
0000
0100
0000
0010
0000
3100
1000
,  // measure 30
0100
0010
0002
0000
1003
1000
0010
0000
,  // measure 31
2000
0000
0000
0000
3001
0000
0001
1000
0010
0000
0000
0000
0010
0000
0100
0000
,  // measure 32
0001
0000
1000
0000
1000
0001
0010
0000
,  // measure 33
0100
0000
0000
0000
0100
0000
1000
0000
0001
0000
0000
0000
0010
0000
0001
1000
,  // measure 34
0100
0000
0000
0100
0010
0000
0000
0010
0001
0000
0000
0001
0100
0000
0000
0100
,  // measure 35
0010
0000
0000
0000
1000
0000
0000
0000
0010
0000
0000
0000
0100
0000
0000
0000
0000
0000
0000
0000
0000
0100
0000
0000
0001
0000
0000
0000
1000
0000
0000
0000
0001
0000
0000
0000
0010
0000
0000
0000
0000
0000
0100
0000
0000
0000
0000
0000
,  // measure 36
0010
0001
1000
0100
0020
0000
0000
0130
,  // measure 37
0000
0010
0001
1000
0010
0100
0020
0000
,  // measure 38
0000
1030
0001
0010
0200
0000
0320
0000
,  // measure 39
0031
0000
0000
0001
0100
0000
0001
0000
0010
0000
0000
0010
0001
0000
1000
0000
,  // measure 40
0001
0000
0000
0000
1000
0000
0000
1000
0010
0000
1000
0000
0001
0000
0000
0001
,  // measure 41
1000
0000
0100
0000
1000
0000
0000
0000
0001
0000
0000
0001
1000
0000
0001
0000
,  // measure 42
0100
0000
0000
0000
0000
0000
0000
0000
0000
0100
0000
0000
0001
0000
0000
0000
0000
0000
1000
0000
0000
0000
0000
0000
0010
0000
0000
0000
0000
0000
0000
0000
0000
0000
0000
0000
1020
0000
0000
0000
0000
0000
0000
0000
0230
0000
0000
0000
,  // measure 43
0000
0000
0000
0000
0302
0000
0000
0000
0000
0000
0000
0000
0023
0000
0000
0000
0000
0000
0000
0000
0230
0000
0000
0000
0000
0000
0000
0000
1300
0000
0000
0000
0000
0000
0000
0000
0001
0000
0000
1000
0000
0000
0001
0000
0000
1000
0000
0000
,  // measure 44
0010
1000
0001
1000
0100
1000
0001
0100
,  // measure 45
0001
1000
0001
0010
0100
1000
0100
0001
,  // measure 46
0100
0000
0010
0000
0001
0000
0001
1000
0100
0000
0000
0100
1000
0000
0000
1000
,  // measure 47
0001
0000
0000
0000
0000
0000
0000
0000
0000
0001
0000
0000
0100
0000
0000
0000
0000
0000
0000
0000
0000
0100
0000
0000
0010
0000
0000
0000
0100
0000
0000
0000
0010
0000
0000
0000
1000
0000
0000
0000
0000
0000
0000
0000
0000
1000
0000
0000
,  // measure 48
0001
0000
1000
0000
0001
0000
0010
0000
0100
0000
0010
0000
0001
0000
0000
1000
0000
0000
0100
0000
0000
1000
0000
0000
,  // measure 49
0020
0000
0000
0130
0000
0100
0001
1000
,  // measure 50
0100
0100
0020
0000
0030
0010
0001
1000
,  // measure 51
1100
0000
0000
0000
0101
0000
0000
0000
2100
0000
0000
0100
0000
0000
0001
0000
,  // measure 52
0010
0000
0000
0010
0000
0000
0001
0000
3100
0000
0000
0000
0012
0000
0000
0010
,  // measure 53
0000
0000
1000
0000
0100
0000
0000
0100
0000
0000
1000
0000
0013
0000
0000
0000
,  // measure 54
1020
0000
0000
1000
0000
0000
0100
0000
0001
0000
0000
0001
0000
0000
0100
0000
,  // measure 55
1030
0000
0000
0000
0201
0000
0000
0001
0000
0000
0010
0000
1000
0000
0000
1000
,  // measure 56
0000
0000
0010
0000
0320
0000
0000
0000
1030
0000
0001
1000
0000
0000
1000
0000
,  // measure 57
1000
0000
0001
1000
0000
0000
1000
0000
0020
0000
0000
0000
0130
0000
0001
0100
,  // measure 58
0000
0000
0100
0000
0100
0000
0001
0100
0000
0000
0100
0000
0020
0000
0000
0000
,  // measure 59
1030
0000
0001
1000
0000
0000
0001
0000
0001
0000
1000
0001
0000
0000
0001
0000
,  // measure 60
0020
0000
0000
0000
0130
0000
0000
1100
0000
0000
1001
0000
0011
0000
0000
0101
,  // measure 61
0000
1001
1010
0000
0220
0000
0000
0000
,  // measure 62
0330
0000
0100
0001
1000
0000
0001
0000
0010
0000
0100
0000
1000
0000
0010
0000
,  // measure 63
0100
0000
0100
0010
1000
0000
0001
0000
0010
0000
0000
0000
0010
0000
0100
0000
,  // measure 64
1000
0000
1000
0001
0100
0000
0001
0000
0010
0000
0000
0000
0010
0000
0001
0000
,  // measure 65
1000
0000
0010
0000
1000
0000
0001
0000
0100
0001
0100
0000
0000
0000
0100
0000
,  // measure 66
0001
0000
0001
0000
1000
0000
0000
0000
1000
0000
0001
0000
0010
0001
0010
0000
,  // measure 67
0100
1000
0001
0100
0001
1000
0020
0000
,  // measure 68
0000
0000
0000
0000
0030
0000
0100
0010
1000
0000
0001
0000
1000
0000
0010
0000
,  // measure 69
0200
0000
0000
0000
0000
0000
0000
0000
0300
0000
0100
0001
1000
0000
0010
0000
,  // measure 70
1000
0100
0020
0000
0001
0000
1000
1000
,  // measure 71
1000
0000
0000
0031
0000
0000
0011
0000
0110
0000
1100
0000
,  // measure 72
0002
0000
0000
0003
0000
0000
0000
0000
0000
0000
0000
0000
0101
0000
0000
0000
0000
0000
0000
0000
0110
0000
0000
0000
0000
0000
0000
0000
2020
0000
0000
0000
0000
0000
0000
0000
0000
0000
0000
0000
0000
0000
3000
0000
0000
0000
0000
0000
,  // measure 73
1030
0000
1000
0001
0100
0000
0001
0000
0010
0000
0000
0000
0001
0000
1000
0000
,  // measure 74
0100
0000
0100
1000
0001
0000
0010
0000
0100
0000
0000
0000
0100
0000
0001
0000
,  // measure 75
0100
0000
1000
0000
0010
0000
0100
0000
0001
1000
0002
0000
0000
0000
0103
0000
,  // measure 76
0001
0100
1000
0001
0010
1000
0100
0010
,  // measure 77
0001
0000
0001
0010
0100
0000
0100
1000
0001
1000
0001
0000
0020
0000
0000
0000
,  // measure 78
0000
0000
0000
0000
0030
0000
0010
0100
1000
0000
0100
0000
1000
0001
1000
0000
,  // measure 79
0020
0000
0000
0000
0000
0000
0000
0000
0030
0000
0010
0100
0001
0000
0100
0000
,  // measure 80
0001
1000
0001
0000
2002
0000
0000
0000
0000
0000
0000
0000
0000
0000
0000
0000
,  // measure 81
0000
0000
0000
0000
3003
0000
0000
0000
1000
0000
0000
1000
0000
0000
0100
0000
,  // measure 82
0001
0000
0000
0001
0000
0000
0100
0000
0010
0000
0000
0000
0001
0000
0000
0001
,  // measure 83
0000
0000
0100
0000
1000
0000
0000
1000
0000
0000
0100
0000
0010
0000
0000
0000
,  // measure 84
1000
0000
0000
1000
0000
0000
0100
0000
0010
0000
0100
1000
0100
0000
1000
0000
,  // measure 85
0001
0100
0001
0000
0010
0000
0000
0010
0001
0000
0100
0000
0001
0000
0000
0001
,  // measure 86
0100
0000
0001
0000
1000
0000
0000
0000
0010
0000
0000
0010
1000
0000
0100
0000
,  // measure 87
1000
0000
0000
1000
0100
0000
0010
0000
0001
0000
0000
0000
0100
0000
0000
0001
,  // measure 88
1000
0000
1000
0000
0100
0000
0000
0100
1000
0000
0001
0000
1001
0000
0000
0000
,  // measure 89
0011
0000
0000
0101
0000
0000
1001
0000
1010
0000
0000
1100
0000
0000
0101
0000
,  // measure 90
0011
0000
0000
0000
;

//---------------dance-single - ----------------
#NOTEDATA:;
#CHARTNAME:;
#STEPSTYPE:dance-single;
#DESCRIPTION:;
#CHARTSTYLE:;
#DIFFICULTY:Medium;
#METER:11;
#RADARVALUES:0.446103,0.540471,0.128112,0.232202,0.180157,390.000000,374.000000,16.000000,29.000000,0.000000,0.000000,0.000000,0.000000,0.000000,0.446103,0.540471,0.128112,0.232202,0.180157,390.000000,374.000000,16.000000,29.000000,0.000000,0.000000,0.000000,0.000000,0.000000;
#CREDIT:;
#NOTES:
0000
0000
0000
0000
,
0000
0000
0000
0000
,
0000
0000
0000
0000
,
0000
0000
0000
0000
,
0000
0000
0000
0000
,
2000
0000
0000
0000
,
0000
3000
0200
0000
,
0000
0000
0320
0000
,
0000
0000
0032
0000
,
0000
0000
0003
0000
,
1001
0000
0000
0000
0000
1000
0100
1000
,
0001
0000
0000
0000
0000
0001
0000
0100
0000
1000
0000
0000
,
0100
0001
0010
0010
,
0100
0100
1000
0001
,
0100
0100
0010
0010
,
0110
0000
0000
0000
0000
0001
0100
0001
,
1000
0000
0000
0000
0000
1000
0000
0100
0000
0001
0000
0100
,
0000
0010
0000
0001
0000
0000
1000
0000
0000
0100
0000
0000
,
0010
0001
0100
0010
,
1000
0002
0000
0000
,
0000
0000
0103
0000
0100
0020
0000
0000
,
0000
0030
0100
0001
0010
0000
0010
0002
,
0000
0003
0100
0000
0100
0002
0000
0003
,
0010
0000
0010
0200
0000
0300
1000
0100
,
0010
0001
0100
1000
,
0010
1000
0100
0001
,
0010
0100
0010
0000
0100
0000
0100
2000
,
0000
3000
0010
0000
0010
2000
0000
3000
,
0100
0000
0100
0020
0000
0030
0001
1000
,
0010
0001
0010
1000
,
0100
0000
0001
0000
0001
0100
0000
0000
,
0100
1000
0010
0000
1000
0000
0001
0200
,
0000
0300
0001
0000
1000
0020
0000
0030
,
1000
0000
0001
0020
0000
0030
0001
1000
,
0100
1000
0010
0001
,
0100
0001
0010
1000
,
0100
1000
0001
1000
0001
0000
0100
0000
,
0010
0000
0100
0001
1000
0001
1000
0000
,
0001
0010
0110
0110
,
1000
0000
0000
1000
0000
0000
0100
0000
1000
0000
0000
1000
0000
0000
0100
0000
,
1000
0000
0000
0000
0001
0000
0000
0001
0000
0000
0100
0000
0001
0000
0000
0001
,
0000
0010
0001
0000
1000
0000
1000
0100
,
0001
0000
0000
0000
0000
0000
0001
0000
0000
0100
0000
0000
1000
0000
0000
0000
0000
0000
0001
0000
0000
0000
0100
0000
,
0000
0000
0001
0000
0000
0000
1000
0000
0000
0000
0001
0000
0000
0000
0020
0000
0000
0000
0000
0000
0000
0030
0000
0000
,
0001
0011
0010
0100
,
1100
1000
0100
0110
,
0010
0000
0000
0000
0001
0000
0010
0000
0100
0000
0000
0100
1000
0000
0000
0000
,
0001
0000
0000
0001
0100
0000
0000
0000
0100
0000
0001
0000
1000
0000
0000
1000
,
0010
0000
0110
0000
0100
0001
1000
0001
,
0010
0000
0010
0100
0000
0000
0100
1000
,
0001
1000
0010
0000
0010
0000
1000
0001
,
1000
0000
0000
0000
1001
0000
0000
0000
0001
0000
0000
0100
0000
0000
0001
0000
,
0001
0000
0000
0100
0000
0000
0001
0000
0010
0000
0000
0000
0100
0000
0000
1000
,
0000
0000
0100
0000
0100
0000
0000
1000
0000
0000
0100
0000
0010
0000
0000
0000
,
0001
0000
0000
1000
0000
0000
0001
0000
0001
0000
0000
0100
0000
0000
0010
0000
,
1000
0000
0000
0000
1000
0000
0000
0001
0000
0000
1000
0000
1000
0000
0000
0001
,
0000
0000
0010
0000
0100
0000
0000
0000
1000
0000
0000
1000
0000
0000
1000
0000
,
1000
0000
0000
0100
0000
0000
0010
0000
0011
0000
0000
0000
0100
0000
0000
0100
,
0000
0000
0100
0000
0100
0000
0000
0001
0000
0000
1000
0000
1010
0000
0000
0000
,
0001
0000
0000
0001
0000
0000
0001
0000
1000
0000
0000
1000
0000
0000
1000
0000
,
1001
0000
0000
0000
0010
0000
0000
0010
0000
0000
0010
0000
0100
0000
0000
0100
,
0000
0200
0020
0000
0000
0000
0000
0000
,
0000
0000
0330
1000
,
0100
0000
0010
0100
0010
0000
0001
0000
,
1000
0000
0010
0100
0010
0000
1000
0000
,
0001
0100
0002
0003
,
1000
0100
1000
1000
,
0010
0100
0001
0020
,
0000
0000
0030
0000
0001
1000
0001
1000
,
0200
0000
0000
0000
0300
0000
1000
0001
,
0100
0100
0020
0000
0000
0000
0000
0000
,
0000
0000
0000
0030
0000
0000
1000
0000
0010
0000
0220
0000
,
0330
0000
0000
0100
0000
0001
0000
2002
0000
3003
0000
0000
,
0001
0000
0100
0010
0100
0000
0001
0000
,
1000
0000
0100
0010
0100
0000
1000
0000
,
0010
0000
0100
0000
0100
0001
0000
0001
,
1000
0100
1000
0001
0100
0000
0110
0000
,
0010
0000
1000
0000
0100
0010
0002
0000
,
0000
0000
0003
1000
0001
0000
0100
0010
,
2000
0000
0000
0000
3000
0001
1000
0000
,
0001
0100
0020
0000
0000
0000
0000
0000
,
0000
0030
1000
0001
,
0010
0100
1000
0100
0010
0000
0001
0000
,
1000
0000
0010
0100
0001
0100
0010
0000
,
1000
0000
0001
0000
0010
0100
1000
0001
,
0100
0000
0010
0000
1000
0000
0000
1000
0000
0000
1000
0000
0100
0000
0000
0100
,
0000
0000
0100
0000
1000
0000
0000
0000
0001
0000
0000
0001
0000
0000
0001
0000
,
0100
0000
0000
0100
0000
0000
0100
0000
0001
0000
0000
0000
1000
0000
0000
1000
,
0000
0000
0100
0000
0010
0000
0000
0010
0000
0000
0001
0000
1000
0000
0000
0000
,
0010
0000
0000
0010
0000
0000
0010
0000
0010
0000
0000
0010
0000
0000
0010
0000
,
0110
0000
0000
0000
;

//---------------dance-single - ----------------
#NOTEDATA:;
#CHARTNAME:;
#STEPSTYPE:dance-single;
#DESCRIPTION:;
#CHARTSTYLE:;
#DIFFICULTY:Easy;
#METER:5;
#RADARVALUES:0.273381,0.396346,0.104091,0.232202,0.024021,239.000000,226.000000,13.000000,29.000000,0.000000,0.000000,0.000000,0.000000,0.000000,0.273381,0.396346,0.104091,0.232202,0.024021,239.000000,226.000000,13.000000,29.000000,0.000000,0.000000,0.000000,0.000000,0.000000;
#CREDIT:;
#NOTES:
0000
0000
0000
0000
,
0000
0000
0000
0000
,
0000
0000
0000
0000
,
0000
0000
0000
0000
,
0000
0000
0000
0000
,
2000
0000
0000
0000
,
0000
3000
0002
0000
,
0000
0000
2003
0000
,
0000
0000
3002
0000
,
0000
0000
0003
0000
,
1000
0100
0000
0100
,
1000
0000
0000
0000
0000
0001
0000
0000
0000
0001
0000
0000
,
0000
0100
0020
0000
,
0000
0000
0030
1000
,
0001
0010
0100
1000
,
0001
0100
0000
0100
,
0001
0000
0000
0000
0000
1000
0000
0000
0000
1000
0000
0000
,
0000
0100
0010
0010
,
0100
0100
1000
0001
,
1000
1001
0000
0000
,
0000
0000
0000
0000
,
0000
0000
1000
0000
0010
0000
0000
0100
,
0000
0000
0001
0000
0000
0100
0000
0000
,
0010
0000
0000
1000
0000
0000
0100
0000
,
1000
0100
0100
1000
,
1000
0001
0100
0100
,
0001
0000
1000
0000
0010
0000
0000
0100
,
0000
0000
0001
0000
0000
1000
0000
0000
,
0100
0000
0000
0010
0000
0000
0001
0000
,
1000
0010
1000
0001
,
0010
0000
0001
0000
0000
0010
0000
0000
,
0100
0000
1000
0000
0010
0000
0000
1000
,
0000
0000
0001
0000
0000
0010
0000
0000
,
0100
0000
0000
1000
0000
0000
0001
0000
,
0100
0001
0001
0100
,
0100
0010
1000
1000
,
0100
0010
0002
0000
,
0003
0100
0001
2000
,
0000
3000
0100
0010
,
0001
0000
0001
0000
,
0101
1000
0000
1000
,
0000
1010
0001
0100
,
0001
0000
0000
1000
0000
0000
0010
0000
0000
1000
0000
0100
,
0000
1000
0000
0100
0000
1000
0000
0200
0000
0300
0000
0000
,
1000
0001
0100
0001
,
1000
0010
1000
0001
,
0010
0100
1000
1000
,
0001
0001
1000
0100
,
0010
0001
0100
0010
,
2000
0000
3000
0010
,
0100
0002
0000
0003
,
0010
0010
0001
0000
,
0001
0000
1100
0100
,
0000
0100
0000
0011
,
1000
0000
1000
0000
,
0101
0010
0000
0010
,
0000
1001
0001
0000
,
0100
0000
1010
0001
,
0000
0010
0000
1100
,
0001
0000
1000
0000
,
0110
0010
0000
0100
,
0000
2002
0000
0000
,
0000
0000
3003
0001
,
0100
0010
2000
3000
,
1000
0010
0200
0300
,
0100
0001
0020
0030
,
0001
1000
0100
0010
,
0100
1000
0001
0020
,
0000
0030
0010
0001
,
0200
0000
0300
0010
,
1000
0002
0000
0000
,
0000
0003
2000
0000
,
3000
0002
0000
0003
,
1000
0010
0200
0300
,
0100
0010
2000
3000
,
0001
1000
0020
0030
,
0010
1000
0001
0010
,
0100
1000
0001
0020
,
0000
0030
0100
1000
,
0020
0000
0030
0100
,
0001
0020
0000
0000
,
0000
0030
0200
0000
,
0000
0000
0300
2000
,
0000
0000
0000
3000
,
0002
0000
0000
0000
,
0003
0001
0100
0010
,
0100
0001
1000
0100
,
0010
0100
1000
0001
,
1000
0001
1000
1001
,
0010
0000
0010
0000
,
0110
0000
0000
0000
;

//---------------dance-single - ----------------
#NOTEDATA:;
#CHARTNAME:;
#STEPSTYPE:dance-single;
#DESCRIPTION:;
#CHARTSTYLE:;
#DIFFICULTY:Beginner;
#METER:2;
#RADARVALUES:0.106378,0.180157,0.056049,0.016014,0.000000,93.000000,86.000000,7.000000,2.000000,0.000000,0.000000,0.000000,0.000000,0.000000,0.106378,0.180157,0.056049,0.016014,0.000000,93.000000,86.000000,7.000000,2.000000,0.000000,0.000000,0.000000,0.000000,0.000000;
#CREDIT:;
#NOTES:
0000
0000
0000
0000
,
0000
0000
0000
0000
,
0000
0000
0000
0000
,
0000
0000
0000
0000
,
0000
0000
0000
0000
,
0000
0000
0000
0000
,
0000
0000
0000
0000
,
0000
0000
0000
0000
,
0000
0000
0000
0000
,
0000
0000
0000
0000
,
1000
0000
0000
0000
,
0000
0001
0000
0000
,
0000
0000
1000
0000
,
0000
0000
0000
0000
,
0000
0000
0000
0000
,
0001
0000
0000
0000
,
0000
1000
0000
0000
,
0000
0000
0010
0000
,
0000
0000
0000
0100
,
0000
0000
0000
0000
,
0000
0000
0000
0000
,
0000
0000
1000
0000
,
0000
0100
0000
0000
,
0010
0000
0000
0100
,
1000
0000
0000
0000
,
0000
1000
0000
0000
,
0000
0000
0001
0000
,
0000
0100
0000
0000
,
0010
0000
0000
0100
,
0001
0000
0000
0000
,
0000
1000
0000
0000
,
0010
0000
1000
0000
,
0000
0100
0000
0000
,
0001
0000
0000
0100
,
1000
0000
0000
0000
,
0000
0000
0000
0000
,
0000
0001
0001
0000
,
0000
0000
1000
1000
,
0000
0000
0000
0010
,
0010
0000
0000
0000
,
0000
0100
0000
0000
,
0000
0000
0010
0000
,
0000
0000
0000
1001
,
0000
0000
0000
0000
,
0001
0000
0000
0100
,
0000
0000
0010
0000
,
0000
1000
1000
0000
,
0000
0000
0000
0001
,
0000
0000
0000
0000
,
1001
0000
0000
0000
,
0000
0110
0000
0000
,
0000
0000
1000
0000
,
1000
0000
0000
0001
,
0000
0001
0000
0000
,
1000
0000
1000
0000
,
0000
0001
0000
0001
,
0000
0000
0010
0000
,
0010
0000
0000
0100
,
0000
0100
0000
0000
,
1000
0000
1000
0000
,
0000
0001
0000
0001
,
0000
0001
0000
0000
,
0000
0000
0000
1000
,
0000
0000
0000
0000
,
0100
0000
0000
0000
,
0000
1000
0000
0000
,
0000
0000
0010
0000
,
0000
0000
0000
1000
,
0000
0000
0000
0000
,
0100
0000
0000
0000
,
0000
0001
0000
0000
,
0000
0000
1000
0000
,
0000
0001
0000
0000
,
0001
0000
0000
0000
,
0100
0000
0000
0000
,
0000
0001
0000
0000
,
0000
0000
0010
0000
,
0000
0000
0000
0110
,
0000
0000
0000
0000
,
0110
0000
0000
0000
,
0000
1001
0000
0000
,
0000
0000
0000
0000
,
0000
0000
0000
0001
,
0000
0001
0000
0000
,
1000
0000
1000
0000
,
0000
0001
0000
0100
,
0000
0000
0100
0000
,
0010
0000
0000
0010
,
0000
1000
0000
0000
,
2002
0000
0000
0000
,
3003
0000
0000
0000
;
