#TITLE:Primitive Vibes;
#SUBTITLE:;
#ARTIST:lapix;
#TITLETRANSLIT:;
#SUBTITLETRANSLIT:;
#ARTISTTRANSLIT:;
#GENRE:;
#CREDIT:;
#BANNER:Primitive Vibes.png;
#BACKGROUND:Primitive Vibes-bg.png;
#LYRICSPATH:;
#CDTITLE:;
#MUSIC:Primitive Vibes.ogg;
#OFFSET:-1.083542;
#SAMPLESTART:2.674839;
#SAMPLELENGTH:12.799999;
#SELECTABLE:YES;
#BPMS:0.000000=150.000000
;
#STOPS:262.000000=0.200000
;
#BGCHANGES:0.000=Primitive Vibes-bg.png=1.000=0=0=1===CrossFade_Faster=#000000=,
1.750=Primitive Vibes.avi=1.000=0=0=1=====,
99999=-nosongbg-=1.000=0=0=0 // don't automatically add -songbackground-
;
#KEYSOUNDS:;
#ATTACKS:;

//---------------dance-single - ----------------
#NOTES:
     dance-single:
     :
     Challenge:
     16:
     0.821252,0.880039,0.315106,0.176767,0.995273,748.000000,707.000000,41.000000,23.000000,0.000000,0.000000,0.821252,0.880039,0.315106,0.176767,0.995273,748.000000,707.000000,41.000000,23.000000,0.000000,0.000000:
// measure 0
0000
0000
0000
0000
,  // measure 1
0000
0000
0000
0000
,  // measure 2
0000
0000
0000
0000
,  // measure 3
0000
0000
0000
0000
,  // measure 4
0000
0000
0000
0000
,  // measure 5
1000
0000
0001
0000
0010
0000
0100
0000
0010
0001
0000
1000
0000
0000
0100
0000
,  // measure 6
0001
0000
0100
0000
1000
0000
0010
0000
0100
0001
0000
1000
0000
0000
0000
0000
,  // measure 7
0001
0000
1000
0000
0010
0000
0100
0000
0010
1000
0000
0001
0000
0000
0100
0000
,  // measure 8
0001
1000
0001
0000
1000
0000
0010
0100
0000
0100
0010
1000
0001
0000
0000
0000
,  // measure 9
1001
0000
1000
0010
1000
0000
0010
1000
0000
1000
0010
0100
0010
0000
0100
0001
,  // measure 10
0000
0001
0100
0001
0100
0000
0001
0010
0000
0010
0001
0010
0001
0000
0010
0100
,  // measure 11
1000
0000
0001
0010
0001
0000
0010
0100
0000
0100
0010
0100
0010
0000
0100
1000
,  // measure 12
0000
1000
0100
1000
0100
0000
0010
0001
0000
0001
0010
0100
1000
0001
1000
0010
,  // measure 13
1000
0000
0001
1000
0100
0000
1000
0001
0100
0000
0010
1000
0100
0000
0010
0001
,  // measure 14
0100
0001
0010
0100
1000
0100
0010
0001
1000
0001
1000
0001
1000
0001
1000
0001
,  // measure 15
1000
0010
0001
0010
1000
0100
0010
0010
,  // measure 16
0011
0101
1100
1001
,  // measure 17
1000
0100
0000
0100
1000
0000
0001
0000
1000
0010
0000
0010
1000
0000
0001
0000
,  // measure 18
0010
0100
0000
0100
0010
0000
0001
0000
0100
0010
0000
0010
0100
0000
0001
0000
,  // measure 19
1000
0010
0000
0100
0001
0100
0010
1000
0001
0010
0000
0100
1000
0100
0010
0001
,  // measure 20
1000
0010
0000
0100
0010
1000
0100
0010
0001
0000
0000
0000
1000
0010
1000
0000
,  // measure 21
0001
0100
0000
0100
0001
0000
1000
0001
1000
0100
0000
0100
1000
0000
0100
0010
,  // measure 22
0001
1000
0000
1000
0001
0000
0010
0100
1000
0001
0000
0001
0100
0000
0001
1000
,  // measure 23
0010
0000
0000
0010
1000
0000
0100
0000
0010
0000
0000
0010
0001
0000
1000
0000
,  // measure 24
0001
0000
0010
0001
0010
0100
1000
0010
0100
0000
1000
0100
0002
0000
0000
0000
,  // measure 25
1003
0000
0100
1000
0100
0000
0001
0000
1000
0000
0010
0001
0010
0000
0001
0000
,  // measure 26
0010
0000
0100
0001
0100
0000
1000
0000
0010
0000
0001
0010
2000
0000
3001
0000
,  // measure 27
0010
0000
0100
1000
0001
1000
0100
0010
0001
0000
0100
0001
1000
0001
0100
0010
,  // measure 28
1000
0000
0001
0010
0100
1000
0010
0100
0002
0000
2003
0000
3010
0000
0010
0000
,  // measure 29
0100
1000
0000
0100
0001
0000
1000
0100
0010
1000
0000
0010
0001
0000
0010
0100
,  // measure 30
1000
0100
0000
0001
0100
0000
1000
0001
1000
0010
0000
0001
0010
0000
1000
0001
,  // measure 31
1000
0010
0000
1000
0001
0000
0100
0000
0001
0010
0000
0001
1000
0000
0001
0000
,  // measure 32
1020
0130
0001
0021
0130
1000
1010
0000
,  // measure 33
1001
0000
0001
0011
0100
1100
1000
0010
,  // measure 34
0110
0000
0000
0000
0100
0000
0101
0000
0001
1000
0010
0000
1000
0000
0100
0000
,  // measure 35
0110
0000
1000
1010
0001
0101
0010
1000
,  // measure 36
1001
0000
1000
0100
0012
1003
2010
3001
,  // measure 37
0101
0000
0010
1100
1000
0101
0001
1000
,  // measure 38
1010
0000
0000
0000
0100
0000
0011
0000
0010
0100
1000
0000
0010
0000
1000
0001
,  // measure 39
1000
0000
0001
0101
1000
1010
0001
0100
,  // measure 40
0010
0100
0001
0100
0001
0100
0001
0100
0000
0010
0100
0010
0100
0001
0010
0100
,  // measure 41
1000
0000
0000
0000
0100
0010
0001
0000
0000
0000
0000
0000
1000
0001
0010
0001
,  // measure 42
0010
0000
1000
0010
0000
0001
0000
0010
0000
0000
0000
0000
0001
0100
0010
1000
,  // measure 43
0001
0000
0000
0000
0010
0100
1000
0000
0000
0000
0000
0000
0100
1000
0001
0100
,  // measure 44
0010
0000
0000
0000
0000
0000
1000
0000
0000
0010
0000
0000
0000
0000
0000
1000
0000
0000
0000
0000
0000
0000
0000
0000
0001
0000
0000
0000
0010
0000
0000
0000
0100
0000
0000
0000
1000
0000
0000
0000
0000
0000
0000
0000
0000
0000
0000
0000
,  // measure 45
1001
0000
0000
0000
0001
0100
0010
2000
0000
0000
0000
0000
3100
0010
0001
0010
,  // measure 46
0100
0000
1000
0001
0000
0100
0000
1000
0000
0100
0001
0010
0100
0001
0100
1000
,  // measure 47
0020
0000
1000
0000
,  // measure 48
0130
0000
0000
0000
0001
0000
0100
0001
0100
0000
0010
1000
0001
0000
0000
0000
,  // measure 49
1000
0000
0001
0010
0001
0000
1000
0000
0010
0000
0100
0001
0000
0001
0010
0000
,  // measure 50
0001
0000
1000
0100
1000
0000
0001
0000
0100
0000
0010
1000
0000
1000
0100
0000
,  // measure 51
0010
0000
0100
1000
0001
0000
0100
0000
0010
0000
1000
0001
0000
0001
1000
0000
,  // measure 52
0100
0000
0010
0001
1000
0000
0010
0000
0100
0000
0001
1000
0000
1000
0001
0000
,  // measure 53
0010
0001
0010
0001
0010
0001
0010
0001
1000
0100
1000
0100
0020
0000
0000
0000
,  // measure 54
0031
0100
0001
0100
0010
1000
0010
1000
0001
1000
0100
0010
0002
0000
0000
0000
,  // measure 55
1003
0010
0001
0010
1000
0001
1000
1000
,  // measure 56
0010
1000
0001
1000
0010
0100
0001
0000
0010
0000
0100
0000
1001
0000
0000
0000
,  // measure 57
0011
0000
0010
0001
0000
0001
0010
0100
1000
0000
0010
1000
0000
1000
0010
0100
,  // measure 58
0001
0000
1000
0100
0000
0100
1000
0001
0010
0000
0110
0000
1100
0000
0001
0000
,  // measure 59
1000
0000
0001
1000
0000
1000
0001
0010
0100
0000
1000
0010
0000
0010
1000
0100
,  // measure 60
0010
0000
0100
0010
0100
0010
0001
1000
0001
0000
0000
0001
0100
0000
0100
0000
,  // measure 61
1010
0000
1000
0010
0100
0010
1000
0001
1000
0000
0001
0010
0100
0010
0001
1000
,  // measure 62
0001
0000
1000
0100
0010
0100
1000
0001
0100
0000
0110
0000
1010
0000
0010
1000
,  // measure 63
0100
0000
0010
0100
0000
0010
0001
1000
0010
0000
0100
0001
0000
0010
0100
1000
,  // measure 64
0020
0030
1000
0001
0020
0030
0001
1000
0020
0030
0020
0030
1001
0000
0000
0000
,  // measure 65
2010
0000
0000
0000
0000
0000
0000
0000
3001
0000
0000
0000
0010
0000
0000
0000
0001
0000
0000
0000
0010
0000
0000
0000
0001
0000
0000
0000
0010
0000
0000
0000
0200
0300
0000
0000
0000
0000
0000
0000
0012
0000
0000
0000
0000
0000
0000
0000
1003
0000
0000
0000
0010
0000
0000
0000
0100
0000
0000
0000
0010
0000
0000
0000
,  // measure 66
0100
0010
1000
0010
0100
0010
1000
0001
1000
0100
0010
0001
1000
0000
1100
0000
,  // measure 67
0100
0000
0010
0100
1000
0100
0010
0001
0000
0001
1000
0010
0100
0000
0001
0100
,  // measure 68
0010
1000
0001
0010
0100
1000
0001
0100
0000
0001
0010
0000
0100
1000
0200
0000
,  // measure 69
0310
0000
0021
0000
0130
0000
1000
0100
0010
0000
0001
0010
0100
0010
0100
0010
,  // measure 70
0001
0010
0001
0010
0100
0010
0001
1000
0010
0100
0001
1000
0100
0000
0110
0000
,  // measure 71
0001
0000
0010
0001
0010
0001
0100
0000
0010
1000
0010
1000
0001
0000
0010
0001
,  // measure 72
1000
0100
0010
0100
1000
0001
1000
0010
0100
0001
1000
0000
0000
0000
2002
0000
,  // measure 73
0000
0000
0000
0000
0000
0000
0000
3003
;
