#TITLE:Party Out;
#SUBTITLE:;
#ARTIST:Getty;
#TITLETRANSLIT:;
#SUBTITLETRANSLIT:;
#ARTISTTRANSLIT:;
#GENRE:;
#CREDIT:;
#BANNER:Party Out.png;
#BACKGROUND:Party Out-bg.png;
#LYRICSPATH:;
#CDTITLE:;
#MUSIC:Party Out.ogg;
#OFFSET:-0.240000;
#SAMPLESTART:77.854996;
#SAMPLELENGTH:15.000000;
#SELECTABLE:YES;
#BPMS:0.000000=170.000000
,128.000000=85.000000
,144.000000=170.000000
;
#STOPS:
;
#BGCHANGES:;
#KEYSOUNDS:;
#ATTACKS:;

//---------------dance-single - ----------------
#NOTES:
     dance-single:
     :
     Hard:
     14:
     0.659124,0.776355,0.280918,0.102152,0.361788,542.000000,509.000000,33.000000,12.000000,0.000000,0.000000,0.659124,0.776355,0.280918,0.102152,0.361788,542.000000,509.000000,33.000000,12.000000,0.000000,0.000000:
0000
0000
0000
0000
,
0000
0000
0000
0000
,
0000
0000
0000
0000
,
0000
0000
0000
0000
,
0000
0000
0000
0000
,
0000
0000
0000
0000
,
0000
0000
0000
0000
,
0000
0000
0001
0000
0000
0000
0001
0000
1000
0000
0100
2000
0000
0000
0000
0000
,
3001
0101
1001
0101
,
1000
1100
1001
1100
,
0001
0001
0100
0001
1000
0010
0100
0001
,
1000
1000
0100
1000
0001
0010
0100
0010
,
0001
0010
0001
0000
1000
0000
1000
0000
0100
1000
0100
0000
0010
0000
0010
0000
,
0001
0100
0001
0000
1000
0000
1000
0000
0010
1000
0010
0000
0100
0000
0100
0000
,
0001
0100
0001
0000
1000
0010
1000
0000
0100
1000
0100
0000
0010
0001
0010
0000
,
0200
0000
0000
0000
0000
0000
0000
0000
0310
0000
0100
0010
0000
0000
0000
0000
,
1001
0000
1000
0100
0001
0100
1000
0100
,
0001
0100
1000
0100
0001
0100
0010
0001
,
2000
0000
3001
0100
1000
0100
0001
0100
,
1000
0100
0001
0100
0010
1000
0001
0010
,
0110
0000
0100
1000
0010
1000
0100
1000
,
0010
1000
0100
1000
0010
1000
0001
0100
,
0020
0000
0130
0001
1000
0001
0100
0001
,
0000
0000
0010
0000
0000
0000
0010
0000
0001
0000
1000
0001
0000
0000
0000
0000
,
1001
0000
0001
0100
0010
0100
0001
0100
,
0010
0100
0001
0100
0010
0100
0001
1000
,
0200
0000
1300
0001
0010
0001
1000
0100
,
0010
0100
1000
0001
0010
0010
0100
0000
,
1001
0000
1000
0010
0100
0001
0100
0010
,
1000
0001
0010
0100
0010
0001
1000
0001
,
0100
0010
0100
0010
1000
0001
1000
0001
,
0010
0000
0001
0000
0100
0000
0001
0000
1000
0000
0100
0010
0000
0000
0000
0000
,
0100
0000
0100
0000
0100
1000
0001
0100
0000
0010
0000
0010
0100
0001
1000
0100
,
0000
0000
0010
0000
0000
0000
0010
0000
0100
0000
1000
0000
0001
0000
0100
0000
0000
0000
0010
0000
0000
0000
0100
0000
0001
0000
0000
1000
0000
0000
0001
0000
,
0000
0100
0000
0100
0010
1000
0001
0010
0000
0100
0000
0100
0010
0001
1000
0010
,
0000
0000
0100
0000
0000
0000
0100
0000
0010
0000
1000
0000
0001
0000
0010
0000
0000
0000
0100
0000
0000
0000
0010
0000
0001
0000
0000
1000
0000
0000
0001
0000
,
0100
0100
0100
0100
,
0100
0001
0000
0011
0000
0010
0001
1000
,
0100
0100
0100
0100
,
0100
0000
1000
0000
0010
0000
1000
0000
0001
0000
0000
1000
0000
0000
1000
0000
,
0010
0010
0010
0010
,
0010
1000
0000
1100
0000
0100
1000
0001
,
0010
0010
0010
0010
,
0010
0000
0100
0000
1000
0000
0001
0000
0010
0000
0000
0010
0100
0000
0010
0000
,
0001
0011
1001
1010
,
1000
1010
1001
0011
,
0001
0010
0001
0010
0100
0100
1000
0001
,
1000
0010
1000
0010
0100
0100
0001
1000
,
0001
1000
0001
0000
0010
0000
0100
0000
1000
0001
1000
0000
0010
0000
0100
0000
,
0001
0100
0001
0000
1000
0000
0010
0000
1000
0100
1000
0000
0001
0000
0010
0000
,
0100
1000
0100
0000
0010
0100
0010
0000
0001
0010
0001
0000
1000
0001
1000
0002
,
2000
0000
0000
3003
,
1001
0000
0000
0000
1000
0100
0000
1000
0000
0000
1000
0000
0001
0000
1000
0000
,
0001
0000
1000
0000
0100
1000
0000
1000
0000
0000
0001
0000
0010
0000
0000
0000
,
1001
0000
0000
0000
0001
0100
0000
0100
0000
0000
0001
0000
1000
0000
0001
0000
,
1000
0000
0001
0000
0100
0001
0000
0001
0000
0000
1000
0000
0010
0100
0010
0000
,
0110
0000
0000
0000
1000
0001
0000
0010
0000
0000
0010
0000
0001
0000
1000
0000
,
0010
0000
0100
0000
0010
1000
0000
1000
0000
0000
0100
0000
0010
0000
0000
0000
,
0110
0000
0000
0000
1000
0001
0000
0100
0000
0000
0001
0000
0010
0000
1000
0000
,
0020
0000
0100
0000
0000
0000
0130
0000
1000
0000
0001
1000
0000
0000
2000
0000
,
0020
3030
1000
0001
1000
0010
0100
0002
,
0000
0000
1000
0000
0000
0000
0100
0000
0103
0000
0001
0000
1000
0001
1000
0000
,
0001
0010
0100
0010
0100
1000
0200
0000
,
0010
0000
0000
0000
0001
0000
0000
0000
1300
0000
1000
0001
1000
0000
0010
0000
,
0110
0000
0000
0000
0010
1000
0010
0000
0100
0001
0100
0000
0010
0000
1000
0000
,
0001
0010
0001
0000
1000
0100
1000
0000
0001
0000
1000
0000
0100
0000
0010
0000
,
0001
0011
0000
1001
0000
1100
0000
0100
,
1000
0000
0001
0000
1000
0000
0010
0000
0100
0000
0000
0001
0000
0000
0001
0000
,
1000
1010
0110
0101
,
0001
0011
0110
1100
,
1000
1000
0100
0010
0001
0010
0100
1000
,
0001
0001
0100
0010
1000
0010
0100
0001
,
1000
0100
0010
0000
0100
0000
0100
0000
0010
0001
1000
0000
0010
0000
0010
0000
,
0100
0010
1000
0000
0001
0000
0001
0000
0010
0001
1000
0000
0100
0000
0100
0000
,
0010
0100
0010
0000
0001
1000
0001
0000
0100
0010
0100
0000
0001
1000
0001
0000
,
0010
0000
0001
0000
1000
0000
0010
0000
0100
0000
0100
0001
0000
0000
0000
0000
,
1001
0000
0000
0000
;

//---------------dance-single - ----------------
#NOTES:
     dance-single:
     :
     Medium:
     10:
     0.431714,0.582266,0.136203,0.519273,0.097896,355.000000,339.000000,16.000000,61.000000,0.000000,0.000000,0.431714,0.582266,0.136203,0.519273,0.097896,355.000000,339.000000,16.000000,61.000000,0.000000,0.000000:
0000
0000
0000
0000
,
0000
0000
0000
0000
,
0000
0000
0000
0000
,
0000
0000
0000
0000
,
0000
0000
0000
0000
,
0000
0000
0000
0000
,
0000
0000
0000
0000
,
0000
0000
1000
0000
0000
0000
1000
0000
0001
0000
0000
0001
0000
0000
0000
0000
,
2000
3200
0320
0230
,
2300
0000
3200
0000
0320
0000
0130
0010
,
0002
0203
0320
0230
,
0302
0000
0203
0000
0320
0000
0130
0001
,
1000
0000
1000
0000
1000
0100
0010
0001
,
1000
0000
1000
0000
1000
0001
0010
0100
,
1000
0001
1000
0001
1000
0001
1000
0001
,
0020
0000
0000
0030
,
1001
0002
0100
0203
,
0010
0000
0320
0000
1000
0000
1030
0010
,
0100
0010
2000
0000
0100
0000
3200
0000
,
0010
0320
0001
0031
,
1001
2000
0010
3020
,
0100
0000
0230
0000
0001
0000
0301
0100
,
0001
0010
0002
0000
0010
0000
0103
0000
,
1000
0000
0001
0000
0000
0000
0001
0000
1000
0000
0000
1000
0000
0000
0000
0000
,
1001
2000
0010
3002
,
0100
0000
2003
0000
0010
0000
3001
1000
,
0010
1000
0002
0000
0010
0000
2003
0000
,
0100
3002
0010
1003
,
1001
2000
0100
0001
,
0010
0001
0100
3010
,
0002
0100
0010
0103
,
1000
0000
0000
0000
1000
0000
0000
0000
0001
0000
0000
0001
0000
0000
0000
0000
,
1001
0000
0000
0000
0001
0000
0001
0100
0000
0001
0000
0000
1000
0000
1000
0100
,
0000
1000
0000
0000
0001
0000
0001
0100
0000
0001
0000
0000
0010
0000
0010
0000
,
0110
0000
0000
0000
1000
0000
1000
0010
0000
1000
0000
0000
0001
0000
0001
0010
,
0000
0001
0000
0000
1000
0000
1000
0010
0000
1000
0000
0000
0100
0000
0100
0000
,
0110
0001
0001
0001
,
1000
0001
0000
0100
0000
0000
0200
0000
,
0310
1000
1000
1000
,
1000
0000
0001
1000
0010
0000
0010
0000
,
0110
0001
0001
0001
,
1000
0001
0000
0010
0000
0000
0020
0000
,
0130
1000
1000
1000
,
1000
0000
0100
1000
0002
0000
0000
0000
,
2003
3020
0230
0302
,
2003
0000
3020
0000
0230
0000
0301
1000
,
0002
0023
0230
2300
,
3002
0000
0023
0000
0230
0000
1300
0001
,
1000
0000
1000
0000
1000
0001
0100
0001
,
1000
0000
1000
0000
1000
0001
0010
0001
,
1000
0001
1000
0001
1000
0001
1000
0001
,
0020
0000
0000
0030
,
1001
0000
0000
0000
0001
0000
0000
0001
0000
0000
0001
0000
1000
0000
0000
0000
,
0010
0000
0000
0000
1000
0000
0000
1000
0000
0000
1000
0000
0001
0000
0000
0000
,
1001
0000
0000
0000
0001
0000
0000
0001
0000
0000
0001
0000
1000
0000
0000
0000
,
0010
0000
0000
0000
1000
0000
0000
0010
0000
0000
0100
0000
0001
0000
0000
0000
,
1001
0000
0000
0000
1000
0000
0000
1000
0000
0000
1000
0000
0001
0000
0000
0000
,
0010
0000
0000
0000
0001
0000
0000
0001
0000
0000
0001
0000
1000
0000
0000
0000
,
1001
0000
0000
0000
1000
0000
0000
1000
0000
0000
1000
0000
0001
0000
1000
0000
,
0002
0000
0000
0003
,
0011
0000
1000
0100
1000
0000
0001
0010
,
0001
0010
0001
0000
1000
0100
1000
0000
,
1010
0000
0001
0100
0001
0000
1000
0010
,
1000
0010
1000
0000
0001
0100
0001
0000
,
0110
0000
0100
0001
0010
0000
0010
0001
,
1000
0001
0100
0000
0010
1000
0100
0000
,
0010
0100
0000
0100
0000
0100
0000
0100
,
1000
0000
0001
0000
1000
0000
0000
0000
0001
0000
0000
0001
0000
0000
0000
0000
,
2000
3100
0002
0013
,
2000
0000
3100
0000
0002
0000
0013
0001
,
2000
3010
0002
0103
,
2000
0000
3010
0000
0002
0000
0103
0010
,
1000
0000
1000
0000
1000
0100
0001
0100
,
1000
0000
1000
0000
1000
0010
0001
0010
,
1000
0001
1000
0001
1000
0001
1000
0001
,
0020
0000
0000
0030
,
1001
0000
0000
0000
;

//---------------dance-single - ----------------
#NOTES:
     dance-single:
     :
     Easy:
     6:
     0.322265,0.323481,0.051076,0.119177,0.029794,265.000000,259.000000,6.000000,14.000000,0.000000,0.000000,0.322265,0.323481,0.051076,0.119177,0.029794,265.000000,259.000000,6.000000,14.000000,0.000000,0.000000:
0000
0000
0000
0000
,
0000
0000
0000
0000
,
0000
0000
0000
0000
,
0000
0000
0000
0000
,
0000
0000
0000
0000
,
0000
0000
0000
0000
,
0000
0000
0000
0000
,
0000
0000
1000
0001
,
1000
1000
0100
1000
,
0100
0100
0010
0100
,
0010
0010
0001
0010
,
0001
0001
1000
0001
,
1000
0100
0010
0001
,
0001
0100
0010
1000
,
1000
0001
1000
0001
,
0010
0010
0020
0030
,
1001
0001
0100
0100
,
0001
0001
0100
0001
,
2000
3001
0100
0100
,
0001
0100
0010
0020
,
0030
1000
0100
0100
,
1000
1000
0100
1000
,
0002
1003
0100
1000
,
0020
0000
0000
0030
,
1001
1000
0010
0010
,
0100
0100
0010
0020
,
1030
0001
0010
0010
,
0100
0100
0010
0020
,
0030
0001
0010
0001
,
1000
0010
1000
0001
,
0100
0001
1000
0100
,
0010
0010
0020
0030
,
0000
0100
0000
0100
0000
1000
0000
1000
,
0000
0001
0000
0001
0000
0010
0000
0010
,
0000
0001
0000
0001
0000
0100
0000
0100
,
0000
0010
0000
0010
1000
0001
2000
0000
,
3001
0001
0001
0001
,
0001
0100
0010
0100
,
0001
0001
0001
0001
,
0001
0010
0100
0110
,
1000
1000
1000
1000
,
1000
0100
0010
0100
,
1000
1000
1000
1000
,
1000
0010
0100
0110
,
0001
0001
0100
0001
,
0100
0100
0010
0100
,
0010
0010
1000
0010
,
1000
1000
0001
1000
,
0001
0010
0100
1000
,
1000
0100
0010
0001
,
1000
0001
1000
0001
,
0010
0010
0020
0030
,
0001
0000
0000
0000
0100
0000
0000
0100
0000
0000
0000
0000
0001
0000
0000
0000
,
1000
0000
0000
0000
0100
0000
0000
0100
0000
0000
0000
0000
1000
0000
0000
0000
,
0001
0000
0000
0000
0010
0000
0000
0010
0000
0000
0000
0000
0001
0000
0000
0000
,
1000
0000
0000
0000
0010
0000
0000
0010
0000
0000
0000
0000
1000
0000
0000
0000
,
0001
0000
0000
0000
0100
0000
0000
0100
0000
0000
0000
0000
0010
0000
0000
0000
,
1000
0000
0000
0000
0100
0000
0000
0100
0000
0000
0000
0000
0010
0000
0000
0000
,
0001
0000
0000
0000
1000
0000
0000
0001
0000
0000
0000
0000
1000
0000
0000
0000
,
0020
0000
0000
0030
,
1001
1000
0001
0100
,
0100
0100
0001
1000
,
0010
1000
0001
0010
,
0010
0010
0001
1000
,
0100
0010
0001
0100
,
0100
0100
0001
0100
,
0010
1000
0001
0020
,
0200
0000
0000
0330
,
1000
1000
0100
1000
,
0001
0001
0010
0001
,
0100
0100
0001
0100
,
0010
0010
1000
0010
,
0100
0001
1000
0100
,
0010
0001
1000
0010
,
1000
0001
1000
0001
,
0020
0000
0000
0030
,
1001
0000
0000
0000
;

//---------------dance-single - ----------------
#NOTES:
     dance-single:
     :
     Beginner:
     2:
     0.125258,0.194089,0.085127,0.000000,0.000000,103.000000,93.000000,10.000000,0.000000,0.000000,0.000000,0.125258,0.194089,0.085127,0.000000,0.000000,103.000000,93.000000,10.000000,0.000000,0.000000,0.000000:
0000
0000
0000
0000
,
0000
0000
0000
0000
,
0000
0000
0000
0000
,
0000
0000
0000
0000
,
0000
0000
0000
0000
,
0000
0000
0000
0000
,
0000
0000
0000
0000
,
0000
0000
0000
0000
,
1000
0000
1000
0000
,
0001
0000
0001
0000
,
1000
0000
1000
0000
,
0001
0000
0001
0000
,
1000
0000
0001
0000
,
1000
0000
0001
0000
,
1000
0000
1000
0000
,
1000
0000
0000
0000
,
1000
0000
0000
0000
,
0100
0000
0000
0000
,
1000
0000
0000
0000
,
0100
0000
0000
0000
,
0001
0000
0000
0000
,
0100
0000
0000
0000
,
0001
0000
0000
0000
,
0100
0000
0000
0000
,
1000
0000
0000
0000
,
0010
0000
0000
0000
,
1000
0000
0000
0000
,
0010
0000
0000
0000
,
0001
0000
0000
0000
,
0010
0000
0000
0000
,
0001
0000
0001
0000
,
0001
0000
0000
0000
,
0000
0100
0000
0100
,
0000
0010
0000
0010
,
0000
0100
0000
0100
,
0000
0010
0000
0010
,
1001
0000
0000
0000
,
0001
0000
0100
0000
,
0001
0000
0000
0000
,
0000
1000
0100
0000
,
1000
0000
0000
0000
,
1000
0000
0010
0000
,
1000
0000
0000
0000
,
0000
0001
0010
0000
,
0001
0000
0001
0000
,
1000
0000
1000
0000
,
0001
0000
0001
0000
,
1000
0000
1000
0000
,
0001
0000
1000
0000
,
0001
0000
1000
0000
,
0001
0000
0001
0000
,
0001
0000
0000
0000
,
1001
0000
0000
0000
,
0000
0000
0000
0000
,
1001
0000
0000
0000
,
0000
0000
0000
0000
,
0110
0000
0000
0000
,
0000
0000
0000
0000
,
0110
0000
0000
0000
,
0000
0000
0000
0000
,
0011
0000
0000
0000
,
0000
0000
0000
0000
,
0011
0000
0000
0000
,
0000
0000
0000
0000
,
1100
0000
0000
0000
,
0000
0000
0000
0000
,
1100
0000
0000
0000
,
0010
0000
0010
0000
,
1000
0000
0100
0000
,
0001
0000
0100
0000
,
1000
0000
0100
0000
,
0001
0000
0100
0000
,
1000
0000
0001
0000
,
1000
0000
0001
0000
,
1000
0000
1000
0000
,
1000
0000
0000
0000
,
1001
0000
0000
0000
;

//---------------dance-single - ----------------
#NOTES:
     dance-single:
     :
     Challenge:
     16:
     0.812352,1.035140,0.272405,0.119177,0.706551,668.000000,636.000000,32.000000,14.000000,0.000000,0.000000,0.812352,1.035140,0.272405,0.119177,0.706551,668.000000,636.000000,32.000000,14.000000,0.000000,0.000000:
// measure 0
0000
0000
0000
0000
,  // measure 1
0000
0000
0000
0000
,  // measure 2
0000
0000
0000
0000
,  // measure 3
0000
0000
0000
0000
,  // measure 4
0000
0000
0000
0000
,  // measure 5
0000
0000
0000
0000
,  // measure 6
0000
0000
0000
0000
,  // measure 7
0000
0000
1000
0000
0000
0000
1000
0000
0001
0000
0010
0001
0200
0000
0000
0000
,  // measure 8
0301
0000
0001
0100
0010
1000
0001
0100
,  // measure 9
0010
1000
0001
0010
0100
1000
0001
0010
,  // measure 10
0100
1000
0001
1000
0010
0100
0001
1000
,  // measure 11
0010
0100
0001
1000
0100
0010
0001
1000
,  // measure 12
0100
1000
0100
0000
0010
0100
0010
0000
0001
0010
0001
0000
0010
0100
1000
0000
,  // measure 13
0001
0100
0001
0000
0100
0010
0100
0000
0010
1000
0010
0000
0100
0001
0100
0001
,  // measure 14
1000
0001
1000
0001
1000
0100
1000
0100
0010
0100
0010
0100
1000
0001
1000
0001
,  // measure 15
0010
0000
0100
0000
0100
0000
0010
0000
0001
0000
1000
0002
0000
0000
0003
0000
,  // measure 16
1001
0000
0000
0000
1000
0100
1000
0000
1000
0100
1000
0000
0001
0000
1000
0000
,  // measure 17
0100
1000
0100
0000
0100
1000
0100
0000
0010
0000
0001
0000
1000
0000
0010
0000
,  // measure 18
0100
0000
0100
0000
0001
0100
0001
0000
1000
0001
1000
0000
0001
0100
0001
0000
,  // measure 19
0100
0000
0010
0000
1000
0000
0010
0000
0100
0010
0100
0010
1000
0000
0001
0000
,  // measure 20
1001
0000
0000
0000
0001
0010
0001
0000
0001
0010
0001
0000
1000
0000
0001
0000
,  // measure 21
0010
0001
1000
0000
1000
0001
0010
0000
0100
0000
1000
0000
0001
0000
0100
0000
,  // measure 22
0010
0000
0010
0000
1000
0010
1000
0000
0001
1000
0001
0000
0100
0001
0100
0000
,  // measure 23
0002
0000
1000
0000
0000
0000
1003
0000
0001
0000
1000
0010
0000
0000
0010
0000
,  // measure 24
1001
0000
0000
0000
0001
0100
0001
0000
0001
0010
0001
0000
1000
0000
0001
0000
,  // measure 25
0010
0100
0010
0000
0010
0100
0010
0000
0100
0000
1000
0000
0100
0000
0001
0000
,  // measure 26
0100
0000
1000
0000
0001
0100
0010
0000
0010
1000
0001
0000
0001
0010
0100
0000
,  // measure 27
1000
0000
0001
0000
1000
0000
0010
0000
0100
0001
0100
0010
1000
0000
0001
0000
,  // measure 28
1001
0000
0000
0000
1000
0100
0010
0000
0010
0100
1000
0000
0100
0000
0010
0000
,  // measure 29
0001
1000
0010
0000
1000
0001
0010
0000
0001
0000
0001
0000
0100
0000
0010
1000
,  // measure 30
0010
0100
0001
0000
1000
0010
0100
0000
0001
1000
0100
0000
1000
0001
0010
0000
,  // measure 31
0100
0000
0010
0000
0010
0000
0100
0000
1000
0000
0001
2000
0000
0000
0000
0000
,  // measure 32
3001
0000
0000
0000
1000
0000
0001
0000
0100
0000
0001
0100
0001
0000
1000
0000
0000
0000
0010
0000
0000
0000
1000
0000
0001
0000
1000
0100
1000
0000
0001
0000
,  // measure 33
0000
0000
0010
0000
0000
0000
0001
0000
1000
0000
0001
0100
0001
0000
1000
0000
0000
0000
0010
0000
0000
0000
1000
0000
0001
0000
0000
0010
0000
0000
0100
0000
,  // measure 34
0000
0000
0110
0000
0000
0000
1000
0000
0001
0000
1000
0010
1000
0000
0001
0000
0000
0000
0100
0000
0001
0000
1000
0000
1000
0000
0001
0010
0001
0000
1000
0000
,  // measure 35
0000
0000
0100
0000
1000
0000
0001
0000
0001
0000
0010
0100
0010
0000
0001
0000
0000
0000
0100
0000
0001
0000
1000
0000
0010
0000
0000
1000
0000
0000
0001
0000
,  // measure 36
0102
1000
0010
1000
,  // measure 37
0103
0010
1000
1010
0000
0010
1000
0100
,  // measure 38
2100
0001
0010
0001
,  // measure 39
3100
0000
0010
0000
0001
0000
0010
0000
0100
0000
0000
0100
1000
0000
0001
0000
,  // measure 40
0012
1000
0100
1000
,  // measure 41
0013
0001
0100
0101
0000
0100
0010
1000
,  // measure 42
2010
0001
0100
0001
,  // measure 43
3010
0000
1000
0000
0001
0000
0100
0000
0001
0000
0000
0001
0010
0000
0100
0000
,  // measure 44
1000
0000
1000
0100
0010
0100
1000
0100
,  // measure 45
0001
0100
1000
0100
0010
0100
1000
1000
,  // measure 46
0001
1000
0001
0100
0010
0100
0001
0100
,  // measure 47
1000
0100
0001
0100
0010
0100
0001
0001
,  // measure 48
1000
0010
1000
0000
1000
0001
1000
0000
0001
0100
0001
0000
0001
1000
0001
0000
,  // measure 49
0010
0001
0010
0000
0010
0100
0010
0000
0100
1000
0100
0000
0100
0010
0100
0010
,  // measure 50
0001
0010
0001
0010
0001
1000
0001
1000
0010
1000
0010
1000
0010
0100
0010
0100
,  // measure 51
0002
0000
0000
0000
0000
0000
0000
1003
,  // measure 52
1001
0000
0000
0000
1000
0100
0000
1100
0000
1000
0100
0000
0100
0000
1000
0001
,  // measure 53
1000
0000
0010
0000
0100
0001
0000
0101
0000
0100
0001
0000
1000
0000
0001
0000
,  // measure 54
0110
0000
0001
0000
1000
0010
0000
1010
0000
1000
0010
0000
0010
0000
1000
0001
,  // measure 55
1000
0000
0100
1000
0001
0010
0000
0011
0000
0001
0010
0000
0110
0000
0000
0000
,  // measure 56
1001
0000
0000
0000
0001
0100
0000
0101
0000
0100
0010
0000
1000
0000
0010
0100
,  // measure 57
0010
0000
1000
0000
0100
1000
0000
1100
0000
1000
0001
0000
0010
0000
0001
0000
,  // measure 58
0110
0000
1000
0000
0001
0010
0000
0011
0000
0010
0100
0000
1000
0000
0001
0000
,  // measure 59
2000
0000
0010
0000
0000
0000
3010
0000
1000
0000
0010
0100
0020
0000
0030
0000
,  // measure 60
2002
0000
3003
0000
0001
0000
0100
0000
0010
0000
1000
0000
0001
0010
0001
0000
,  // measure 61
0001
1000
0001
0000
0001
0100
0001
0000
1000
0000
1000
0000
0001
0000
0010
0000
,  // measure 62
0100
0000
0010
0000
0001
0000
0001
0000
1000
0000
0010
0000
0100
0001
0100
0000
,  // measure 63
0100
0010
0100
0000
0100
0001
0100
0001
1000
0000
0100
0000
0110
0000
0000
0000
,  // measure 64
1001
0000
0000
0000
1000
0000
0100
0000
0010
0000
0001
0000
1000
0010
1000
0000
,  // measure 65
1000
0001
1000
0000
1000
0100
1000
0000
0001
0000
0001
0000
0010
0000
0100
0000
,  // measure 66
0010
0011
0000
1100
0000
0101
0000
1010
,  // measure 67
1000
0000
0010
0000
0100
0000
0010
0000
1000
0000
0000
1000
0001
0000
0100
0000
,  // measure 68
0110
0000
0010
1000
0001
0100
0010
1000
,  // measure 69
0001
0100
0010
0100
0001
1000
0010
0100
,  // measure 70
0001
1000
0100
1000
0001
0010
0100
1000
,  // measure 71
0001
0010
0100
0010
0001
1000
0100
0010
,  // measure 72
0001
0010
0001
0000
0010
0100
0010
0000
0100
1000
0100
0000
1000
0001
0100
0000
,  // measure 73
0010
1000
0010
0000
0100
0010
0100
0000
0001
0100
0001
0000
1000
0001
1000
0010
,  // measure 74
0100
0010
0100
0001
0100
0010
1000
0010
1000
0100
1000
0001
0010
0001
1000
0001
,  // measure 75
0100
0000
0010
0000
0010
0000
0100
0000
0001
0000
0001
2000
0000
0000
3000
0000
,  // measure 76
1001
0000
0000
0000
;
