#VERSION:0.83;
#TITLE:お願い!コンコンお稲荷さま;
#SUBTITLE:;
#ARTIST:ARM×狐夢想 feat. ななひら;
#TITLETRANSLIT:Onegai! Konkon oinarisama;
#SUBTITLETRANSLIT:;
#ARTISTTRANSLIT:ARM x Kistune Muso feat. Nanahira;
#GENRE:;
#ORIGIN:;
#CREDIT:;
#BANNER:Onegai! Konkon oinarisama-bn.png;
#BACKGROUND:Onegai! Konkon oinarisama-bg.png;
#PREVIEWVID:;
#JACKET:Onegai! Konkon oinarisama-jacket.png;
#CDIMAGE:;
#DISCIMAGE:;
#LYRICSPATH:;
#CDTITLE:;
#MUSIC:Onegai! Konkon oinarisama.ogg;
#OFFSET:1.330000;
#SAMPLESTART:54.213001;
#SAMPLELENGTH:15.000000;
#SELECTABLE:YES;
#BPMS:0.000=175.000;
#STOPS:;
#DELAYS:;
#WARPS:;
#TIMESIGNATURES:0.000=4=4;
#TICKCOUNTS:0.000=4;
#COMBOS:0.000=1;
#SPEEDS:0.000=1.000=0.000=0;
#SCROLLS:0.000=1.000;
#FAKES:;
#LABELS:0.000=Song Start,
160.000=complete;
#BGCHANGES:0.000=Onegai! Konkon oinarisama-bg.png=1.000=0=0=1=====,
0.083=Onegai! Konkon oinarisama.avi=1.000=0=0=1=====,
284.000=Onegai! Konkon oinarisama-bg.png=1.000=0=0=1=====,
99999=-nosongbg-=1.000=0=0=0 // don't automatically add -songbackground-
;
#KEYSOUNDS:;
#ATTACKS:
;

//---------------dance-single - vonafroa----------------
#NOTEDATA:;
#CHARTNAME:;
#STEPSTYPE:dance-single;
#DESCRIPTION:vonafroa;
#CHARTSTYLE:;
#DIFFICULTY:Challenge;
#METER:15;
#RADARVALUES:0.742243,1.037968,0.291542,0.395664,0.411283,499.000000,471.000000,28.000000,38.000000,0.000000,0.000000,0.000000,0.000000,0.000000,0.742243,1.037968,0.291542,0.395664,0.411283,499.000000,471.000000,28.000000,38.000000,0.000000,0.000000,0.000000,0.000000,0.000000;
#CREDIT:vonafroa;
#NOTES:
// measure 0
0000
0000
0000
0000
,  // measure 1
0000
0000
0000
0000
,  // measure 2
0000
0000
0000
0000
,  // measure 3
0000
0000
0000
0000
,  // measure 4
0000
0000
0000
0000
,  // measure 5
0000
0000
0000
0000
,  // measure 6
0000
0000
0000
0000
,  // measure 7
0000
0000
0020
0000
0000
0000
0130
0000
0001
0000
1000
0001
1000
0000
0010
0000
,  // measure 8
1000
0000
0100
0000
0001
0000
0100
0000
1000
0010
0100
0001
1000
0000
0100
0000
,  // measure 9
0000
0000
1000
0001
1000
0000
0100
0000
2000
0000
0000
3100
0001
0000
0100
0000
,  // measure 10
0000
0000
1000
0001
1000
0000
0010
0000
0100
0000
0000
0000
1001
0000
0000
0000
,  // measure 11
0010
0001
1000
0010
0100
0000
0110
0000
,  // measure 12
0100
0001
1000
0100
0010
0110
0110
0000
,  // measure 13
0001
0100
0001
0100
0001
0000
0000
0000
0010
0000
0010
0001
0010
0000
0000
0000
,  // measure 14
0100
0000
1000
0010
1000
0000
0010
0000
0200
0000
0000
0000
0301
0000
0000
0000
,  // measure 15
0010
0001
1000
0010
0100
0000
0110
0000
,  // measure 16
0100
0001
1000
0100
0010
0110
0110
0001
,  // measure 17
1001
0000
0100
0010
0100
0000
0001
0000
1001
0000
0010
0100
0010
0000
0001
0000
,  // measure 18
1000
0000
0100
0000
0001
0000
0100
0000
1000
0000
0001
1000
0001
1000
0010
0000
,  // measure 19
0010
1000
0001
0010
0100
0000
0110
0000
,  // measure 20
0100
1000
0001
0100
0010
0110
0110
0000
,  // measure 21
1000
0100
1000
0100
1000
0000
0000
0000
0010
0000
0010
1000
0010
0000
0000
0000
,  // measure 22
0100
0000
0001
0010
0001
0000
0010
0000
0200
0000
0000
0000
1300
0000
0000
0000
,  // measure 23
0010
1000
0001
0010
0100
0000
0110
0000
,  // measure 24
0100
1000
0001
0100
0010
0110
0110
1000
,  // measure 25
0020
0000
0000
1030
0010
0000
0100
0000
0001
0000
0010
0000
0100
0000
1000
0000
,  // measure 26
0010
0000
1000
0100
1000
0000
0010
0000
0100
0000
0000
0000
0010
0000
1000
0000
,  // measure 27
0001
0010
0001
0000
0001
1000
0100
0010
,  // measure 28
0002
0000
0100
0000
0103
0010
1000
0100
,  // measure 29
0020
0000
0000
0031
0100
0000
0010
0000
0200
0000
0000
0301
0010
0000
0100
0000
,  // measure 30
1000
0000
0010
0100
0010
0000
1000
0000
0001
0000
0000
0000
0010
0000
0100
0000
,  // measure 31
1000
0100
1000
0000
1000
0001
0010
0100
,  // measure 32
2000
0010
0010
3010
1000
0002
0010
0013
,  // measure 33
0002
0000
2003
0000
,  // measure 34
3100
0000
0010
0100
0010
0000
0001
0000
,  // measure 35
0200
0300
0100
0001
0101
0000
1100
0000
,  // measure 36
0200
0300
0100
1000
1100
0000
0101
0000
,  // measure 37
0001
0010
0001
0000
1000
0010
1000
0000
0001
0100
0001
0000
1000
0100
1000
0000
,  // measure 38
0001
0010
0001
0010
0100
1000
0100
1000
0001
0100
0001
0100
0010
1000
0010
1000
,  // measure 39
0002
0000
0000
0003
,  // measure 40
0001
1000
0001
1000
1001
0000
0110
0000
,  // measure 41
2000
0000
0000
3100
0001
0000
0100
0000
2000
0000
0000
0010
3001
0000
0010
0000
,  // measure 42
2000
0000
0000
3100
0001
0000
0100
0000
0010
0000
0001
0000
0100
0000
0100
0000
,  // measure 43
0002
0000
0000
0103
1000
0000
0100
0000
0002
0000
0000
0013
1000
0000
0010
0000
,  // measure 44
0001
0000
0100
0010
0100
0010
0100
0010
1000
0000
0100
0010
0100
0000
1000
0000
,  // measure 45
0001
0000
0100
0010
0100
0000
0001
0000
1000
0000
0100
0010
0100
0000
1000
0000
,  // measure 46
0001
0000
0100
0010
0100
0000
0001
0000
0020
0000
0000
0000
0230
0000
0000
0000
,  // measure 47
0310
0000
0000
0001
0100
0000
0010
0000
1000
0000
0000
1000
0000
0000
0100
0000
,  // measure 48
0000
0000
0010
0000
0100
0000
1000
0000
0010
0100
0000
0100
0010
0000
1000
0000
,  // measure 49
0002
0000
0000
0103
1000
0000
0100
0000
0002
0000
0000
0010
1003
0000
0010
0000
,  // measure 50
0002
0000
0000
0103
1000
0000
0100
0000
0010
0000
1000
0100
0010
0000
0100
0000
,  // measure 51
2000
0000
0000
3100
0001
0000
0100
0000
1000
0010
0000
0010
0100
0000
0001
0000
,  // measure 52
1000
0000
0100
0010
0100
0010
0100
0010
0001
0000
0100
0000
0010
0000
0100
0000
,  // measure 53
0001
0010
0100
1000
0001
0000
0100
0001
,  // measure 54
1000
0100
0010
0001
1000
0000
0010
0100
,  // measure 55
0002
0010
1000
0103
,  // measure 56
2000
0010
0001
3100
,  // measure 57
0001
0000
0010
0001
0010
0000
0100
0000
1000
0000
0010
1000
0010
0000
0100
0000
,  // measure 58
0001
0000
0010
0001
0010
0000
0100
0000
1000
0000
0010
1000
0010
0000
0100
0000
,  // measure 59
0220
0000
0000
0330
1001
1001
1001
0000
,  // measure 60
0100
0000
0001
1000
0010
0000
0100
0000
0000
0000
1001
0000
1001
0000
0000
0000
,  // measure 61
0100
0000
0020
0000
0000
0000
0130
0000
1000
0000
0001
1000
0001
0000
0010
0000
,  // measure 62
0001
0000
0100
0000
1000
0000
0100
0000
0001
0010
0100
1000
0001
0000
0020
0000
,  // measure 63
0000
0000
0230
0000
0000
0000
0310
0000
0001
0100
0001
0100
0010
1000
0010
1000
,  // measure 64
0200
2300
3020
0130
,  // measure 65
0100
0000
0020
0000
0000
0000
0130
0000
0001
0000
1000
0001
1000
0000
0010
0000
,  // measure 66
1000
0000
0100
0000
0001
0000
0100
0000
1000
0010
0100
0001
1000
0000
0100
0000
,  // measure 67
0000
0000
1000
0001
1000
0000
0100
0000
2000
0000
0000
3100
0001
0000
0100
0000
,  // measure 68
0000
0000
1000
0001
1000
0000
0010
0000
0100
0000
0000
0000
1001
0000
0000
0000
;
