#TITLE:On My Mind;
#SUBTITLE:;
#ARTIST:Chime & Franky Nuts & Oliverse;
#TITLETRANSLIT:;
#SUBTITLETRANSLIT:;
#ARTISTTRANSLIT:;
#GENRE:;
#CREDIT:;
#BANNER:On My Mind.png;
#BACKGROUND:On My Mind-bg.png;
#LYRICSPATH:;
#CDTITLE:;
#MUSIC:On My Mind.ogg;
#OFFSET:1.561311;
#SAMPLESTART:51.244793;
#SAMPLELENGTH:12.799999;
#LASTBEATHINT:1.325035;
#SELECTABLE:YES;
#BPMS:0.000000=150.000000
;
#STOPS:
;
#BGCHANGES:;
#KEYSOUNDS:;
#ATTACKS:;

//---------------dance-single - ----------------
#NOTES:
     dance-single:
     :
     Challenge:
     15:
     0.578734,0.740340,0.300085,0.481715,0.485663,513.000000,475.000000,38.000000,61.000000,0.000000,0.000000,0.578734,0.740340,0.300085,0.481715,0.485663,513.000000,475.000000,38.000000,61.000000,0.000000,0.000000:
// measure 0
0000
0000
0000
0000
,  // measure 1
0000
0000
0000
0000
,  // measure 2
0000
0000
0000
0000
,  // measure 3
0000
0000
0000
0000
,  // measure 4
0000
0000
0000
0000
,  // measure 5
0000
0000
0000
0000
,  // measure 6
0000
0000
0000
0000
,  // measure 7
0000
0000
0000
0000
,  // measure 8
1001
0000
0000
0000
0000
0000
0000
0000
0010
0001
1000
0000
0010
1000
0010
1000
,  // measure 9
0002
0000
0000
1000
0000
0000
0100
0000
0100
0000
0000
0100
0000
0000
0100
0000
,  // measure 10
0203
0000
0000
0010
0000
0000
0010
0000
0320
0000
0000
1000
0000
0000
1000
0000
,  // measure 11
2030
0000
0000
0010
0000
0000
0100
0000
0100
0000
0000
0100
0000
0000
0100
0000
,  // measure 12
3200
0000
0000
0010
0000
0000
0010
0000
0320
0000
0000
0001
0000
0000
0001
0000
,  // measure 13
0032
0000
0000
0010
0000
0000
1000
0000
1000
0000
0000
1000
0000
0000
1000
0000
,  // measure 14
2003
0000
0000
0010
0000
0000
0010
0000
3020
0000
0000
0100
0000
0000
0100
0000
,  // measure 15
0230
0000
0000
0010
0000
0000
0001
0000
0001
0000
0000
0001
0000
0000
0001
0000
,  // measure 16
0302
0000
0000
1000
0000
0000
1000
0000
2003
0000
0000
3200
0000
0000
0320
0000
,  // measure 17
0031
0000
0000
0001
0010
0000
0100
0000
1000
0000
0100
0000
0001
0000
0000
0100
,  // measure 18
0001
0000
0100
0000
1000
0000
0000
0010
0001
0000
0010
0000
1000
0000
0001
0000
,  // measure 19
1000
0000
0000
1000
0010
0000
0100
0000
0001
0000
0100
0000
1000
0000
0000
0100
,  // measure 20
1000
0000
0100
0000
0001
0000
0000
0010
1000
0000
0010
0000
0001
0000
0010
0000
,  // measure 21
0100
0000
0000
0100
0010
0000
0001
0000
1000
0010
1000
0000
0001
0000
0000
0001
,  // measure 22
1000
0100
1000
0000
0001
0000
0000
0001
0010
0100
1000
0000
0001
0000
1000
0000
,  // measure 23
0010
0000
0000
0010
0100
0000
0001
0000
1000
0000
0000
1000
0100
0000
0010
0000
,  // measure 24
0022
0000
0000
0000
0000
0000
0000
0000
0033
0000
0000
0000
0010
0000
0100
1000
,  // measure 25
0001
0000
0000
0000
1000
0000
0001
1000
0100
0000
0010
0000
0100
0000
0000
1000
,  // measure 26
0010
0000
0100
0000
0010
0000
0000
0001
0010
0000
0100
0000
0010
0000
0000
0000
,  // measure 27
1000
0000
0000
0000
0001
0000
1000
0001
0010
0000
0100
0000
0010
0000
0000
0001
,  // measure 28
0100
0000
0010
0100
0010
0000
1000
0000
0001
0010
0001
0000
0010
0000
0100
0000
,  // measure 29
1000
0100
1000
0001
0010
1000
0010
0001
,  // measure 30
1000
0001
0100
1000
0100
0001
1000
0010
,  // measure 31
1000
0001
1000
0001
1000
0001
1000
0001
0100
0010
0100
0010
0100
0010
0100
0010
,  // measure 32
1000
0000
0000
0000
0000
0000
0000
0000
1000
0000
0001
0010
0100
0000
1000
0000
,  // measure 33
1010
0000
0000
0000
0010
0100
0001
0000
0022
0000
0000
0000
0033
0000
0000
0000
,  // measure 34
1001
0000
0000
0000
1000
0000
0100
1000
0001
1000
0100
0000
0010
0000
0001
0000
,  // measure 35
0101
0000
0000
0000
0100
0010
1000
0000
2200
0000
0000
0000
3300
0000
0000
0000
,  // measure 36
0110
0000
0000
0000
0010
0000
0010
0000
0011
0000
0001
0010
0100
1000
0001
0000
,  // measure 37
0101
0000
0000
0000
0100
0001
1000
0000
2020
0000
0000
0000
3030
0000
0000
0000
,  // measure 38
1001
0000
0000
0000
0001
0000
0100
0001
0010
0000
1000
0000
0010
0000
0001
0000
,  // measure 39
0011
0000
0000
0010
0000
0000
0010
0000
0100
0010
0000
0000
0010
0000
0000
0000
,  // measure 40
1100
0000
0000
0100
0000
0000
0100
1000
0010
0100
0000
0000
0001
0000
1000
0000
,  // measure 41
0010
0000
0000
0001
0000
1000
0100
0001
2000
0000
0000
0000
3000
0000
0000
0000
,  // measure 42
0011
0000
0000
0000
0010
0100
0010
0000
1100
0000
2000
0000
0000
0000
3010
0000
,  // measure 43
0101
0000
0001
0000
0010
0100
0010
0000
0022
0000
0000
0000
0033
0000
0000
0000
,  // measure 44
2010
0000
0000
0000
3100
0000
0001
0000
0100
0000
1000
0010
1000
0100
0010
0000
,  // measure 45
0021
0000
0000
0100
0000
0000
0031
0000
2200
0000
0000
0000
3300
0000
0000
0000
,  // measure 46
1001
0000
0000
0000
0001
0000
1000
0010
1000
0000
0001
0000
0010
1000
0010
0001
,  // measure 47
1000
0000
0000
1000
0000
0000
1000
0000
0010
1000
0000
0000
1000
0000
0000
0000
,  // measure 48
0101
0000
0000
0001
0000
0000
0001
1000
0100
0010
0000
0000
0100
0000
1000
0000
,  // measure 49
1010
0000
0000
0000
1000
0000
0001
1000
0010
0000
0100
0000
0010
0000
0000
1000
,  // measure 50
0100
0000
0010
0000
0100
0000
0000
0001
0100
0000
0010
0000
0100
0000
0000
0000
,  // measure 51
0011
0000
0000
0000
0001
0000
1000
0001
0100
0000
0010
0000
0100
0000
0000
0001
,  // measure 52
0010
0000
0100
0000
0010
0000
0000
1000
0010
0000
0100
0000
0010
0000
0000
0000
,  // measure 53
0001
0000
0000
0000
1000
0000
0010
0000
1000
0100
1000
0100
0010
0000
0000
0001
,  // measure 54
0010
0001
0010
0000
0001
0000
0000
1000
0001
1000
0001
1000
0010
0000
0000
0000
,  // measure 55
1000
0000
0001
0000
0010
0000
0100
0000
1000
0001
0010
0100
1000
0001
1000
0100
,  // measure 56
0010
0000
0000
0000
0000
0000
0000
0000
0001
0000
1000
0010
0100
0000
0001
0000
,  // measure 57
2001
0000
0000
0010
0000
0000
3001
0000
0220
0000
0000
0000
0330
0000
0000
0000
,  // measure 58
0101
0000
0000
0000
0001
1000
0001
0010
0100
0000
1000
0000
1000
0000
0000
0000
,  // measure 59
1002
0000
0010
0000
0013
0000
0000
0010
0001
0000
0010
0100
0020
0000
0000
0000
,  // measure 60
0130
0000
0000
0000
0100
0010
0001
0010
0100
0000
1000
0000
0010
0000
0100
0000
,  // measure 61
0002
0000
0000
0010
0000
0000
1003
0000
0220
0000
0000
0000
0330
0000
0000
0000
,  // measure 62
1100
0000
0000
0000
1000
0001
1000
0100
0010
0000
0001
0000
0001
0000
0000
0000
,  // measure 63
0011
0000
0000
0001
0000
0000
0001
0000
0010
0100
0000
0000
0100
0000
0000
0000
,  // measure 64
1100
0000
0000
1000
0000
0000
1000
0100
0010
0001
0000
0000
1000
0000
0001
0000
,  // measure 65
0100
0000
0000
1000
0000
0001
0010
1000
0002
0000
0000
0000
0003
0000
0000
0000
,  // measure 66
1002
0000
0203
2300
3200
0302
0023
0230
,  // measure 67
1300
0000
0000
0000
0001
0000
0000
0001
0100
0000
0010
0100
0020
0000
0000
0000
,  // measure 68
1030
0000
2000
3002
0010
0013
0100
0000
,  // measure 69
2100
0000
0000
0001
0000
0000
3100
0000
0022
0000
0000
0000
0033
0000
0000
0000
,  // measure 70
2100
0000
3020
0032
0023
0230
0302
0023
,  // measure 71
0130
0000
0000
1000
0000
0000
0100
0000
0001
0100
0000
0000
1000
0000
0000
0000
,  // measure 72
0010
0000
0000
0100
0000
0000
0001
0100
0001
1000
0000
0000
0100
0000
0010
0000
,  // measure 73
2002
0000
0000
0000
,  // measure 74
0000
0000
0000
0000
,  // measure 75
3003
0000
0000
0000
;

//---------------dance-single - ----------------
#NOTES:
     dance-single:
     :
     Hard:
     12:
     0.437717,0.533045,0.157939,0.307981,0.252703,388.000000,368.000000,20.000000,39.000000,0.000000,0.000000,0.437717,0.533045,0.157939,0.307981,0.252703,388.000000,368.000000,20.000000,39.000000,0.000000,0.000000:
0000
0000
0000
0000
,
0000
0000
0000
0000
,
0000
0000
0000
0000
,
0000
0000
0000
0000
,
0000
0000
0000
0000
,
0000
0000
0000
0000
,
0000
0000
0000
0000
,
0000
0000
0000
0000
,
0000
0000
0000
0000
,
1000
0000
0000
0001
0000
0000
0001
0000
0001
0000
0000
0001
0000
0000
0001
0000
,
0010
0000
0000
0010
0000
0000
0010
0000
0100
0000
0000
0100
0000
0000
0100
0000
,
1000
0000
0000
0001
0000
0000
0001
0000
0001
0000
0000
0001
0000
0000
0001
0000
,
0100
0000
0000
0100
0000
0000
0100
0000
0010
0000
0000
0010
0000
0000
1000
0000
,
0001
0000
0000
1000
0000
0000
1000
0000
1000
0000
0000
1000
0000
0000
1000
0000
,
0100
0000
0000
0100
0000
0000
0100
0000
0010
0000
0000
0010
0000
0000
0010
0000
,
0001
0000
0000
1000
0000
0000
1000
0000
1000
0000
0000
1000
0000
0000
1000
0000
,
0010
0000
0000
0010
0000
0000
0010
0000
0100
0000
0000
0001
0000
0000
1000
0000
,
0010
0000
0000
1000
0000
0000
0010
0000
1000
0000
0001
0000
1000
0000
0000
0000
,
0001
0100
0001
0000
1000
0001
1000
0000
,
0001
0000
0000
0010
0000
0000
0001
0000
1000
0000
0001
0000
1000
0000
0000
0000
,
0100
1000
0100
0000
1000
0001
1000
0000
,
0001
0000
0000
0100
0000
0000
0001
0000
1000
0000
0010
0000
1000
0000
0000
0000
,
0001
0010
0001
0000
1000
0100
0010
0000
,
0001
0000
0000
1000
0000
0000
0010
0000
0100
0000
0100
0000
0100
0000
0000
0000
,
2002
0000
3003
0000
,
2010
0001
0010
3010
,
0201
0000
0301
0020
0100
0000
0130
0000
,
0012
1000
0010
0013
,
0110
0000
0000
0100
0000
0000
1000
0000
0000
0001
0000
0000
1000
0000
0010
0000
,
0100
0000
0010
1000
0001
0010
0001
0000
,
1000
0010
1000
0000
0001
0010
0100
0000
,
1000
0001
0010
1000
0010
0001
0100
0010
,
1000
0000
0000
0000
,
2100
0000
3100
0010
0022
0000
0033
0000
,
0001
0000
1000
0010
1000
0100
0010
0001
,
0102
0000
0103
0010
2020
0000
3030
0000
,
1000
0000
0000
0000
0001
0000
0010
0000
0100
0000
1000
0001
1000
0001
1000
0000
,
0002
0000
0013
0100
2200
0000
3300
0000
,
0100
0000
0010
0001
1000
0010
0001
0010
,
1000
0000
0000
0100
0000
0000
0001
0000
0000
0100
0000
0000
1000
0000
0000
0000
,
0001
0000
0000
0100
0000
0000
1000
0000
0000
0100
0000
0000
0001
0000
1000
0000
,
0002
0003
0000
0000
2002
0000
3003
0000
,
0001
0000
0010
0100
0010
0002
0000
1003
,
1010
0010
0100
0001
0202
0000
0303
0000
,
0100
0000
0000
0000
0001
0000
0010
0000
0001
0000
1000
0001
1000
0001
1000
0000
,
0010
0000
0000
0100
0000
0000
0010
0000
2020
0000
0000
0000
3030
0000
0000
0000
,
1000
0000
0000
0000
0100
0000
0010
0100
0010
0000
0100
0000
1000
0000
0001
1000
,
0001
0000
0000
0010
0000
0000
1000
0000
0000
0010
0000
0000
0001
0000
0000
0000
,
1000
0000
0000
0010
0000
0000
0001
0000
0000
0010
0000
0000
1000
0000
0000
0000
,
0001
0000
0000
0000
1000
0000
0000
1000
0010
0000
0100
0000
0001
0000
0000
0100
,
0010
0000
0100
0000
1000
0000
0000
0100
0010
0000
0100
0000
0001
0000
0000
0000
,
1000
0000
0000
0000
0001
0000
0000
0001
0010
0000
0100
0000
1000
0000
0000
0100
,
0010
0000
0100
0000
0001
0000
0000
0100
0010
0000
0100
0000
1000
0000
0000
0000
,
0001
0000
1000
0001
0010
0100
0010
0000
,
0001
0100
0001
0000
1000
0010
0100
0000
,
0010
1000
0001
0010
0100
1000
0001
0100
,
0010
0000
0000
0000
,
1000
0000
0000
0010
0000
0000
1000
0000
2002
0000
0000
0000
3003
0000
0000
0000
,
0001
0000
0000
0000
0100
0001
0100
0010
0000
0000
1000
0000
0100
0000
0000
0000
,
0110
0000
0000
0000
0100
0000
0000
0100
0010
0000
0001
1000
0002
0000
0000
0000
,
0103
0000
0000
0000
0010
1000
0010
1000
0010
0000
1000
0000
0100
0000
0010
0000
,
0001
0000
0000
0010
0000
0000
0001
0000
2002
0000
0000
0000
3003
0000
0000
0000
,
1000
0000
0000
0000
0100
1000
0100
0010
0000
0000
0001
0000
0100
0000
0000
0000
,
0001
0000
0000
0001
0000
0000
0100
0000
0001
1000
0000
0000
1000
0000
0000
0000
,
0100
0000
0000
0100
0000
0000
1000
0000
0001
0010
0000
0000
0010
0000
0000
0000
,
0200
0300
0000
0000
2002
0000
3003
0000
,
2000
0000
3010
0001
0010
1000
0100
0010
,
0001
0000
0000
0000
0100
0000
0000
0100
0010
0000
1000
0001
2000
0000
0000
0000
,
3100
0000
0010
0100
0010
0010
0002
0000
,
1003
0000
0000
0100
0000
0000
1000
0000
2200
0000
0000
0000
3300
0000
0000
0000
,
0200
0000
1300
0001
0010
0100
0010
0001
,
1000
0000
0000
0001
0000
0000
0001
0000
1000
0010
0000
0000
0010
0000
0000
0000
,
0100
0000
0000
0001
0000
0000
0001
0000
1000
0100
0000
0000
0010
0000
0001
0000
,
2002
0000
0000
0000
,
0000
0000
0000
0000
,
3003
0000
0000
0000
;

//---------------dance-single - ----------------
#NOTES:
     dance-single:
     :
     Medium:
     9:
     0.340697,0.384977,0.102660,0.181630,0.071073,302.000000,289.000000,13.000000,23.000000,0.000000,0.000000,0.340697,0.384977,0.102660,0.181630,0.071073,302.000000,289.000000,13.000000,23.000000,0.000000,0.000000:
0000
0000
0000
0000
,
0000
0000
0000
0000
,
0000
0000
0000
0000
,
0000
0000
0000
0000
,
0000
0000
0000
0000
,
0000
0000
0000
0000
,
0000
0000
0000
0000
,
0000
0000
0000
0000
,
0000
0000
0000
0000
,
0000
0000
0000
1000
0100
1000
0100
0000
,
0010
0100
0010
0000
0001
0010
0001
0000
,
0000
0000
0000
0001
0100
0001
0100
0000
,
0010
0100
0010
0000
1000
0010
1000
0000
,
0000
0000
0000
0001
1000
0001
1000
0000
,
0010
0100
0010
0000
1000
0001
1000
0000
,
0000
0000
0000
0100
0100
0100
0100
0000
,
0000
0000
0000
0100
0010
0000
0001
0000
,
1000
0000
0000
0000
0001
1000
0010
0000
,
1000
0001
0010
0000
0001
1000
0100
0000
,
1000
0000
0000
0000
0001
1000
0100
0000
,
1000
0001
0100
0000
0001
1000
0010
0000
,
1000
0000
0000
0010
0100
0010
0100
0000
,
0001
0100
0010
0000
1000
0010
0100
0000
,
0001
0000
0000
0010
0010
0010
0010
0000
,
0200
0000
0300
0000
,
1100
0100
0010
0001
,
1000
0000
0001
0100
0001
0000
1000
0000
,
0001
0100
0010
1000
,
0001
0000
0000
1000
0000
0000
0001
0000
0000
1000
0000
0000
0001
0000
0000
0000
,
0010
0100
0010
0010
,
0100
1000
0001
0001
,
0100
0000
0010
0000
1000
0001
1000
0001
,
0100
0000
0000
0000
,
0010
1000
0202
0303
,
0100
0000
0001
0000
1000
0001
1000
0000
,
0001
0010
2200
3300
,
1000
0000
0001
0010
0100
1000
0001
0000
,
0100
0001
2020
3030
,
1000
0000
0010
0000
0100
0001
0100
0000
,
0001
0000
0000
1000
0000
0000
0001
0000
0000
1000
0000
0000
0001
0000
0000
0000
,
0010
0000
0000
0100
0000
0000
0010
0000
0000
0100
0000
0000
0010
0000
0000
0000
,
0001
0000
2002
3003
,
1000
0000
0001
1000
0001
0010
0000
0100
,
1000
0100
0022
0033
,
0001
0000
1000
0001
1000
0100
0010
0000
,
0001
0010
0220
0330
,
0100
0000
1000
0001
1000
0000
0000
0000
,
1000
0000
0000
0010
0000
0000
1000
0000
0000
0010
0000
0000
1000
0000
0000
0000
,
0001
0000
0000
0010
0000
0000
0001
0000
0000
0010
0000
0000
0001
0000
0000
0000
,
0101
0000
0000
0000
0001
0100
0001
0000
,
1000
0010
1000
0000
0001
1000
0001
0000
,
0000
0000
0000
0000
1000
0100
1000
0000
,
0001
1000
0001
0000
0010
0001
0010
0000
,
0100
0000
0010
0000
0001
0010
0001
0000
,
0010
0100
0010
0000
0100
1000
0100
0000
,
1000
0000
0100
0000
0010
0100
0010
0100
,
0010
0000
0000
0000
,
1000
0010
0202
0303
,
0001
0000
1000
0001
1000
0100
0100
0000
,
0010
0000
0010
0000
0001
0001
0001
0000
,
0100
0000
0001
1000
0001
0000
0100
0000
,
0001
0010
2200
3300
,
1000
0000
0001
1000
0001
0100
0100
0000
,
0010
0000
0000
0100
0000
0000
0010
0000
0000
0100
0000
0000
0010
0000
0000
0000
,
1000
0000
0000
0001
0000
0000
1000
0000
0000
0001
0000
0000
1000
0000
0000
0000
,
0100
0000
2002
3003
,
0001
0000
1000
0000
0001
0010
0100
1000
,
0001
0000
1000
0000
0010
0010
0010
0000
,
0100
0000
0001
0000
1000
0001
1000
0000
,
0100
0010
0220
0330
,
0010
0000
0001
0000
1000
0100
0010
0001
,
1000
0000
0000
0001
0000
0000
1000
0000
0000
0001
0000
0000
1000
0000
0000
0000
,
0010
0000
0000
0100
0000
0000
0010
0000
0000
1000
0000
0000
0001
0000
0000
0000
,
2002
0000
0000
0000
,
0000
0000
0000
0000
,
3003
0000
0000
0000
;

//---------------dance-single - ----------------
#NOTES:
     dance-single:
     :
     Beginner:
     2:
     0.168092,0.230591,0.078970,0.000000,0.000000,149.000000,139.000000,10.000000,0.000000,0.000000,0.000000,0.168092,0.230591,0.078970,0.000000,0.000000,149.000000,139.000000,10.000000,0.000000,0.000000,0.000000:
0000
0000
0000
0000
,
0000
0000
0000
0000
,
0000
0000
0000
0000
,
0000
0000
0000
0000
,
0000
0000
0000
0000
,
0000
0000
0000
0000
,
0000
0000
0000
0000
,
0000
0000
0000
0000
,
0000
0000
0000
0000
,
1000
0000
0000
0000
,
0010
0000
0100
0000
,
0001
0000
0000
0000
,
0010
0000
0100
0000
,
1000
0000
0000
0000
,
0100
0000
0010
0000
,
0001
0000
0000
0000
,
0100
0000
0010
0000
,
1000
0000
0001
0000
,
0010
0000
0100
0000
,
0010
0000
0001
0000
,
0100
0000
0010
0000
,
1000
0000
0001
0000
,
1000
0000
0100
0000
,
0010
0000
0001
0001
,
0001
0000
0000
0000
,
1001
0000
0100
0000
,
0010
0010
0010
0000
,
1000
0000
0010
0000
,
0100
0100
0100
0000
,
0001
0000
1000
0000
,
0100
0100
0100
0000
,
0010
0000
0010
0010
,
0000
0000
0000
0000
,
0110
0000
0001
0000
,
0010
0010
0010
0000
,
0100
0000
1000
0000
,
0001
0000
0100
0100
,
0100
0000
0110
0000
,
0010
0000
1000
0000
,
0001
0000
1000
0000
,
0100
0000
0010
0010
,
0010
0000
1001
0000
,
1000
1000
1000
0000
,
0100
0000
0010
0000
,
0001
0000
1000
0000
,
0001
0000
1001
0000
,
1000
0000
0100
0000
,
0010
0000
0100
0000
,
1000
1000
1000
0000
,
0001
0000
0100
0000
,
0010
0010
0010
0000
,
1000
0000
0100
0000
,
0010
0010
0010
0000
,
0001
0000
0010
0000
,
0100
0000
1000
0000
,
0001
0000
0100
0100
,
0000
0000
0000
0000
,
1001
0000
0001
0000
,
0010
0010
0010
0000
,
0100
0000
0100
0100
,
0100
0000
1000
0000
,
0001
0000
1001
0000
,
1000
0000
0010
0000
,
0100
0000
0001
0000
,
1000
1000
1000
0000
,
0100
0000
1001
0000
,
0001
0001
0001
0000
,
1000
0000
0010
0000
,
1000
0000
0100
0000
,
0010
0000
0110
0000
,
0100
0100
0100
0000
,
0010
0000
0001
0000
,
1000
1000
1000
0000
,
1001
0000
0000
0000
;

//---------------dance-single - ----------------
#NOTES:
     dance-single:
     :
     Easy:
     5:
     0.214346,0.266522,0.126351,0.189527,0.000000,190.000000,174.000000,16.000000,24.000000,0.000000,0.000000,0.214346,0.266522,0.126351,0.189527,0.000000,190.000000,174.000000,16.000000,24.000000,0.000000,0.000000:
0000
0000
0000
0000
,
0000
0000
0000
0000
,
0000
0000
0000
0000
,
0000
0000
0000
0000
,
0000
0000
0000
0000
,
0000
0000
0000
0000
,
0000
0000
0000
0000
,
0000
0000
0000
0000
,
0000
0000
0000
0000
,
0001
0000
1000
0000
,
0010
0010
0010
0000
,
1000
0000
0001
0000
,
0100
0100
0100
0000
,
0001
0000
1000
0000
,
0100
0100
0100
0000
,
1000
0000
0001
0000
,
0010
0010
0010
0000
,
0100
0000
1000
0100
,
1000
0100
1000
0000
,
0001
0000
0010
0001
,
0010
0001
0010
0000
,
0100
0000
1000
0001
,
1000
0001
1000
0000
,
0010
0000
1000
1000
,
1000
0000
0000
0000
,
1002
0000
0000
0000
,
0100
0000
0000
0010
0000
0000
0003
0000
,
2001
0000
0000
0000
,
0100
0000
0000
0010
0000
0000
3001
0000
,
0001
0010
0001
0001
,
1000
1000
0001
0001
,
1000
0100
0010
0001
,
1000
0000
0000
0000
,
1001
0000
0202
0303
,
0001
0100
0010
1000
,
0001
0000
2200
3300
,
1000
1000
0100
0010
,
0001
0000
2020
3030
,
0010
0100
0010
0100
,
0010
0000
1000
0000
,
0001
1000
0001
0000
,
0010
0000
0022
0033
,
0001
0001
0001
0000
,
0010
0000
2200
3300
,
1000
0001
1000
0001
,
1000
0000
2020
3030
,
0010
0010
1000
0000
,
0001
0000
0100
0000
,
0010
0010
0010
0000
,
1000
0000
0001
0100
,
0001
0100
0001
0000
,
0010
0000
0100
0010
,
0100
0010
0100
0000
,
1000
0000
0100
0100
,
0010
0010
0100
0100
,
0100
0000
1000
1000
,
0001
0000
0000
0000
,
1001
0000
2020
3030
,
0010
0100
0100
0000
,
0001
0000
0011
0000
,
0010
0100
0100
0000
,
1000
0000
0022
0033
,
0001
1000
1000
0000
,
0100
0000
0010
0000
,
0001
1000
0001
0000
,
0100
0000
2002
3003
,
0001
0001
1000
1000
,
0010
0010
0010
0000
,
1000
0100
0010
0001
,
1000
0000
0202
0303
,
0100
0010
0100
0010
,
0100
0000
0001
0000
,
1000
0001
1000
0000
,
2002
0000
0000
0000
,
0000
0000
0000
0000
,
3003
0000
0000
0000
;
