#VERSION:0.83;
#TITLE:NRG Tech;
#SUBTITLE:;
#ARTIST:3R2;
#TITLETRANSLIT:;
#SUBTITLETRANSLIT:;
#ARTISTTRANSLIT:;
#GENRE:;
#ORIGIN:;
#CREDIT:;
#BANNER:NRG Tech.png;
#BACKGROUND:NRG Tech-bg.png;
#PREVIEWVID:;
#JACKET:NRG Tech-jacket.png;
#CDIMAGE:;
#DISCIMAGE:;
#LYRICSPATH:;
#CDTITLE:;
#MUSIC:NRG Tech.ogg;
#OFFSET:-0.185000;
#SAMPLESTART:51.795044;
#SAMPLELENGTH:15.000000;
#SELECTABLE:YES;
#BPMS:0.000=158.000;
#STOPS:192.000=0.380,
193.000=0.380,
194.000=0.190,
194.500=0.190,
195.000=0.190,
195.500=0.190;
#DELAYS:;
#WARPS:;
#TIMESIGNATURES:0.000=4=4;
#TICKCOUNTS:0.000=4;
#COMBOS:0.000=1;
#SPEEDS:0.000=1.000=0.000=0;
#SCROLLS:0.000=1.000;
#FAKES:;
#LABELS:0.000=Song Start;
#BGCHANGES:;
#KEYSOUNDS:;
#ATTACKS:
;

//---------------dance-single - ----------------
#NOTEDATA:;
#CHARTNAME:;
#STEPSTYPE:dance-single;
#DESCRIPTION:;
#CHARTSTYLE:;
#DIFFICULTY:Hard;
#METER:13;
#RADARVALUES:0.633586,0.692931,0.374557,0.255380,0.532042,521.000000,477.000000,44.000000,30.000000,0.000000,0.000000,0.000000,0.000000,0.000000,0.633586,0.692931,0.374557,0.255380,0.532042,521.000000,477.000000,44.000000,30.000000,0.000000,0.000000,0.000000,0.000000,0.000000;
#CREDIT:;
#NOTES:
// measure 0
0000
0000
0000
0000
,  // measure 1
0000
0000
0000
0000
,  // measure 2
0000
0000
0000
0000
,  // measure 3
0000
0000
0000
0000
,  // measure 4
0000
0000
0000
0000
,  // measure 5
0000
0000
0000
0000
,  // measure 6
1000
0000
0100
0000
0010
0000
0100
0000
1000
0000
0100
0010
0100
0000
1000
0000
,  // measure 7
0001
0000
0100
0000
0010
0000
0100
0000
0001
0000
0100
0000
0010
0100
0010
0000
,  // measure 8
1000
0000
0010
0000
0001
0000
0010
0000
1000
0000
0010
0100
0010
0000
1000
0000
,  // measure 9
0001
0000
0010
0000
1000
0000
0010
0000
0001
0010
0001
0010
0002
0000
0000
0000
,  // measure 10
1003
0000
0000
0000
0020
0030
0000
0100
,  // measure 11
0000
0100
0000
0010
0100
0000
1001
0000
,  // measure 12
0001
0000
0000
0000
0020
0030
0000
0000
,  // measure 13
0100
1000
0100
1000
0100
1000
0100
1000
0200
0000
0000
0000
0300
0000
0000
0000
,  // measure 14
1000
0000
0000
0000
0020
0030
0000
0100
,  // measure 15
0000
0100
0000
0010
0100
0000
1001
0000
,  // measure 16
0001
0000
0000
0000
0020
0030
0000
0000
,  // measure 17
0220
0000
0000
0330
,  // measure 18
1100
0000
1001
0000
0011
0000
0001
0010
,  // measure 19
0100
0010
0001
0000
2001
0000
3010
0000
,  // measure 20
0101
1001
1010
1001
,  // measure 21
0001
0100
0001
0100
0001
0100
0001
0100
0002
0000
0000
0000
0003
0000
0000
0000
,  // measure 22
1010
0102
0013
0110
,  // measure 23
0011
2100
3010
0110
,  // measure 24
1010
0011
1010
0011
,  // measure 25
0001
1000
0002
0000
0000
0000
0203
0000
0000
0000
0000
0000
0310
0000
0000
0000
,  // measure 26
1001
0000
0000
0000
1000
0000
0001
0000
0010
0000
0010
0001
1000
0000
0100
0000
,  // measure 27
2000
0000
0000
0000
3001
0000
0100
0000
0100
0010
0000
0100
0000
0000
0001
0000
,  // measure 28
1000
0001
1000
0001
0010
0000
0001
0000
1000
0000
0100
0000
0010
0000
0100
0000
,  // measure 29
1000
0000
1000
0000
0001
0000
0001
0000
0100
0001
0000
0000
1100
0000
0000
0000
,  // measure 30
0002
0000
1003
0010
0100
0100
0010
1000
,  // measure 31
0001
0000
0010
0000
0100
0000
0010
0000
0001
0000
1000
0000
0010
1000
0010
0000
,  // measure 32
0100
0000
0000
0000
0100
0010
0100
0010
1000
0000
0001
0000
0001
0000
0010
0000
,  // measure 33
0110
0000
0110
0100
1000
0100
0001
0100
,  // measure 34
1000
0000
0000
0000
1000
0000
0010
0000
0100
0000
0100
0001
0100
0000
0010
0000
,  // measure 35
2000
0000
0000
0000
3001
0000
0010
0000
0100
1000
0100
1000
0100
0000
0010
0000
,  // measure 36
0001
0000
1000
0000
0001
0000
0010
0000
0100
1000
0000
1000
0100
0000
0010
0000
,  // measure 37
0001
1000
0100
0010
0011
0000
1010
0000
,  // measure 38
0002
0000
1003
0010
0100
0001
0100
0010
,  // measure 39
1000
0010
1000
0010
0000
1000
0000
0001
0000
0010
0001
0010
0001
0000
1000
0000
,  // measure 40
0100
1000
0001
1000
0010
1000
0001
0100
,  // measure 41
0020
0001
0100
1030
,  // measure 42
0001
0000
0100
0000
0001
0000
1000
0000
0100
0000
0100
1000
0001
0000
0100
0000
,  // measure 43
0001
0000
1000
0000
0100
0000
1000
0000
0010
0000
0000
0020
0000
0000
0030
0000
,  // measure 44
1000
0001
0010
0001
0100
0000
0100
0010
,  // measure 45
1000
0000
0001
0000
0001
0000
1000
0000
0000
1100
0000
0000
1001
0000
0000
0000
,  // measure 46
0002
0000
1003
0010
0100
0100
0010
1000
,  // measure 47
0100
0000
1100
0000
0011
0000
0110
0000
0200
0000
0000
0000
,  // measure 48
0310
0000
1001
0000
1010
0011
0101
1100
,  // measure 49
0002
0000
0000
0000
1003
0000
0010
0000
0100
0000
0001
1000
0001
0000
0010
0000
,  // measure 50
0001
0000
0100
0001
0000
1000
0001
0000
0010
0001
0000
0000
0010
0100
0010
0100
,  // measure 51
2000
0000
3001
0100
0001
1000
1000
0001
,  // measure 52
0010
0001
0010
0100
0000
0000
0110
0000
0000
1001
0000
0000
,  // measure 53
0002
0000
0000
0000
1003
0000
0010
0000
0100
0000
0100
0001
1000
0000
0010
0000
,  // measure 54
1000
0000
0001
0000
0001
0000
0001
0000
0020
0000
0000
0130
0000
0000
0000
0000
,  // measure 55
2002
0000
0000
0000
,  // measure 56
0000
0000
0000
0000
3003
0000
0000
0000
0001
1000
0001
1000
0010
0000
0000
0000
,  // measure 57
1000
0000
0001
0100
0000
0100
0010
0000
1000
0000
0001
0100
0000
0010
0000
0010
,  // measure 58
1000
0000
1000
0001
0000
0001
0100
0010
1000
0000
0010
1000
0000
0001
0000
0100
,  // measure 59
0001
0000
1000
0100
0000
0100
0010
0000
0001
0000
1000
0100
0000
0010
0000
0010
,  // measure 60
0001
0000
0001
1000
0000
0000
1000
0010
1000
0000
0000
0010
0000
0100
0000
0001
,  // measure 61
1000
0000
0100
0010
0000
0010
0100
0000
1000
0000
0001
0010
0000
0100
0000
0100
,  // measure 62
1000
0000
1000
0100
0000
0100
1000
0001
0010
0000
0001
0010
0000
0100
0000
1000
,  // measure 63
0001
0000
0100
0010
0000
0010
0100
0000
0001
0000
1000
0010
0000
0100
0000
0100
,  // measure 64
0001
0000
1000
0010
0000
1000
0001
1000
0001
0000
0000
0100
0000
0010
0000
1000
,  // measure 65
0001
0000
0100
0010
0100
0000
0001
0000
1000
0000
0100
0010
0000
0100
0000
1000
,  // measure 66
0001
0000
0100
0010
0100
0000
0100
0010
1000
0000
0000
1000
0000
0010
0000
0100
,  // measure 67
0001
0000
0010
0100
0010
0000
0001
0000
1000
0000
0010
0100
0000
0010
0000
1000
,  // measure 68
0001
0000
0010
0100
0000
0100
0010
0001
1000
0000
0000
1000
0000
0100
0000
0100
,  // measure 69
1000
0000
0000
1000
0000
0000
1000
0000
0001
0000
0000
0001
0000
0001
0000
0000
,  // measure 70
0100
0000
0000
0100
0000
0000
0100
0001
0010
0000
0000
0010
0000
0100
0000
1000
,  // measure 71
0001
0000
0000
1001
0000
0000
0001
0000
1000
0000
0000
1001
0000
0000
1000
0000
,  // measure 72
0010
0000
0000
0110
0000
0000
0010
0000
0100
0000
0001
0000
1000
0000
0001
0000
,  // measure 73
0202
0000
0000
0000
,  // measure 74
0303
0000
0000
0000
;

//---------------dance-single - ----------------
#NOTEDATA:;
#CHARTNAME:;
#STEPSTYPE:dance-single;
#DESCRIPTION:;
#CHARTSTYLE:;
#DIFFICULTY:Medium;
#METER:9;
#RADARVALUES:0.402528,0.503950,0.221329,0.246867,0.021282,331.000000,305.000000,26.000000,29.000000,0.000000,0.000000,0.000000,0.000000,0.000000,0.402528,0.503950,0.221329,0.246867,0.021282,331.000000,305.000000,26.000000,29.000000,0.000000,0.000000,0.000000,0.000000,0.000000;
#CREDIT:;
#NOTES:
0000
0000
0000
0000
,
0000
0000
0000
0000
,
0000
0000
0000
0000
,
0000
0000
0000
0000
,
0000
0000
0000
0000
,
0000
0000
0000
0000
,
1000
0000
0001
0000
0100
0001
0100
0000
,
0001
0010
0000
0010
0000
0010
0100
1000
,
0001
0000
1000
0000
0100
1000
0100
0000
,
0220
0000
0000
0330
,
2000
0000
0000
0000
3001
0000
0000
0001
,
0000
0001
0000
0000
0001
0000
0010
0000
,
0002
0000
1003
0000
,
2020
0000
0000
3030
,
0002
0000
0000
0000
1003
0000
0000
1000
,
0000
1000
0000
0000
1000
0000
0010
0000
,
2000
0000
3001
0000
,
0022
0000
0000
0033
,
0001
0000
1000
0000
0100
0000
1000
0100
,
0010
0100
0010
0000
0010
0000
0100
0000
,
1000
0001
0100
0001
,
2020
0000
0000
3030
,
1000
0001
0100
0001
,
0001
1000
0100
1000
,
1100
0101
1100
0101
,
0001
0200
0000
1000
0000
0000
0310
0000
,
1001
0000
1000
0100
0010
0000
0100
1000
,
0001
0000
0010
0001
0100
0000
0000
0100
,
0001
0000
0001
0100
0010
0000
0100
0010
,
1000
0000
1000
0001
2001
0000
3100
0000
,
1001
0000
0001
0000
0010
0100
0010
0000
,
0001
1000
0001
0000
0100
0010
0100
0000
,
0010
0000
1000
0000
0001
0100
0100
0001
,
2000
0000
3002
0000
0103
0010
0100
0010
,
1000
0000
1000
0010
0100
0000
0100
0010
,
1000
0000
1000
0001
0100
0000
0100
0001
,
1000
0000
1000
0010
0100
0000
0100
0010
,
1000
0001
1000
0001
0011
0000
1010
0000
,
0020
0000
0130
0001
1000
0000
1000
0001
,
0010
0000
0010
0100
1000
0000
1000
0100
,
0010
0000
0110
0000
,
1001
0100
0100
0100
,
1001
0000
0001
0010
0100
0000
0100
0010
,
0001
0000
0000
0000
0001
0000
1000
0000
0100
0000
0000
0200
0000
0000
0300
0000
,
1000
0000
1000
0010
0100
0000
0100
0000
,
0001
0000
1000
0000
0001
0000
1000
0000
0000
0010
0000
0000
0010
0000
0000
0000
,
2000
0000
3001
0100
0010
0000
0010
1000
,
0100
0100
0020
0030
,
1001
0000
0110
0000
0001
0010
0100
1000
,
0020
0000
1030
0001
0100
0000
0100
0001
,
1000
0000
0000
0010
0000
0000
0001
0000
0000
0010
0000
0000
2000
0000
0000
0000
,
3002
0000
0003
1000
0100
1000
0001
0100
,
0001
0000
0001
1000
0000
0000
1010
0000
0000
0011
0000
0000
,
0020
0000
0030
0001
0100
0000
0001
1000
,
0010
0000
0010
1000
0200
0000
0300
0000
,
2002
0000
0000
0000
,
0000
0000
3003
0000
0001
1000
0002
0000
,
1003
1000
0010
0010
,
0100
0000
0100
0000
0010
0000
0010
1000
,
0001
0001
0010
0010
,
0100
0000
0100
0010
0001
0000
0010
0001
,
1000
1000
0100
0100
,
0010
0000
0010
0000
0100
0000
0100
1000
,
0001
0001
0100
0100
,
0010
0010
0110
1001
,
0001
0000
0001
0100
0010
0000
0010
0100
,
0001
0000
0001
0000
1000
0000
1000
0001
,
1000
0000
1000
0100
0010
0000
0010
0100
,
1000
0000
0001
1000
0001
0000
1001
0000
,
0001
0000
0001
0010
0100
0000
0100
0010
,
0001
0000
0001
0000
1000
0000
1000
0001
,
1000
0000
1000
0010
0100
0000
0010
0100
,
0001
0101
1000
1100
,
0002
0000
0000
0000
,
0003
0000
0000
0000
;

//---------------dance-single - ----------------
#NOTEDATA:;
#CHARTNAME:;
#STEPSTYPE:dance-single;
#DESCRIPTION:;
#CHARTSTYLE:;
#DIFFICULTY:Easy;
#METER:6;
#RADARVALUES:0.232274,0.310712,0.034051,0.144715,0.004256,191.000000,187.000000,4.000000,17.000000,0.000000,0.000000,0.000000,0.000000,0.000000,0.232274,0.310712,0.034051,0.144715,0.004256,191.000000,187.000000,4.000000,17.000000,0.000000,0.000000,0.000000,0.000000,0.000000;
#CREDIT:;
#NOTES:
0000
0000
0000
0000
,
0000
0000
0000
0000
,
0000
0000
0000
0000
,
0000
0000
0000
0000
,
0000
0000
0000
0000
,
0000
0000
0000
0000
,
1000
0100
0001
0100
,
1000
0100
0001
0010
,
1000
0010
0001
0010
,
0220
0000
0000
0330
,
0001
0000
2000
0000
,
0000
3000
1000
0001
,
1000
0000
0001
0000
,
0020
0000
0030
0001
,
1000
0000
0002
0000
,
0000
0003
0001
1000
,
0001
0000
1000
0000
,
0020
0000
0000
0030
,
1000
1000
0010
1000
,
0001
1000
0001
0100
,
0001
0001
0010
0001
,
0020
0000
0000
0030
,
0100
1000
0001
0100
,
0100
0001
1000
0100
,
0010
0100
0010
0100
,
2000
0000
3000
1001
,
0001
0000
0100
0000
,
0010
0000
0100
0000
,
0001
0000
0010
0000
,
0100
0000
0010
0110
,
1000
0000
0010
0000
,
0100
0000
0010
0000
,
1000
0000
0100
0000
,
0010
0010
0010
0000
,
0100
0000
1000
0000
,
0010
0000
0100
0000
,
0010
0000
1000
0000
,
0100
0010
0002
0003
,
0100
0000
0001
0000
,
0010
0000
0100
0000
,
1000
0000
0001
0000
,
1000
0100
0010
0001
,
0100
0000
0001
0000
,
1000
0000
0020
0030
,
1000
0000
0001
0000
,
0010
0000
0000
0000
0000
0000
0000
0000
0000
0100
0000
0000
0100
0000
0000
0000
,
0010
0000
0001
0000
,
1000
0000
0010
0000
,
0010
0000
0010
0000
0010
0010
0100
0100
,
0001
0000
1000
0000
,
0100
0000
0000
0100
0000
0000
0100
0000
,
1000
0000
0001
0000
,
0100
0000
0010
0010
,
0000
1000
0000
0001
,
0010
0001
1000
0010
,
0200
0000
0000
0000
,
0000
0000
0000
0300
,
0001
0001
0100
0100
,
0001
0001
1000
0010
,
1000
1000
0100
0100
,
1000
0001
0010
0001
,
0100
0100
0010
0010
,
1000
1000
0001
0010
,
0100
0100
0010
0010
,
0001
1000
0010
0100
,
0001
0100
0010
0100
,
0001
1000
0010
0010
,
1000
0100
1000
0001
,
0010
0010
0100
0100
,
2000
3000
0002
0003
,
0200
0300
0020
0030
,
2000
3000
0002
0003
,
0010
0010
0100
0100
,
1001
0000
0000
0000
;

//---------------dance-single - ----------------
#NOTEDATA:;
#CHARTNAME:;
#STEPSTYPE:dance-single;
#DESCRIPTION:;
#CHARTSTYLE:;
#DIFFICULTY:Beginner;
#METER:2;
#RADARVALUES:0.119177,0.186427,0.076614,0.000000,0.000000,98.000000,89.000000,9.000000,0.000000,0.000000,0.000000,0.000000,0.000000,0.000000,0.119177,0.186427,0.076614,0.000000,0.000000,98.000000,89.000000,9.000000,0.000000,0.000000,0.000000,0.000000,0.000000,0.000000;
#CREDIT:;
#NOTES:
0000
0000
0000
0000
,
0000
0000
0000
0000
,
0000
0000
0000
0000
,
0000
0000
0000
0000
,
0000
0000
0000
0000
,
0000
0000
0000
0000
,
1000
0000
0000
0000
,
0001
0000
0000
0000
,
1000
0000
0001
0000
,
0010
0000
0000
0000
,
1001
0000
0000
0000
,
0000
0000
0000
0000
,
1001
0000
0000
0000
,
0100
0000
0000
0000
,
1001
0000
0000
0000
,
0000
0000
0000
0000
,
1001
0000
0000
0000
,
0010
0000
0000
0000
,
1001
0000
0000
0000
,
0001
0000
0001
0000
,
1001
0000
0000
0000
,
0100
0000
0000
0000
,
1001
0000
0000
0000
,
1001
0000
0000
0000
,
1000
1000
1000
1000
,
0000
0000
0000
0000
,
0001
0000
0000
0000
,
1000
0000
0000
0000
,
0001
0000
0000
0000
,
1000
0000
0100
0100
,
0100
0000
0000
0000
,
1000
0000
0000
0000
,
0001
0000
0000
0000
,
0010
0000
0010
0000
,
0001
0000
0001
0000
,
1000
0000
1000
0000
,
0001
0000
0001
0000
,
1000
0000
1000
1000
,
0010
0000
0010
0000
,
0100
0000
0100
0000
,
0010
0000
0010
0000
,
0010
0000
0000
0000
,
1000
0000
0000
0000
,
0001
0000
0000
0000
,
1000
0000
0000
0000
,
0100
0000
0100
0000
,
1000
0000
0000
0000
,
0001
0000
0000
0000
,
0100
0010
0100
0000
,
0000
0001
0000
0001
,
1000
0000
0000
0000
,
0000
1000
0000
1000
,
0100
0000
0100
0100
,
0000
1000
0000
1000
,
0000
0001
0000
0001
,
0001
0000
0000
0000
,
0000
0000
0000
0000
,
1000
0000
0000
0000
,
0010
0000
0000
0000
,
0100
0000
0000
0000
,
0001
0000
0000
0000
,
1000
0000
0000
0000
,
0100
0000
0000
0000
,
0010
0000
0000
0000
,
0001
0000
0000
0000
,
0001
0000
0000
0000
,
0100
0000
0000
0000
,
0010
0000
0000
0000
,
1000
0000
0000
0000
,
0001
0000
0000
0000
,
0010
0000
0000
0000
,
0100
0000
0000
0000
,
1000
0000
0000
0000
,
1001
0000
0000
0000
;
