#TITLE:Moustache;
#SUBTITLE:;
#ARTIST:Twin Twin;
#TITLETRANSLIT:;
#SUBTITLETRANSLIT:;
#ARTISTTRANSLIT:;
#GENRE:;
#CREDIT:;
#BANNER:Moustache.png;
#BACKGROUND:Moustache-bg.png;
#LYRICSPATH:;
#CDTITLE:;
#MUSIC:Moustache.ogg;
#OFFSET:1.854000;
#SAMPLESTART:60.021000;
#SAMPLELENGTH:15.000000;
#LASTBEATHINT:1.821867;
#SELECTABLE:YES;
#BPMS:0.000000=128.000000
,164.000000=64.000000
,172.000000=128.000000
;
#STOPS:
;
#BGCHANGES:3.979=Moustache.avi=1.000=0=0=1=====,
223.000=Moustache-bg.png=1.000=0=0=1===CrossFade_Fastest==,
99999=-nosongbg-=1.000=0=0=0 // don't automatically add -songbackground-
;
#KEYSOUNDS:;
#ATTACKS:;

//---------------dance-single - ----------------
#NOTES:
     dance-single:
     :
     Challenge:
     13:
     0.506975,0.567788,0.131091,0.149818,0.341773,379.000000,365.000000,14.000000,16.000000,4.000000,0.000000,0.506975,0.567788,0.131091,0.149818,0.341773,379.000000,365.000000,14.000000,16.000000,4.000000,0.000000:
// measure 0
0000
0000
0000
0000
,  // measure 1
0000
0000
0000
0000
,  // measure 2
0000
0000
0000
0000
,  // measure 3
0000
0000
0000
0000
,  // measure 4
0000
0000
0000
0000
,  // measure 5
1000
0002
0000
0203
0000
0301
1000
0200
,  // measure 6
0000
1300
0001
0200
0000
0301
0010
0000
,  // measure 7
0001
2000
0000
3020
0000
1030
0001
0020
,  // measure 8
0000
0031
1000
0100
0000
0110
0000
0000
,  // measure 9
0001
0000
1000
0010
0000
1000
0010
0000
0000
0000
1010
0000
0101
0000
0000
0000
,  // measure 10
1000
0001
0000
0001
0000
0001
1000
0000
0010
0000
0000
0000
0100
0000
0010
0000
,  // measure 11
1000
0000
0001
0010
0000
0001
0010
0000
0100
0000
0000
1000
0001
0000
0010
0000
,  // measure 12
0001
1000
0000
1000
0000
1000
0001
0000
0010
0000
0000
0000
0011
0000
1100
0000
,  // measure 13
1000
0010
0000
0010
0000
0010
0100
0000
0001
0000
0000
0000
0010
0000
0100
0000
,  // measure 14
0010
0000
0001
1000
0000
0001
1000
0000
0010
0000
0110
0000
1001
0000
0000
1000
,  // measure 15
0010
0000
0010
0100
0000
0100
0001
0000
0010
0000
0000
0100
0010
0000
0001
0000
,  // measure 16
0100
0000
0100
0010
0000
0010
1000
0000
0100
0000
0000
0000
0110
0000
1001
0000
,  // measure 17
1000
0000
0001
0100
0000
0001
0100
0000
0010
0000
0000
0100
0001
0000
0010
0000
,  // measure 18
0001
0100
0000
0100
0000
0100
0010
0000
1000
0000
0000
1000
0010
0000
0100
0000
,  // measure 19
0001
0000
1000
0100
0000
1000
0100
0000
0010
0000
0000
0000
0010
0000
0100
0000
,  // measure 20
1000
0000
0001
0100
0000
0001
0100
0000
0010
0000
1000
0000
1001
0000
0110
0000
,  // measure 21
0001
0000
1000
0010
0000
1000
0010
0000
0100
0000
0000
0000
0100
0000
0010
0000
,  // measure 22
1000
0010
0000
0010
0000
0010
0100
0000
0002
0000
0003
0000
0011
0000
0000
0001
,  // measure 23
0010
0000
0010
0100
0000
0100
1000
0000
0010
0000
0000
0000
0100
0000
0010
0000
,  // measure 24
1000
1000
0100
0100
0010
0010
0001
0001
,  // measure 25
1001
0000
0000
0001
1000
0000
0100
0000
0010
0000
0000
0000
0010
0000
0100
0000
,  // measure 26
1000
0000
0000
1000
0001
0000
0100
0000
0010
0000
0000
0000
0000
0000
0100
0000
,  // measure 27
0001
0000
0000
0001
1000
0000
0100
0000
0010
0000
0000
0000
0010
0000
0100
0000
,  // measure 28
1000
0000
0000
1000
0001
0000
0100
0000
0010
0000
1000
0000
0001
0000
0001
0000
,  // measure 29
1000
0000
0000
1000
0001
0000
0100
0000
0010
0000
0000
0000
0010
0000
0100
0000
,  // measure 30
0001
0000
0000
0001
1000
0000
0100
0000
0010
0000
0000
0000
0000
0000
0100
0000
,  // measure 31
1000
0000
0000
1000
0001
0000
0100
0000
0010
0000
0000
0000
0100
0000
0100
0000
,  // measure 32
0001
0001
0010
0010
0001
0001
MMMM
0000
,  // measure 33
1000
0010
1000
0000
0001
0010
0001
0000
,  // measure 34
0100
0010
0000
0010
0100
0000
0001
0000
1000
0000
0100
0000
0010
0000
0000
0000
,  // measure 35
0001
0010
0001
0000
1000
0010
1000
0000
,  // measure 36
0010
0100
0000
0100
0010
0000
1000
0000
0001
0000
0010
0000
0100
0000
0000
0000
,  // measure 37
1000
0100
1000
0000
0001
0100
0001
0000
,  // measure 38
0010
0100
0000
0100
0010
0000
0001
0000
1000
0000
0010
0000
0100
0000
0000
0000
,  // measure 39
0001
0100
0001
0000
1000
0100
1000
0000
,  // measure 40
0100
0010
0000
0010
0100
0000
1000
0000
0001
0000
0100
0000
0010
0000
1000
0000
,  // measure 41
0100
1000
0020
0000
0000
0000
0000
0000
0000
0000
0130
0001
0010
0100
0000
0100
,  // measure 42
0010
0001
0200
0000
0000
0000
0301
1000
0200
0000
0000
0310
0001
0100
1000
0100
,  // measure 43
0010
1000
0200
0000
0320
0000
0130
1000
,  // measure 44
0020
0000
0130
0001
0010
0100
0010
0001
,  // measure 45
0100
0010
2000
0000
3100
1000
0010
0100
,  // measure 46
0002
0000
0003
1001
,  // measure 47
1000
0010
1000
0000
0001
0010
0001
0000
,  // measure 48
0100
0010
0000
0010
0100
0000
0001
0000
1000
0000
0100
0000
0010
0000
0000
0000
,  // measure 49
0001
0010
0001
0000
1000
0010
1000
0000
,  // measure 50
0010
0100
0000
0100
0010
0000
1000
0000
0001
0000
0010
0000
0100
0000
0000
0000
,  // measure 51
1000
0100
1000
0000
0001
0100
0001
0000
,  // measure 52
0010
0100
0000
0100
0010
0000
0001
0000
1000
0000
0010
0000
0100
0000
0000
0000
,  // measure 53
0001
0100
0001
0000
1000
0100
1000
0000
,  // measure 54
0100
0010
0000
0010
0100
0000
1000
0000
0001
0000
0100
0000
0010
0000
1000
0000
,  // measure 55
0100
0010
0000
0000
0000
0000
0000
0000
;
