#VERSION:0.83;
#TITLE:Moogelus High;
#SUBTITLE:;
#ARTIST:Mitsuhiro Kaneda;
#TITLETRANSLIT:;
#SUBTITLETRANSLIT:;
#ARTISTTRANSLIT:;
#GENRE:HARD TRANCE;
#ORIGIN:;
#CREDIT:;
#BANNER:moogelushigh.png;
#BACKGROUND:moogelushigh-bg.png;
#PREVIEWVID:;
#JACKET:moogelushigh-jacket.png;
#CDIMAGE:;
#DISCIMAGE:;
#LYRICSPATH:;
#CDTITLE:cdtitle.png;
#MUSIC:moogelushigh.ogg;
#OFFSET:-1.690876;
#SAMPLESTART:68.361053;
#SAMPLELENGTH:13.334000;
#SELECTABLE:YES;
#BPMS:0.000=143.970;
#STOPS:;
#DELAYS:;
#WARPS:;
#TIMESIGNATURES:0.000=4=4;
#TICKCOUNTS:0.000=4;
#COMBOS:0.000=1;
#SPEEDS:0.000=1.000=0.000=0;
#SCROLLS:0.000=1.000;
#FAKES:;
#LABELS:0.000=Song Start;
#BGCHANGES:;
#KEYSOUNDS:;
#ATTACKS:
;

//---------------dance-single - ----------------
#NOTEDATA:;
#CHARTNAME:;
#STEPSTYPE:dance-single;
#DESCRIPTION:;
#CHARTSTYLE:;
#DIFFICULTY:Hard;
#METER:13;
#RADARVALUES:0.582880,0.615602,0.110774,0.009231,0.669258,442.000000,430.000000,12.000000,1.000000,0.000000,0.000000,0.000000,0.000000,0.000000,0.582880,0.615602,0.110774,0.009231,0.669258,442.000000,430.000000,12.000000,1.000000,0.000000,0.000000,0.000000,0.000000,0.000000;
#CREDIT:TonyAkita;
#NOTES:
// measure 0
0000
0000
0000
0000
,  // measure 1
0000
0000
0000
0000
,  // measure 2
0000
0000
0000
0000
,  // measure 3
0000
0000
0000
0000
,  // measure 4
1000
0100
0000
0001
0000
0100
0000
0010
0000
0000
0000
0000
0000
0000
0000
0000
,  // measure 5
0001
0100
0000
1000
0000
0100
0000
0010
0000
0000
0000
0000
0000
0000
0000
0000
,  // measure 6
1000
0010
0001
0010
1000
0010
0100
0001
,  // measure 7
0010
0000
1000
0000
0010
0000
0001
0000
0010
0000
0100
0000
1000
0001
1000
0001
,  // measure 8
0100
0010
0000
0001
0000
0010
0000
1000
0000
0000
0000
0000
0001
0000
1000
0000
,  // measure 9
0100
0010
0000
1000
0000
0010
0000
0001
0000
0000
0000
0000
1000
0000
0001
0000
,  // measure 10
0100
0010
0000
0001
0000
0010
0000
1000
0000
0001
0000
0000
0010
0100
0000
1000
,  // measure 11
0000
1000
0000
0000
0010
0100
0000
0001
0000
0001
0000
0000
0100
0000
0010
0000
,  // measure 12
1000
0001
0000
0010
0000
1000
0000
0010
0000
0000
0000
0000
0100
0000
0010
0000
,  // measure 13
0001
1000
0000
0010
0000
0001
0000
0010
0000
0000
0000
0000
0100
0000
0010
0000
,  // measure 14
1000
0001
0000
0010
0000
1000
0000
0010
0000
0100
0000
0000
1000
0001
0000
0100
,  // measure 15
0000
0100
0000
0000
0001
1000
0000
0010
0000
0010
0000
0000
1000
0001
1000
0001
,  // measure 16
0010
0100
0000
1100
0000
0001
0100
0010
,  // measure 17
0000
0100
0000
0101
0000
1000
0100
0010
,  // measure 18
0000
0001
0000
0011
0000
1000
0010
0100
,  // measure 19
0001
0100
1000
0100
0001
0100
0010
1000
,  // measure 20
0001
0010
0000
1100
0000
1000
0001
0100
,  // measure 21
0000
0010
0000
0101
0000
0001
1000
0100
,  // measure 22
0000
0010
0000
0011
0000
1000
0010
0100
,  // measure 23
0001
0100
1000
0100
0001
0100
0010
1000
,  // measure 24
0001
0010
0000
1000
0000
0010
0000
0100
0000
0000
0000
0000
1000
0000
0100
0000
,  // measure 25
1000
0010
0000
0001
0000
0010
0000
0100
0000
0000
0000
0000
0001
0000
0100
0000
,  // measure 26
0001
0010
0000
1000
0000
0010
0000
0100
0000
1000
0000
0000
0100
0010
0000
0001
,  // measure 27
0000
0001
0000
0000
0100
0010
0000
1000
0000
1000
0000
0000
0001
0000
1000
0000
,  // measure 28
0100
0010
0000
1000
0000
0010
0000
0001
0000
0000
0000
0000
1000
0000
0001
0000
,  // measure 29
0100
0010
0000
0001
0000
0010
0000
1000
0000
0000
0000
0000
0001
0000
1000
0000
,  // measure 30
0100
0010
0000
0001
0000
0010
0000
1000
0000
0010
0000
0000
0100
1000
0000
0010
,  // measure 31
0000
0010
0000
0000
0100
0001
0000
0010
0000
0010
0000
0000
0001
0000
0010
0000
,  // measure 32
0100
0000
1000
0000
0000
0000
0001
0100
0000
0001
0010
0000
0000
0000
0100
0000
,  // measure 33
1000
0000
0010
0000
0000
0000
1000
0100
0000
1000
0010
0000
0000
0000
0100
0000
,  // measure 34
0001
0000
0010
0000
0000
0000
1000
0010
0000
0001
0010
0000
0100
0000
1000
0000
,  // measure 35
0001
0000
1000
0000
0010
0100
0010
0000
1000
0000
0001
0000
0010
0100
0010
0000
,  // measure 36
0001
0000
0100
0000
0000
0000
0010
1000
0000
0010
0100
0000
0000
0000
0001
0000
,  // measure 37
1000
0000
0100
0000
0000
0000
0010
0001
0000
0010
0100
0000
0000
0000
1000
0000
,  // measure 38
0001
0000
0100
0000
0000
0000
0010
1000
0000
0010
0001
0000
0010
0000
0100
0000
,  // measure 39
0001
0000
1000
0000
0100
0010
0100
0000
1000
0000
0001
0000
1001
0000
0000
0000
,  // measure 40
1010
0010
0100
0001
0000
0011
0000
0100
,  // measure 41
1000
0100
0001
0100
0010
0001
1000
0010
,  // measure 42
0100
0001
0010
0001
0000
0100
0010
1000
,  // measure 43
0001
0010
0001
0010
0001
0000
0000
0000
1000
0010
1000
0010
1000
0000
0000
0000
,  // measure 44
0011
0010
0100
1000
0000
1010
0000
0100
,  // measure 45
0001
0100
1000
0100
0010
1000
0001
0010
,  // measure 46
0100
1000
0010
1000
0000
0100
0010
0001
,  // measure 47
1000
0001
1000
0001
1000
0000
0000
0000
0000
0010
0100
0000
0110
0000
0000
0000
,  // measure 48
0001
0000
0100
0000
0010
0100
0010
0000
0100
0000
0001
1000
0000
0000
0100
0000
,  // measure 49
0010
0000
0100
0000
1000
0100
0010
0000
0001
0000
1000
0000
0001
0000
0100
0000
,  // measure 50
0010
0000
1000
0000
0010
0100
0010
0000
0100
0000
0001
0000
1000
0000
0100
0000
,  // measure 51
0010
0001
0010
0001
0010
0000
0100
0000
1000
0000
0001
0000
1000
0001
1000
0001
,  // measure 52
1000
0010
0001
0010
0100
0010
1000
0001
,  // measure 53
0010
0100
0000
1000
0000
0001
0000
1000
0000
0010
0000
1000
0000
0010
0000
0100
,  // measure 54
0001
0100
1000
0100
0010
0100
0001
1000
,  // measure 55
0100
0010
0000
0001
0000
1000
0000
0001
0000
0100
0000
0001
0000
0100
0000
0010
,  // measure 56
1000
0010
0001
0010
0100
0010
1000
0001
,  // measure 57
0010
0100
0000
1000
0000
0001
0000
1000
0000
0010
0000
1000
0000
0010
0000
0100
,  // measure 58
0001
0100
1000
0100
0001
0100
0010
1000
,  // measure 59
0001
0000
1000
0000
0100
0010
0100
0000
1000
0000
0001
0000
0100
0010
0100
0010
,  // measure 60
0200
0000
0000
0000
0000
0300
0000
0000
;

//---------------dance-single - ----------------
#NOTEDATA:;
#CHARTNAME:;
#STEPSTYPE:dance-single;
#DESCRIPTION:;
#CHARTSTYLE:;
#DIFFICULTY:Medium;
#METER:8;
#RADARVALUES:0.377158,0.447710,0.138467,0.018462,0.064618,286.000000,271.000000,15.000000,2.000000,0.000000,0.000000,0.000000,0.000000,0.000000,0.377158,0.447710,0.138467,0.018462,0.064618,286.000000,271.000000,15.000000,2.000000,0.000000,0.000000,0.000000,0.000000,0.000000;
#CREDIT:TonyAkita;
#NOTES:
0000
0000
0000
0000
,
0000
0000
0000
0000
,
0000
0000
0000
0000
,
0000
0000
0000
0000
,
0000
0000
0000
1000
0000
0010
0000
1000
0000
0000
0000
0000
0000
0000
0000
0000
,
0000
0000
0000
0001
0000
0010
0000
0001
0000
0000
0000
0000
0000
0000
0000
0000
,
0001
1000
0010
0100
,
0001
0100
1000
0100
0001
0100
0010
0000
,
1000
0010
1000
0010
0100
0000
0000
0000
,
0001
0010
0001
0010
0100
0000
0000
0000
,
1000
0000
0100
0000
0001
0000
0100
0000
1000
0000
0000
0000
0100
0010
0000
0000
,
0011
0000
0000
0000
1000
0010
0000
0000
1010
0000
0000
0000
0000
0000
0000
0000
,
0100
0001
0010
0001
0100
0000
0000
0000
,
0010
1000
0100
1000
0010
0000
0000
0000
,
0001
0000
0010
0000
1000
0000
0010
0000
0001
0000
0000
0000
0010
0100
0000
0000
,
0101
0000
0000
0000
1000
0100
0000
0000
1100
0000
0000
0000
0010
0000
0001
0000
,
1000
0010
0000
0100
0000
1000
0000
0100
,
0000
0001
0000
1000
0000
0001
0000
0010
,
0000
0100
0000
0001
0000
0100
0000
1000
,
0000
0001
1000
0001
0000
0100
0010
1000
,
0000
0001
0000
0010
0000
1000
0000
0010
,
0000
0001
0000
1000
0000
0001
0000
0100
,
0000
0010
0000
0001
0000
0010
0000
1000
,
0000
0001
0010
0100
0000
1000
0001
0000
,
0100
0001
0100
0001
0010
0000
0000
0000
,
0100
1000
0100
1000
0010
0000
0000
0000
,
0100
0000
0010
0000
0100
0000
0001
0000
1000
0000
0000
0000
0001
0010
0000
0000
,
0011
0000
0000
0000
0100
1000
0000
0000
1100
0000
0000
0000
0000
0000
0000
0000
,
1000
0010
0100
0010
1000
0000
0000
0000
,
0001
0010
0100
0010
0001
0000
0000
0000
,
1000
0000
0100
0000
0001
0000
0100
0000
0010
0000
0000
0000
0001
0010
0000
0000
,
0011
0000
0000
0000
0100
1000
0000
0000
1100
0000
0000
0000
0000
0000
0000
0000
,
1000
0000
0001
0000
1000
0010
0100
0000
,
0001
0000
0100
0000
1000
0100
0001
0000
,
0010
1000
0010
0001
,
0010
0100
0010
0000
0001
1000
0001
0000
,
0100
0000
1000
0000
0100
0001
0010
0000
,
1000
0000
0010
0000
0100
1000
0001
0000
,
0100
1000
0100
0001
,
0100
0010
0100
0010
0100
0000
1001
0000
,
0001
0010
0001
0010
0000
0011
0000
0000
,
0100
0000
1000
0000
0001
0100
1000
0000
,
0100
0010
0100
0010
0000
1010
0000
0000
,
1000
0001
1000
0000
0001
1000
0001
0000
,
1000
0100
1000
0100
0000
1100
0000
0000
,
0010
0000
0001
0000
1000
0010
0001
0000
,
0010
0100
0010
0100
0000
0101
0000
0000
,
0001
1000
0001
0000
0000
1000
1010
0000
,
0100
0000
0001
0000
0100
0010
1000
0000
,
0001
0000
0010
0000
1000
0010
0001
0000
,
0010
0100
1000
0001
,
0100
0010
0100
0000
0010
0100
0010
0000
,
0000
1000
0010
0100
,
0000
0001
0000
0001
0000
1000
0000
1000
,
0000
0001
0010
0100
,
0000
1000
0000
1000
0000
0001
0000
0001
,
0000
0100
0010
1000
,
0000
0010
0000
0010
0000
0100
0000
0100
,
0000
0001
1000
0001
,
0010
0100
0010
0000
0100
0010
0100
0000
,
2002
0000
0000
0000
0000
3003
0000
0000
;

//---------------dance-single - ----------------
#NOTEDATA:;
#CHARTNAME:;
#STEPSTYPE:dance-single;
#DESCRIPTION:;
#CHARTSTYLE:;
#DIFFICULTY:Easy;
#METER:5;
#RADARVALUES:0.292759,0.335783,0.110774,0.009231,0.000000,222.000000,210.000000,12.000000,1.000000,0.000000,0.000000,0.000000,0.000000,0.000000,0.292759,0.335783,0.110774,0.009231,0.000000,222.000000,210.000000,12.000000,1.000000,0.000000,0.000000,0.000000,0.000000,0.000000;
#CREDIT:TonyAkita;
#NOTES:
0000
0000
0000
0000
,
0000
0000
0000
0000
,
0000
0000
0000
0000
,
0000
0000
0000
0000
,
1000
1000
0000
0000
,
0001
0001
0000
0000
,
0010
0001
0010
0100
,
1000
0000
1000
0000
0001
0001
0001
0000
,
0010
0001
0010
0000
,
0100
1000
0100
0000
,
1000
0010
0001
0010
,
0010
0100
0100
0000
,
0100
0001
0100
0000
,
0010
1000
0010
0000
,
1000
0100
0001
0100
,
0100
0010
0010
0000
,
0001
0010
0001
1000
,
0100
0001
0100
1000
,
0100
0010
0100
1000
,
0001
0001
1000
1000
,
1000
0010
1000
0001
,
0100
1000
0100
0001
,
0100
0010
0100
0001
,
1000
1000
0001
0001
,
0010
0001
0010
0000
,
0100
1000
0100
0000
,
1000
0010
0001
0010
,
0010
0100
0100
0000
,
0010
1000
0010
0000
,
0100
0001
0100
0000
,
0001
0010
1000
0010
,
0010
0100
0100
0000
,
0001
0100
0010
0100
,
0001
1000
0100
0010
,
0001
0010
1000
0010
,
0001
0001
0001
0000
1000
1000
1000
0000
,
1000
0100
0010
0100
,
1000
0001
0100
0010
,
1000
0010
0001
0010
,
1000
1000
1000
0000
0001
0001
0001
0000
,
0001
0011
0000
1001
,
1000
0010
0001
0010
,
1000
0100
0001
0100
,
0010
0010
0010
0000
0011
0000
0000
0000
,
1000
1010
0000
1001
,
0001
0010
1000
0010
,
0001
0100
1000
0100
,
0010
0010
0010
0000
0000
0000
1001
0000
,
1000
0010
0001
0010
,
1000
0001
0010
0100
,
1000
0100
0010
0100
,
1000
1000
1000
0000
0001
0001
0001
0000
,
0100
0010
0100
0001
,
0000
1001
0000
1100
,
0100
0010
0100
1000
,
0000
1001
0000
0011
,
0010
0100
1000
0001
,
0000
1001
0000
1010
,
0010
0100
0001
1000
,
0001
0001
0001
0000
1000
1000
1000
0000
,
0020
0000
0000
0000
0000
0030
0000
0000
;

//---------------dance-single - ----------------
#NOTEDATA:;
#CHARTNAME:;
#STEPSTYPE:dance-single;
#DESCRIPTION:;
#CHARTSTYLE:;
#DIFFICULTY:Beginner;
#METER:3;
#RADARVALUES:0.172754,0.221547,0.055387,0.036925,0.000000,131.000000,125.000000,6.000000,4.000000,0.000000,0.000000,0.000000,0.000000,0.000000,0.172754,0.221547,0.055387,0.036925,0.000000,131.000000,125.000000,6.000000,4.000000,0.000000,0.000000,0.000000,0.000000,0.000000;
#CREDIT:TonyAkita;
#NOTES:
0000
0000
0000
0000
,
0000
0000
0000
0000
,
0000
0000
0000
0000
,
0000
0000
0000
0000
,
1000
1000
0000
0000
,
0001
0001
0000
0000
,
0010
0000
0100
0000
,
0010
0000
1001
0000
,
0001
0001
0001
0000
,
0010
0010
0010
0000
,
0001
0001
0001
0000
,
0100
0000
0010
0000
,
1000
1000
1000
0000
,
0010
0010
0010
0000
,
1000
1000
1000
0000
,
0100
0000
0010
0000
,
0001
0000
1000
0000
,
0010
0000
1000
0000
,
0001
0000
0010
0000
,
0100
0100
0100
0000
,
1000
0000
0001
0000
,
0010
0000
0001
0000
,
1000
0000
0010
0000
,
0100
0100
0100
0000
,
0001
0001
0001
0000
,
1000
1000
1000
0000
,
0001
0001
0001
0000
,
0010
0000
0100
0000
,
1000
1000
1000
0000
,
0001
0001
0001
0000
,
1000
1000
1000
0000
,
0010
0000
0100
0000
,
0001
0000
0010
0000
,
0001
0000
0100
0000
,
0010
0000
1000
0000
,
0001
0001
0001
0000
,
1000
0000
0100
0000
,
1000
0000
0010
0000
,
0100
0000
0001
0000
,
1000
1000
1000
0000
,
0001
0001
0000
0000
,
0000
0010
0000
0001
,
0000
0100
0000
0010
,
0000
1001
0000
1001
,
0000
1000
0000
1000
,
0000
0010
0000
1000
,
0000
0100
0000
0010
,
0000
1001
0000
1001
,
0000
0000
0001
0000
,
0010
0000
0001
0000
,
0100
0000
0010
0000
,
1000
1000
1000
0000
,
0020
0000
0000
0030
,
0000
1000
0000
0001
,
0000
0200
0000
0300
,
0000
0001
0000
1000
,
0000
0200
0000
0300
,
0000
1000
0000
0001
,
0000
0020
0000
0030
,
0010
0000
0100
0000
,
1001
0000
0000
0000
;
