#VERSION:0.83;
#TITLE:Mirage;
#SUBTITLE:;
#ARTIST:PLEEG;
#TITLETRANSLIT:;
#SUBTITLETRANSLIT:;
#ARTISTTRANSLIT:;
#GENRE:;
#ORIGIN:;
#CREDIT:;
#BANNER:Mirage.png;
#BACKGROUND:Mirage-bg.png;
#PREVIEWVID:;
#JACKET:Mirage-jacket.png;
#CDIMAGE:;
#DISCIMAGE:;
#LYRICSPATH:;
#CDTITLE:;
#MUSIC:Mirage.ogg;
#OFFSET:1.291153;
#SAMPLESTART:25.915140;
#SAMPLELENGTH:12.799997;
#SELECTABLE:YES;
#BPMS:0.000=150.000;
#STOPS:;
#DELAYS:;
#WARPS:;
#TIMESIGNATURES:0.000=4=4;
#TICKCOUNTS:0.000=4;
#COMBOS:0.000=1;
#SPEEDS:0.000=1.000=0.000=0;
#SCROLLS:0.000=1.000;
#FAKES:;
#LABELS:0.000=Song Start;
#BGCHANGES:;
#KEYSOUNDS:;
#ATTACKS:
;

//---------------dance-single - ----------------
#NOTEDATA:;
#CHARTNAME:;
#STEPSTYPE:dance-single;
#DESCRIPTION:;
#CHARTSTYLE:;
#DIFFICULTY:Hard;
#METER:15;
#RADARVALUES:0.486652,0.714339,0.185543,0.378507,0.493543,459.000000,434.000000,25.000000,51.000000,0.000000,0.000000,0.000000,0.000000,0.000000,0.486652,0.714339,0.185543,0.378507,0.493543,459.000000,434.000000,25.000000,51.000000,0.000000,0.000000,0.000000,0.000000,0.000000;
#CREDIT:Daniel Van Eden;
#NOTES:
// measure 0
0000
0000
0000
0000
,  // measure 1
0000
0000
0000
0000
,  // measure 2
0000
0000
0000
0000
,  // measure 3
0000
0000
0000
0000
,  // measure 4
0000
0000
0000
0000
,  // measure 5
0000
0000
0000
0000
,  // measure 6
0000
0000
0000
0000
,  // measure 7
0000
0000
0000
0000
,  // measure 8
0000
0000
0000
0000
,  // measure 9
2002
0000
0000
0000
,  // measure 10
0003
0000
3020
0000
,  // measure 11
0230
0000
0000
0000
,  // measure 12
0000
0000
0000
0000
0301
0000
0010
0000
0100
0000
0000
1000
0000
0000
0000
0000
,  // measure 13
0101
0001
1000
0010
,  // measure 14
1100
1000
0001
0010
,  // measure 15
0001
0100
0001
0100
0010
1000
0010
1000
0100
0010
0100
0010
0001
0010
0100
1000
,  // measure 16
0002
0000
0000
0003
,  // measure 17
2100
0000
0000
0000
0000
0000
3001
0000
0010
0000
0001
1000
0000
0000
0100
1000
,  // measure 18
0001
0000
1000
0010
0000
0000
0100
0000
0010
0000
2000
0000
3001
0000
0010
0001
,  // measure 19
1000
0200
0000
0000
0000
0000
1300
0000
0010
0000
1000
0001
0000
0000
1000
0001
,  // measure 20
0100
0000
0001
1000
0000
0000
0010
0100
0020
0000
0000
0000
0000
0000
0000
0000
,  // measure 21
0000
0000
0000
0000
0030
0000
1000
1000
0100
0000
0010
0001
0000
0000
0010
0100
,  // measure 22
0010
0000
0100
1000
0000
0000
0001
0100
0001
0000
0020
0000
0130
0000
1000
0100
,  // measure 23
0010
0002
0000
0000
0000
0000
0103
0000
0010
0000
1000
0010
0000
0000
0100
0010
,  // measure 24
0100
0000
0001
1000
0020
0000
0000
0000
0000
0000
0000
0000
0030
0000
0000
0000
,  // measure 25
2010
0000
0000
0000
0000
0000
3001
0000
0010
0000
0100
0001
0000
0100
0000
0000
,  // measure 26
1000
0000
0010
0001
0000
0010
0000
0000
1000
0000
0002
0000
0103
0000
0010
1000
,  // measure 27
0001
0200
0000
0000
0000
0000
0301
0000
1000
0000
0100
0001
0000
0100
0000
0000
,  // measure 28
1000
0000
0010
0001
0000
0010
1000
0000
2002
0000
0000
0000
0000
0000
0000
0000
,  // measure 29
0000
0000
0000
0000
3003
0000
1000
1000
0100
0000
0010
1000
0000
0010
0000
0000
,  // measure 30
0001
0000
0100
1000
0000
0100
0010
0100
0001
0000
2000
0000
3010
0000
0100
0010
,  // measure 31
1000
0002
0000
0000
0000
0000
0103
0000
0010
0000
0001
0010
0000
1000
0000
0000
,  // measure 32
1100
0000
0000
0100
0010
0001
0000
0000
0022
0000
0000
0000
0033
0000
0000
0000
,  // measure 33
1200
0000
0000
0310
0000
0000
0100
0000
1000
0000
0001
0000
0010
0000
0000
0000
,  // measure 34
0100
0000
0000
0010
0000
0000
0001
0000
0010
0100
1000
0001
1000
0100
0010
0000
,  // measure 35
0001
0000
0000
1000
0010
0000
1000
0001
0100
0000
0010
0000
1000
0000
0102
0000
,  // measure 36
1000
0000
1003
0000
0010
0000
0100
0000
0001
1000
0000
0001
0200
0000
0310
0000
,  // measure 37
1001
0000
0000
1000
0000
0000
0010
0000
0100
0000
0001
0000
0011
0000
0000
0000
,  // measure 38
1000
0000
0001
0100
0010
0000
1000
0001
1000
0000
0010
0000
1000
0100
0010
0000
,  // measure 39
0120
0130
1000
0010
0001
0010
1010
1010
,  // measure 40
1000
0001
1000
0000
0100
0000
0010
0000
0001
0000
0000
0000
1000
0000
0010
0000
,  // measure 41
0201
0000
0000
0301
0000
0100
0010
1000
0001
0000
1000
0000
0100
0000
0000
0000
,  // measure 42
1000
0000
0000
0010
0000
0100
0010
1000
0001
1000
0100
0010
0000
0010
0001
0000
,  // measure 43
1001
0000
0000
1000
0000
0100
0010
0001
1000
0001
0010
0100
1000
0000
0010
0000
,  // measure 44
1000
0000
1000
0100
1000
0000
0100
0000
0020
0000
2030
0000
3002
0000
0203
0000
,  // measure 45
2300
0000
3000
0010
0000
0000
0100
0000
0001
0000
0100
0000
0110
0000
0000
0000
,  // measure 46
0010
0000
0000
1000
0000
0000
0001
0010
0001
0000
1000
0000
0001
0000
0100
0000
,  // measure 47
0020
0000
0000
0000
,  // measure 48
0000
0000
0030
0000
,  // measure 49
2002
0000
0000
0000
,  // measure 50
0000
0000
0000
0000
,  // measure 51
0000
0000
0000
0000
,  // measure 52
3003
0000
0000
0000
,  // measure 53
1010
0100
0001
0010
,  // measure 54
0011
0100
1000
0010
,  // measure 55
1000
0100
1000
0100
0010
0001
0010
0001
1000
0001
1000
0001
0100
0010
1000
0001
,  // measure 56
2000
0000
0000
3000
,  // measure 57
0102
0000
0000
0000
0000
0000
1003
0000
0010
0000
1000
0001
0100
0000
0001
0000
,  // measure 58
1000
0000
0100
0010
0001
0000
1000
0000
0001
0000
0020
0000
0130
0000
1000
0010
,  // measure 59
0100
0002
0000
0000
0003
0000
1000
0001
0100
0000
0010
1000
0001
0000
0100
0001
,  // measure 60
1000
0000
0100
1000
0100
0000
0010
0001
2000
0000
0000
0000
0000
0000
0000
0000
,  // measure 61
0000
0000
0000
0000
3000
0000
0010
0010
0100
0000
0001
1000
0010
0000
1000
0000
,  // measure 62
0001
0000
0010
0001
1000
0000
0010
0100
0010
0000
2000
0000
3001
0000
0010
0001
,  // measure 63
1000
0200
0000
0000
0300
0000
1000
0001
0010
0000
0100
1000
0001
0000
0100
0000
,  // measure 64
0010
0000
1000
0001
0200
0000
0000
0000
0000
0000
0000
0000
0300
0000
0000
0000
,  // measure 65
0102
0000
0000
0000
0000
0000
1003
0000
0010
0000
0100
0010
1000
0010
0100
0000
,  // measure 66
0001
0000
0010
0100
1000
0100
0010
0000
0001
0000
0200
0000
1300
0000
0001
0010
,  // measure 67
1000
0002
0000
0000
0000
0000
1003
0100
0010
0000
0100
0010
0001
0010
0100
0000
,  // measure 68
1000
0000
0000
1000
0010
0100
0001
0100
0020
0000
0000
0000
0000
0000
0000
0000
,  // measure 69
0000
0000
0000
0000
0030
0000
0100
0100
0001
0000
1000
0010
1000
0001
0100
0000
,  // measure 70
0001
0000
1000
0001
0010
0100
1000
0001
1000
0000
0200
0000
0301
0000
1000
0010
,  // measure 71
0001
2000
0000
0000
0000
0000
3001
0010
0100
0000
0010
0001
1000
0001
0100
0000
,  // measure 72
0010
0000
0000
0010
1000
0001
0000
0000
0120
0000
0000
0000
0130
0000
0001
0000
,  // measure 73
2002
0000
0000
0000
,  // measure 74
0000
0000
0000
0000
,  // measure 75
0000
0000
0000
0000
,  // measure 76
0000
0000
0000
0000
,  // measure 77
3003
0000
0000
0000
;

//---------------dance-single - ----------------
#NOTEDATA:;
#CHARTNAME:;
#STEPSTYPE:dance-single;
#DESCRIPTION:;
#CHARTSTYLE:;
#DIFFICULTY:Medium;
#METER:11;
#RADARVALUES:0.321254,0.457177,0.051952,0.133591,0.222651,303.000000,296.000000,7.000000,18.000000,0.000000,0.000000,0.000000,0.000000,0.000000,0.321254,0.457177,0.051952,0.133591,0.222651,303.000000,296.000000,7.000000,18.000000,0.000000,0.000000,0.000000,0.000000,0.000000;
#CREDIT:Daniel Van Eden;
#NOTES:
0000
0000
0000
0000
,
0000
0000
0000
0000
,
0000
0000
0000
0000
,
0000
0000
0000
0000
,
0000
0000
0000
0000
,
0000
0000
0000
0000
,
0000
0000
0000
0000
,
0000
0000
0000
0000
,
0000
0000
0000
0000
,
2002
0000
0000
0000
,
3003
0000
0020
0000
,
0230
0000
0000
0000
,
0000
0000
0302
0000
,
1003
0100
0010
0001
,
1000
0001
0010
0100
,
1000
0010
1000
0010
0100
0001
0100
0001
,
2000
0000
3000
0000
,
1001
0000
0000
0000
0000
0000
0001
0000
0010
0000
0000
0010
0100
0000
0000
0000
,
1000
0000
0000
1000
0001
0000
0000
0000
0100
0000
0010
0000
1000
0000
0000
0000
,
0100
0000
0000
0000
0000
0000
0010
0000
0100
0000
0000
0100
0000
0000
1000
0000
,
0001
0000
0000
0001
0000
0000
0010
0000
0001
0000
0000
0000
0000
0000
0000
0000
,
0000
0000
0000
0000
0000
0000
1000
0001
1000
0000
0000
1000
0010
0000
0000
0000
,
0100
0000
0000
0100
0001
0000
1000
0000
0001
0000
0000
0000
1000
0000
0100
0000
,
0010
0000
0000
0000
0000
0000
0100
0000
0010
0000
0000
0010
0000
0000
0001
0000
,
1000
0000
0000
1000
0200
0000
0000
0000
0000
0000
0000
0000
0300
0000
0000
0000
,
0110
0000
0000
0000
0000
0000
0001
0000
1000
0000
0000
0010
0000
0000
1000
0000
,
0001
0000
0000
0100
0000
0000
0001
0000
1000
0000
0001
0000
1000
0000
0000
0000
,
0010
0000
0000
0000
0000
0000
1000
0000
0001
0000
0000
0100
0000
0000
0001
0000
,
1000
0000
0000
0010
0000
0000
1000
0000
0002
0000
0000
0000
0000
0000
0000
0000
,
0003
0000
0000
0000
0000
0000
1000
0001
1000
0000
0000
0100
0000
0000
1000
0000
,
0001
0000
0000
0010
0000
0000
0001
0000
1000
0000
0010
0000
0100
0000
0000
0000
,
0001
0000
0000
0000
0000
0000
0010
0000
0100
0000
0000
1000
0000
0000
0100
0000
,
0010
0000
0000
0010
0001
0000
0000
0000
1001
0000
0000
0000
0001
0000
0100
0000
,
0010
0000
0000
1000
0000
0000
0000
0000
0000
0000
0010
0000
1000
0000
0000
0000
,
0001
0000
0000
1000
0000
0000
0100
0000
0010
0001
0000
1000
0000
0000
0000
0000
,
0001
0000
0000
0100
0000
0000
0001
0000
1000
0000
0000
0000
0010
0000
0100
0000
,
0010
0000
0010
0000
1000
0000
0001
0000
1000
0010
0000
0100
0000
0000
0010
0000
,
0100
0000
0000
0001
0000
0000
1000
0000
0100
0000
0010
0000
0001
0000
0000
0000
,
0010
0000
0000
0001
0000
0000
1000
0000
0001
0010
0000
0100
0000
0000
0000
0000
,
1000
1000
0001
0010
1000
0010
0001
0001
,
0100
0010
1000
0001
0100
0000
0000
0000
,
0100
0000
0000
0001
0000
0000
1000
0000
0001
0000
0100
0000
0001
0000
0000
0000
,
1000
0000
0000
0100
0000
0000
0010
0000
0100
0000
1000
0000
0001
0000
1000
0000
,
0010
0000
0000
1000
0000
0000
0010
0000
0100
0000
0001
0000
1000
0000
0100
0000
,
0010
0010
0100
1000
0001
0100
1000
0100
,
0001
0000
0000
0001
0000
0000
1000
0000
0010
0000
1000
0000
0100
0000
0000
0000
,
1000
0000
0000
1000
0000
0000
0001
0000
0010
0000
0100
0000
0010
0000
0001
0000
,
1000
0000
0000
0000
,
0000
0000
0000
0000
,
2002
0000
0000
0000
,
0000
0000
0000
0000
,
0000
0000
0000
0000
,
3003
0000
0000
0000
,
0001
0100
0010
1000
,
0001
1000
0100
0010
,
0001
0010
0001
0010
0100
1000
0100
1000
,
0002
0000
0000
0003
,
2002
0000
0000
0000
3003
0000
0000
0000
1000
0000
0000
1000
0010
0000
1000
0000
,
0001
0000
0000
0001
0010
0000
0001
0000
1000
0000
0000
0000
0100
0000
0010
0000
,
0001
0000
0000
0000
0000
0000
1000
0000
0001
0000
0000
0001
0000
0000
0100
0000
,
0010
0000
0000
0010
0000
0000
1000
0000
0200
0000
0000
0000
0000
0000
0000
0000
,
0300
0000
0000
0000
0000
0000
1000
0001
1000
0000
0000
1000
0100
0000
1000
0000
,
0001
0000
0000
0001
0100
0000
0001
0000
0010
0000
0100
0000
1000
0000
0001
0000
,
1000
0000
0000
0000
0000
0000
0010
0000
1000
0000
0000
1000
0000
0000
0001
0000
,
0100
0000
0000
0100
0020
0000
0000
0000
0000
0000
0000
0000
0000
0000
0000
0000
,
0030
0000
0000
0000
0000
0000
1000
0000
0001
0000
0000
0100
0000
0100
0000
0000
,
0001
0000
0000
0010
0000
0010
0000
0000
0001
0000
0010
0000
0100
0000
0000
0000
,
1000
0000
0000
0000
0000
0000
0001
0000
1000
0000
0000
0100
0000
0100
0000
0000
,
1000
0000
0000
0010
0000
0010
0000
0000
0200
0000
0000
0000
0000
0000
0000
0000
,
0300
0000
0000
0000
0000
0000
0001
1000
0001
0000
0000
1000
0000
1000
0000
0000
,
0001
0000
0000
0100
0000
0100
0000
0000
0001
0000
0100
0000
0010
0000
1000
0000
,
0001
0000
0000
0000
0000
0000
1000
0000
0001
0000
0000
0010
0000
0100
0000
0000
,
0010
0000
0000
0100
0000
1000
0000
0000
0001
0000
0000
0000
0000
0000
0000
0000
,
2002
0000
0000
0000
,
0000
0000
0000
0000
,
0000
0000
0000
0000
,
0000
0000
0000
0000
,
3003
0000
0000
0000
;

//---------------dance-single - ----------------
#NOTEDATA:;
#CHARTNAME:;
#STEPSTYPE:dance-single;
#DESCRIPTION:;
#CHARTSTYLE:;
#DIFFICULTY:Easy;
#METER:7;
#RADARVALUES:0.191904,0.285735,0.081639,0.133591,0.051952,181.000000,170.000000,11.000000,18.000000,0.000000,0.000000,0.000000,0.000000,0.000000,0.191904,0.285735,0.081639,0.133591,0.051952,181.000000,170.000000,11.000000,18.000000,0.000000,0.000000,0.000000,0.000000,0.000000;
#CREDIT:Daniel Van Eden;
#NOTES:
0000
0000
0000
0000
,
0000
0000
0000
0000
,
0000
0000
0000
0000
,
0000
0000
0000
0000
,
0000
0000
0000
0000
,
0000
0000
0000
0000
,
0000
0000
0000
0000
,
0000
0000
0000
0000
,
0000
0000
0000
0000
,
0110
0000
0000
0000
,
0000
0000
0000
0000
,
0000
0000
0000
0000
,
0000
0000
0000
0000
,
1001
0000
0000
0000
,
0110
0000
0000
0000
,
0001
0010
0100
1000
,
0001
0000
0000
0000
,
1001
0000
0000
0000
0000
0000
0000
0000
1000
0000
0000
1000
0000
0000
0000
0000
,
0010
0000
0000
0010
0000
0000
0000
0000
0200
0000
0000
0000
0301
0000
0000
0000
,
0010
0000
0000
0000
0000
0000
0000
0000
0100
0000
0000
0100
0000
0000
0000
0000
,
1000
0000
0000
1000
0000
0000
0000
0000
0002
0000
0000
0000
0000
0000
0000
0000
,
0003
0000
0000
0000
0000
0000
0000
0000
0100
0000
0000
0100
0000
0000
0000
0000
,
0001
0000
0000
0001
0000
0000
0000
0000
1000
0000
0000
0000
0100
0000
0000
0000
,
0010
0000
0000
0000
0000
0000
0000
0000
0001
0000
0000
0001
0000
0000
0000
0000
,
1000
0220
0000
0000
,
0330
0000
1000
0010
,
0100
0001
1000
0000
,
0100
0000
0100
0010
,
0001
1000
0020
0000
,
0030
0000
0100
0010
,
1000
0001
0010
0000
,
0100
0000
0100
1000
,
0001
0010
0001
0000
,
1100
0000
1000
0001
,
0000
0001
0100
0010
,
1000
0000
0001
0010
,
0001
0001
1000
0000
0010
0000
0000
0000
,
1000
0001
0100
0100
,
0000
0001
0010
0100
,
1000
1000
0000
0000
0010
0000
0001
0001
,
0000
0100
1000
0000
,
1000
0000
0000
1000
0001
0000
0010
0000
,
0100
0000
0000
0100
1000
0000
0001
0000
,
1000
0000
0000
1000
0100
0000
0010
0000
,
0001
0001
0100
0000
0020
0000
2030
0000
,
3002
0000
1003
1100
,
0100
0010
0001
0010
,
0100
0000
0000
0000
,
0000
0000
0000
0000
,
2002
0000
0000
0000
,
0000
0000
0000
0000
,
0000
0000
0000
0000
,
3003
0000
0000
0000
,
1000
0100
0100
0100
,
0010
0100
0100
0100
,
0010
0001
0100
0010
,
2000
0000
0000
3000
,
1001
0000
0000
0000
0000
0000
0000
0000
0001
0000
0000
0001
0000
0000
0000
0000
,
0100
0000
0000
0100
0000
0000
0000
0000
0020
0000
0000
0000
1030
0000
0000
0000
,
0100
0000
0000
0000
0000
0000
0000
0000
0010
0000
0000
0010
0000
0000
0000
0000
,
0001
0000
0000
0001
0000
0000
0000
0000
2000
0000
0000
0000
0000
0000
0000
0000
,
3000
0000
0000
0000
0000
0000
0000
0000
0010
0000
0000
0010
0000
0000
0000
0000
,
1000
0000
0000
1000
0000
0000
0000
0000
0001
0000
0000
0000
0010
0000
0000
0000
,
0100
0000
0000
0000
0000
0000
0000
0000
1000
0000
0000
1000
0000
0000
0000
0000
,
0001
0220
0000
0000
,
0330
0000
0001
0100
,
0010
1000
0001
1000
,
0100
0000
0010
0100
,
1000
0001
0200
0000
,
0300
0000
0010
0100
,
0001
1000
0100
0010
,
0001
0000
0010
0001
,
1000
0100
1000
0010
,
0220
0000
0000
0000
,
0000
0000
0000
0000
,
0000
0000
0000
0000
,
0000
0000
0000
0000
,
0330
0000
0000
0000
;

//---------------dance-single - ----------------
#NOTEDATA:;
#CHARTNAME:;
#STEPSTYPE:dance-single;
#DESCRIPTION:;
#CHARTSTYLE:;
#DIFFICULTY:Beginner;
#METER:2;
#RADARVALUES:0.106024,0.162535,0.029687,0.000000,0.000000,100.000000,96.000000,4.000000,0.000000,0.000000,0.000000,0.000000,0.000000,0.000000,0.106024,0.162535,0.029687,0.000000,0.000000,100.000000,96.000000,4.000000,0.000000,0.000000,0.000000,0.000000,0.000000,0.000000;
#CREDIT:Daniel Van Eden;
#NOTES:
0000
0000
0000
0000
,
0000
0000
0000
0000
,
0000
0000
0000
0000
,
0000
0000
0000
0000
,
0000
0000
0000
0000
,
0000
0000
0000
0000
,
0000
0000
0000
0000
,
0000
0000
0000
0000
,
0000
0000
0000
0000
,
1001
0000
0000
0000
,
0000
0000
0000
0000
,
0000
0000
0000
0000
,
0000
0000
0000
0000
,
1000
0000
0000
0000
,
0001
0000
0000
0000
,
0010
0000
0010
0000
,
0100
0000
0000
0000
,
0000
0000
1000
0000
,
0001
0000
1000
0000
,
0000
0000
0010
0000
,
1000
0000
0010
0000
,
0000
0000
0100
0000
,
0001
0000
0100
0000
,
0000
0000
0010
0000
,
0100
0100
0000
0000
,
0000
0000
0001
0000
,
0010
0000
0001
0000
,
0000
0000
1000
0000
,
0100
0000
1001
0000
,
0000
0000
0100
0000
,
1000
0000
0100
0000
,
0000
0000
0010
0000
,
0001
0000
0010
0000
,
0100
0000
0010
0000
,
0100
0000
1000
0000
,
0001
0000
1000
0000
,
0010
0010
0010
0000
,
0100
0000
0001
0001
,
0000
0000
1000
0000
,
0010
0000
1000
0000
,
0100
0000
0010
0000
,
0100
0000
0100
0100
,
0000
0000
1000
1000
,
0000
0000
0001
0001
,
0000
0000
0001
0000
,
0100
0000
0010
0010
,
0000
0000
1000
0000
,
0001
0000
0000
0000
,
0000
0000
0000
0000
,
1001
0000
0000
0000
,
0000
0000
0000
0000
,
0000
0000
0000
0000
,
0000
0000
0000
0000
,
0010
0000
0000
0000
,
0100
0000
0000
0000
,
0010
0000
0001
0001
,
0001
0000
0000
0000
,
0000
0000
1000
0000
,
0010
0000
1000
0000
,
0000
0000
0100
0000
,
1000
0000
0100
0000
,
0000
0000
0001
0000
,
0100
0000
0001
0000
,
0000
0000
0010
0000
,
0001
0001
0000
0000
,
0000
0000
0010
0000
,
0100
0000
1000
0000
,
0001
0000
0100
0000
,
0010
0010
0010
0000
,
1000
0000
0001
0000
,
0100
0000
0001
0000
,
0010
0000
0100
0000
,
1000
0000
0001
0000
,
1001
0000
0000
0000
;
