#VERSION:0.83;
#TITLE:MEJIRUSHI;
#SUBTITLE:;
#ARTIST:Zekk;
#TITLETRANSLIT:;
#SUBTITLETRANSLIT:;
#ARTISTTRANSLIT:;
#GENRE:;
#CREDIT:;
#MUSIC:MEJIRUSHI.ogg;
#BANNER:MEJIRUSHI-bn.png;
#BACKGROUND:MEJIRUSHI-bg.png;
#CDTITLE:;
#SAMPLESTART:75.027;
#SAMPLELENGTH:15.000;
#SELECTABLE:YES;
#OFFSET:0.050;
#BPMS:0.000=195.000
,150.000=97.500
,165.000=195.000
;
#STOPS:;
#SPEEDS:0.000=1.000=0.000=0,
163.000=2.000=2.000=0
;
#SCROLLS:0.000=1.000,
84.000=0.500,
84.500=1.000,
84.750=2.000,
85.000=1.000,
100.000=0.500,
100.500=1.000,
100.750=2.000,
101.000=1.000,
116.000=0.500,
116.500=1.000,
116.750=2.000,
117.000=1.000,
131.000=0.500,
131.500=1.000,
131.750=2.000,
132.000=1.000,
148.000=0.000,
148.250=2.000,
148.500=0.000,
148.750=2.000,
149.000=0.000,
149.250=2.000,
149.500=0.000,
149.750=2.000,
150.000=1.000,
165.000=0.500,
325.000=0.250,
325.500=0.500,
325.750=1.000,
326.000=0.500
;
#BGCHANGES:;
#FGCHANGES:;

//--------------- dance-single - ----------------
#NOTEDATA:;
#STEPSTYPE:dance-single;
#DESCRIPTION:;
#DIFFICULTY:Hard;
#METER:14;
#RADARVALUES:0,0,0,0,0;
#NOTES:
0000
0000
0000
0000
,
0000
0000
0000
0000
,
0000
0000
0000
0000
,
0000
0000
0000
0000
,
0000
0000
0000
0000
,
0000
0000
0000
0000
,
0000
0000
0000
0000
,
0000
0000
0000
0000
,
0001
0100
0010
0100
0010
0100
0010
2000
,
0001
0000
0001
0100
0000
0100
3000
1000
,
0020
0000
1000
0100
0000
0100
0030
0001
,
0020
0000
0001
0100
0000
0100
0030
1000
,
0010
0000
0100
0010
0000
0100
0010
2000
,
0001
0000
0001
0010
0000
0010
3000
1000
,
0100
0000
0100
0010
0000
0010
0001
1000
,
0100
0010
0001
0100
0010
1000
0100
0010
,
0002
0000
1000
1000
0000
0100
0103
0000
,
2010
3100
0012
0103
,
2010
3100
0012
0103
,
1000
0000
0010
0000
0100
0000
0010
0000
1000
0000
0001
0010
0001
0000
1000
0000
,
0100
0000
0000
0100
0000
0000
0100
0000
0001
0000
0100
0000
0010
0000
0001
0000
,
2000
0000
3010
0010
0100
0001
1000
1000
,
0100
0010
0001
0001
1000
0010
0100
0100
,
0010
1000
0001
0001
0010
0100
1000
1000
,
0001
0100
0100
0100
0010
0010
0010
1000
,
0002
0000
0013
0010
0100
1000
1000
0001
,
0100
0010
1000
1000
0001
0010
0100
0100
,
1000
1001
0000
0011
0000
1010
0000
0011
,
0001
0000
0100
0000
0020
0000
0000
0000
1030
0000
0000
1000
0000
0000
1000
0000
,
0002
0000
0103
0100
0010
1000
0001
0001
,
0010
0100
1000
1000
0001
0100
0010
0010
,
0100
0001
1000
1000
0100
0010
0001
0001
,
1000
0010
0010
0010
0010
0100
0110
0000
,
0001
0100
0100
0100
0010
1000
0100
1000
,
0001
0010
0010
0010
0100
1000
0010
1000
,
0001
0100
0010
1000
0100
0010
0001
0100
,
0010
0000
0000
0010
0000
0000
0010
0000
1000
0010
1000
0000
0000
0000
0000
0000
,
0002
0023
0230
2300
3001
0101
2010
3100
,
0011
1000
1020
0130
0021
0130
0110
1001
,
1000
0100
0020
0000
0031
0010
1000
0000
1000
0010
0001
0000
0001
0100
1000
0000
,
1000
0100
0001
0010
1000
0000
0010
0100
1000
0001
0100
0010
1000
0100
0010
0001
,
0100
0010
1000
0001
0020
0000
0000
0000
0000
0000
0000
0000
0000
0000
0000
0000
,
0000
0000
0000
0000
,
0032
2003
0000
0000
,
0000
0000
3020
0000
0000
0000
0130
0001
,
0100
0001
2000
0000
0000
0000
0000
0000
,
0000
3200
0000
0320
,
0000
0032
0000
0000
,
0000
0000
1003
0010
0100
0010
0100
0010
,
0100
0001
0201
0000
1000
0000
0001
0000
,
1000
0001
1000
0001
,
1000
0000
0310
0000
1000
0010
0001
0000
,
0001
0010
1000
0000
1000
0010
0001
0010
,
1000
0100
0010
0010
0001
0100
0010
0010
,
1000
0100
0010
0010
0001
0100
0010
0010
,
1000
0100
0010
0001
0010
0001
0010
0001
,
0010
0001
0010
0001
2000
0000
0000
0000
3010
0000
0100
0010
0100
0000
0001
0000
,
1001
0000
1000
0100
0001
1000
0010
0000
,
0001
0100
1000
0001
0010
0000
1000
0100
,
0001
1000
0010
0000
0001
0100
1000
0000
,
1000
0100
0001
0010
1000
0000
0010
0100
,
1000
0001
0100
0100
1000
0001
0010
0000
,
1000
0100
0001
1000
0010
0000
0001
0100
,
1000
0001
0010
0000
1000
0100
0001
0000
,
0001
0000
0100
0000
1000
0000
0010
0000
0200
0000
0000
0000
0301
0000
0000
0001
,
0000
0001
1000
0010
0001
1000
0100
0000
,
0001
0010
1000
0001
0100
0000
1000
0010
,
0001
1000
0100
0000
0001
0010
1000
0000
,
1000
0010
0001
0100
1000
0000
0100
0010
,
1000
0001
0010
0010
1000
0001
0100
0000
,
1000
0010
0001
1000
0100
0000
0001
0010
,
1000
0001
0100
0000
1000
0010
0011
0000
,
0001
0100
1100
0000
1000
0010
0001
1000
,
0100
0001
1000
0000
0001
0000
0020
0030
,
0010
0000
1000
0000
1000
0000
0200
0300
,
0100
0000
0001
0000
0001
0000
0020
0030
,
0010
0000
0200
0300
0100
0000
2000
3000
,
1000
0012
0103
2010
,
3100
0012
0103
2010
,
3100
0000
0001
0010
0100
1000
0010
0100
,
0001
0010
0100
0100
1000
0000
0001
0100
,
1000
0001
0020
0000
1030
0010
0001
1000
,
0001
0010
1000
0001
1000
0100
0001
1000
,
0001
0100
1000
0001
1000
0010
0001
1000
,
0001
0010
1000
0001
0010
0100
0001
1000
,
0010
0100
1000
1000
0001
0100
1000
0001
,
1000
0100
0001
1000
0001
0010
1000
0001
,
1000
0010
0002
0000
1003
0010
0100
1000
,
0001
0000
0010
0000
0100
0000
0100
0000
0001
0000
1000
0001
1000
0000
0100
0000
,
0010
1001
0000
0000
;

//--------------- dance-single - ----------------
#NOTEDATA:;
#STEPSTYPE:dance-single;
#DESCRIPTION:;
#DIFFICULTY:Challenge;
#METER:16;
#RADARVALUES:0,0,0,0,0;
#NOTES:
0000
0000
0000
0000
,
0000
0000
0000
0000
,
0000
0000
0000
0000
,
0000
0000
0000
0000
,
0000
0000
0000
0000
,
0000
0000
0000
0000
,
0000
0000
0000
0000
,
0000
0000
0000
0000
,
0001
0000
0100
0000
0100
0000
0100
0000
0100
0000
0100
0000
0010
0100
0002
0000
,
1000
0000
0000
0000
1000
0000
0010
0000
0000
0000
0010
0000
0003
0000
0001
0010
,
0200
0000
0000
0000
0010
0000
1000
0000
0000
0000
1000
0000
0300
0000
1000
0010
,
0200
0000
0000
0000
0010
0000
0001
0000
0000
0000
0001
0000
0300
0000
0100
0001
,
0020
0000
0100
0001
0030
1000
0010
2000
,
0001
0000
0000
0000
0001
0000
0100
0000
0000
0000
0100
0000
3000
0000
1000
0100
,
0020
0000
0100
0001
0030
1000
0100
1000
,
0001
0100
0001
0100
0010
1000
0010
2000
,
0001
0000
0001
0100
0000
0100
3001
0010
,
2100
3010
0102
0013
,
2100
3010
0102
0013
,
1000
0000
0100
0000
0001
0000
1000
0000
0010
0000
0001
0010
0001
0000
1000
0000
,
0010
0000
0000
0010
0100
0000
0020
0000
1030
0001
0010
0100
1000
0000
0000
0000
,
2001
0000
0000
0000
3010
0000
0010
0100
0001
0000
0001
0010
0100
0000
1000
0000
,
0001
0000
1000
0000
0010
0100
0001
0000
0100
0000
0100
0010
1000
0000
1000
0000
,
0001
0000
0010
0000
0100
0000
0100
0010
0001
0000
0001
0100
0010
0000
1000
0000
,
0001
0000
0010
0000
0010
0000
0100
0000
0010
0000
1000
0010
0100
0000
0100
0000
,
2000
0000
0000
0000
3001
0000
0001
0100
0010
0000
0010
1000
0100
0000
1000
0000
,
0001
0000
0100
0000
0010
0100
0001
0000
1000
0000
1000
0100
0010
0000
0010
0000
,
0001
0000
1000
0000
0100
0000
1000
0000
0001
0000
1000
0100
0010
0000
0100
0000
,
0002
0000
0000
0000
0203
0000
0000
0000
1300
0000
0010
0100
0000
0010
0100
0000
,
0002
0000
0000
0000
0013
0000
0010
0100
1000
0000
1000
0010
0100
0000
0001
0000
,
1000
0000
0001
0000
0010
0100
1000
0000
0100
0000
0100
0010
0001
0000
0001
0000
,
1000
0000
0010
0000
0100
0000
0100
0010
1000
0000
1000
0100
0010
0000
0001
0000
,
1000
0000
0010
0000
0010
0000
0100
0000
0010
0000
0001
0010
0100
0000
0000
0000
,
0001
0100
0100
0100
1000
0100
0100
0100
,
0001
0010
0010
0010
1000
0010
0100
1000
,
0001
0100
0010
0001
1000
0100
0010
1000
,
0001
0000
0000
0010
0000
0000
0010
0000
0100
0010
0001
0000
0000
0000
1000
0000
,
0020
0000
0032
0000
2003
0000
3200
0000
0301
0000
1000
0100
1100
0010
0001
1000
,
1020
0000
0130
0000
0101
0010
1000
0000
1001
0001
0010
0100
1000
0001
1000
0001
,
0100
0000
0000
0000
0010
0100
0010
0100
0001
0000
1000
0000
0100
0000
0010
0000
0011
0000
0001
0000
1000
0000
0010
0000
0110
0000
1000
0000
0001
0000
0010
0000
,
0110
0000
0001
0000
1000
0000
0010
0000
0011
0000
0000
0000
0010
0000
0000
0000
1001
0000
1000
0000
0100
0000
0010
0000
0001
0000
1000
0100
1000
0100
1000
0000
,
0001
0100
0001
0100
0001
0000
1000
0100
0020
0000
0000
0000
0000
0000
0000
0000
0000
0000
0000
0000
0000
0000
0000
0000
0000
0000
0000
0000
0000
0000
0000
0000
,
0000
0000
0000
0000
,
0032
2003
0000
0000
,
0000
0000
3020
0000
0000
0000
0130
0001
,
0100
0001
2000
0000
0000
0000
0000
0000
,
0000
3200
0000
0320
,
0000
0032
0000
0000
,
0000
0000
0000
0000
1003
0000
0010
0100
0010
0100
0001
0000
2000
0000
0010
0000
,
3001
0021
1000
0001
,
1000
0001
1000
0001
,
1000
0000
0130
0000
1000
0100
0001
0000
,
0001
0010
1000
0000
1000
0100
0001
0010
,
0100
0001
1000
1000
0010
0100
0001
0001
,
0010
0100
1000
1000
0010
0100
0001
0001
,
0010
0000
0100
0000
1000
0000
0001
0010
0001
0000
1000
0010
0100
0010
0100
0010
,
0100
0010
2000
0000
3001
0010
0001
0010
0001
0000
1000
0100
0010
0000
0010
0000
,
0001
0000
0101
0100
1000
0010
0011
0000
,
0101
0100
1000
0010
0011
0000
0101
0100
,
1000
0010
0110
0000
0011
0100
1001
0000
,
1010
0010
0001
0100
1100
0000
0011
0010
,
1000
0100
0010
0000
0011
0000
0011
0000
1000
0000
0100
0000
0101
0000
0000
0000
,
0011
0010
1000
0100
0101
0000
0011
0010
,
1000
0000
0100
0000
0110
0000
0000
0000
0101
0000
0010
0000
1000
0000
0001
0100
,
0001
0000
1000
0100
0010
0000
0001
0000
0010
0000
0001
0000
1000
0000
0010
0100
,
0000
0010
0100
0000
1010
0000
0010
0000
0001
0000
0100
0000
1100
0000
0000
0000
,
1010
0010
0001
0100
1100
0000
1010
0010
,
0001
0100
0110
0000
1100
0010
1001
0000
,
0101
0100
1000
0010
0011
0000
1100
0100
,
0001
0010
0100
0000
1100
0000
1100
0000
0001
0000
0010
0000
1010
0000
0000
0000
,
1100
0100
0001
0010
1010
0000
1100
0100
,
0001
0010
0110
0000
1010
0100
1001
0000
,
0011
0000
0100
0000
2001
0000
0000
0000
3010
0000
0100
0001
0100
0001
1000
0000
,
0100
0010
0110
0000
0001
0000
0200
0300
,
0100
0000
1000
0000
1000
0000
0020
0030
,
0010
0000
0001
0000
0001
0000
0200
0300
,
0100
0000
0020
0030
0010
0000
2000
3000
,
1000
0102
0013
2100
,
3010
0102
0013
2100
,
3010
0000
0001
0100
1000
0001
0010
1000
,
0001
0100
0010
1000
0001
0000
0000
0000
1001
0000
0000
0000
1000
0000
0100
0010
,
0001
1000
0020
0000
0031
0010
1010
0000
,
0101
0010
1001
0000
1100
0010
1001
0000
,
1100
0001
0110
0000
0101
1000
0110
0000
,
0011
1000
0110
0000
1010
0010
0001
0100
,
0010
0100
0001
0000
1000
0000
1000
0000
0110
0000
0000
0000
1001
0000
0000
0000
,
1100
0101
1001
0000
0101
1100
1001
0000
,
1100
0010
0002
0000
1003
0010
0001
0010
,
0100
0000
0001
0100
0001
0000
1000
0100
1000
0000
0001
0100
0010
0000
1000
0100
,
0010
1001
0000
0000
;
