#TITLE:Lemon Rave;
#SUBTITLE:;
#ARTIST:Garden Eden;
#TITLETRANSLIT:;
#SUBTITLETRANSLIT:;
#ARTISTTRANSLIT:;
#GENRE:;
#CREDIT:;
#MUSIC:Lemon Rave.ogg;
#BANNER:Lemon Rave-bn.png;
#BACKGROUND:Lemon Rave-bg.png;
#CDTITLE:;
#SAMPLESTART:61.171;
#SAMPLELENGTH:15.000;
#SELECTABLE:YES;
#OFFSET:-2.372;
#BPMS:0.000=159.120;
#STOPS:;
#BGCHANGES:;
#FGCHANGES:;

//--------------- dance-single - ----------------
#NOTES:
     dance-single:
     :
     Beginner:
     4:
     0,0,0,0,0:
0000
0000
0000
0000
,
0000
0000
0000
0000
,
0000
0000
0000
0000
,
0000
0000
0000
0000
,
0000
0000
0000
0000
,
0000
0000
0000
0000
,
0000
0000
0000
0000
,
1000
0000
0000
0000
,
0100
0000
0000
0000
,
1000
0000
0000
0000
,
0010
0000
0000
0000
,
0001
0000
0000
0000
,
0100
0000
0000
0000
,
0001
0000
0000
0000
,
0010
0000
0000
0000
,
1001
0000
0000
0000
,
1001
0000
0000
0000
,
1001
0000
0000
0000
,
1001
0000
0000
0000
,
0110
0000
0000
0000
,
0110
0000
0000
0000
,
0110
0000
0000
0000
,
0110
0000
0000
0000
,
0100
0000
0000
0000
,
0010
0000
0000
0000
,
2000
0000
0000
0000
,
3001
0000
0001
0000
,
0110
0000
0000
0000
,
0110
0000
0000
0000
,
0110
0000
0000
0000
,
0110
0000
0000
0000
,
1001
0000
0000
0000
,
1001
0000
0000
0000
,
1001
0000
0000
0000
,
1001
0000
0000
0000
,
0001
0000
0000
0000
,
1000
0000
0000
0000
,
0002
0000
0000
0000
,
1003
0001
1000
0001
,
0100
0000
0100
0000
,
0010
0000
0010
0000
,
1000
0000
0001
0000
,
0010
0000
0100
0000
,
1000
0000
0100
0000
,
1000
0000
0100
0000
,
0010
0000
0001
0000
,
0010
0000
0001
0000
,
1000
0000
0001
0000
,
0010
0000
0100
0000
,
1000
0000
0010
0000
,
0001
0000
0100
0000
,
1000
0000
0001
0000
,
1000
0000
0001
0000
,
0100
0000
0010
0000
,
0100
0000
0220
0330
,
0100
0000
0000
0000
,
0100
0000
0000
0000
,
0010
0000
0000
0000
,
0010
0000
0000
0000
,
1000
0000
0000
0000
,
1000
0000
0000
0000
,
0001
0000
2000
0000
,
0002
0000
3003
0000
,
0010
0000
0010
0000
,
0100
0000
0100
0000
,
0001
0000
1000
0000
,
0100
0000
0010
0000
,
0001
0000
0010
0000
,
0001
0000
0010
0000
,
0100
0000
1000
0000
,
0100
0000
1000
0000
,
0001
0000
0100
0000
,
0010
0000
1000
0000
,
0100
0000
0010
0000
,
0001
0000
0010
0000
,
0001
0000
1000
0000
,
2002
0000
3003
0000
,
1000
0000
0001
0000
,
2002
0000
3003
0000
,
0100
0000
0010
0000
,
0110
0000
0001
1000
,
2002
0000
3003
0000
;

//--------------- dance-single - ----------------
#NOTES:
     dance-single:
     :
     Easy:
     6:
     0,0,0,0,0:
0000
0000
0000
0000
,
0000
0000
0000
0000
,
0000
0000
0000
0000
,
0000
0000
0000
0000
,
0000
0000
0000
0000
,
0000
0000
0000
0000
,
0000
0000
0000
0000
,
1000
0000
0001
0000
,
1000
0000
0001
0000
,
0010
0000
0100
0000
,
0010
0000
0100
0000
,
1000
0000
0100
0000
,
0010
0000
0001
0000
,
1000
0000
0010
0000
,
0100
0001
0100
0001
,
0010
0000
0100
0000
,
0010
0000
0100
0000
,
1000
0000
0001
0000
,
1000
0000
0001
0000
,
0100
0000
0010
0000
,
0100
0000
0010
0000
,
1000
0000
0001
0000
,
1000
0000
0001
0000
,
1000
0000
0100
0000
,
0010
0000
0001
0000
,
1000
0000
0010
0000
,
1000
0001
1000
0001
,
0100
0000
0010
0000
,
1000
0000
0001
0000
,
1000
0100
1000
0000
,
0010
0001
0010
0000
,
0100
0000
0010
0000
,
0001
1000
0010
0000
,
0100
0000
0010
0000
,
0100
0001
1000
0000
,
0100
0000
1000
0000
,
0100
0000
1000
0000
,
0010
0000
0100
0000
,
0001
0100
0010
1000
,
0100
0010
0001
0000
,
0100
0010
1000
0000
,
0001
0010
0100
1000
,
0100
0010
0001
0000
,
1000
0000
0010
0000
,
0100
0000
0010
0000
,
1000
0001
1000
0000
,
0010
0001
0010
0001
,
0100
1000
0010
0000
,
0010
1000
0100
0000
,
0001
0100
1000
0010
,
0001
0100
2000
0000
,
3010
1000
0100
0010
,
0002
0000
0103
0010
,
1000
0001
1000
0000
,
0001
0000
2002
3003
,
1000
0000
0001
0000
,
0100
0000
0010
0000
,
1000
0000
0001
0000
,
0010
0000
0100
0000
,
1000
0100
1000
0000
,
0010
0100
0010
0000
,
0001
0010
0001
0000
,
0100
0010
1000
0001
,
0010
0100
1000
0000
,
0010
0100
0001
0000
,
1000
0100
0010
0001
,
0010
0100
1000
0000
,
0001
0000
0100
0000
,
0010
0000
0100
0000
,
0001
1000
0001
0000
,
0100
1000
0100
1000
,
0001
0100
0010
0000
,
1000
0100
0010
0000
,
0001
1000
0010
0100
,
0001
1000
0100
0000
,
1000
0100
0010
0001
,
1000
0001
1000
0000
,
0001
0010
0100
1000
,
0001
1000
0001
0000
,
0100
0010
1000
0001
,
0010
0000
0100
0010
,
0210
0000
0000
0310
0000
0000
0000
0000
;

//--------------- dance-single - ----------------
#NOTES:
     dance-single:
     :
     Medium:
     10:
     0,0,0,0,0:
0000
0000
0000
0000
,
0000
0000
0000
0000
,
0000
0000
0000
0000
,
0000
0000
0000
0000
,
0000
0000
0000
0000
,
0000
0000
0000
0000
,
0000
0000
0000
0000
,
1000
0100
1000
0010
,
0100
0010
0100
0002
0000
0203
0000
0310
,
0100
0001
0000
1000
0000
0100
0000
0010
,
0001
0010
0001
0020
0000
0130
0000
1000
,
0001
0100
0000
0010
0000
1000
0001
0000
,
0010
0000
0100
0000
1000
0000
0001
0010
,
0100
0010
0100
1000
,
2010
3200
0320
0032
,
1003
0001
0000
0100
0000
0010
0000
1000
,
0001
0000
0010
0200
0000
2300
0000
0000
,
3100
0010
0100
0010
0100
0000
0010
0001
,
0100
0000
0020
2000
0000
0000
3030
1000
,
0010
0100
0010
0100
0000
0001
0100
0000
,
0010
0100
0010
0200
0000
0000
0301
0000
,
0010
0001
0100
0001
0000
1000
0000
0100
,
0010
0100
0010
0002
0000
0023
0000
0230
,
0000
1300
0100
0010
0001
0200
0000
0000
,
0010
0000
1000
0000
0310
1000
0010
0200
,
0000
0302
0000
0013
0100
0000
0010
0000
,
0002
0023
0230
2300
,
3001
0100
0001
0200
0000
0000
0310
0000
,
1000
0002
0000
0023
0000
0000
0130
0000
,
1000
0001
1000
0001
0000
0010
0100
0000
,
1000
0100
0010
0002
0000
0000
0103
0000
,
0010
0000
1000
0200
0000
0310
0200
0000
,
1300
0001
0100
0010
,
1000
0000
1000
0200
0000
0320
0000
0031
,
1000
0010
1000
0002
0000
0023
0000
0230
,
0000
1300
0100
0010
0001
2000
0000
0000
,
0010
0000
0001
0000
3100
1000
0100
0020
,
0000
0032
0000
2003
0000
3020
0000
0130
,
0101
0011
1010
1100
,
1001
0000
0100
0020
0000
0000
0031
0000
,
1001
0000
0010
0200
0000
0000
1300
0000
,
1001
0000
0100
0000
0001
0000
0010
0100
,
1000
0010
0000
0200
0000
0000
0301
0020
,
0000
0000
0130
1000
0000
0100
0000
0010
,
0001
0000
1000
0000
0010
1000
0001
0100
,
0001
2000
0000
0200
3000
0000
0310
0001
,
0011
1100
1010
0101
,
1000
0100
0001
0020
0000
0000
0130
0000
,
0010
0002
0000
0203
0000
0000
0310
0000
,
1000
0100
0001
0010
,
1000
0000
0100
0000
0002
0000
0103
0020
,
0000
0000
1030
0020
0000
2030
0000
3100
,
0010
0001
0010
0100
,
1000
0002
0000
0203
0000
0320
0000
1030
,
0001
1000
1001
0001
,
0101
0100
0010
1000
,
0001
0100
0010
0200
0000
0302
0000
0000
,
0013
0001
0000
0020
0000
0000
0130
0000
,
1000
0100
0010
0200
0000
2300
0000
3001
,
0100
0020
0000
2030
0000
0000
3001
0000
,
0010
0000
0100
0000
1000
0100
0010
0001
,
2000
3020
0230
0301
,
0101
1100
1010
0011
,
1001
0000
0010
0200
0000
0000
1300
0000
,
1001
0000
0100
0020
0000
0000
0031
0000
,
1001
0000
0010
0000
1000
0000
0100
0010
,
0001
0100
0000
0020
0000
0000
1030
0200
,
0000
0000
0310
0001
0000
0010
0000
0100
,
1000
0000
0001
0000
0100
0001
1000
0010
,
1000
0002
0000
0020
0003
0000
0130
1000
,
1100
0011
0101
1010
,
1001
0000
1000
0020
0000
1000
0000
0130
,
0010
0000
0100
0002
0000
0010
0000
1003
,
0001
0000
0100
0000
0010
0000
1000
0010
,
0100
0002
0000
0023
0000
0130
1000
0200
,
0000
0000
1300
0020
0000
0230
0000
0301
,
0010
0000
0100
0000
0100
0010
0001
0020
,
0000
0000
0031
0200
0000
0320
0000
1030
,
0100
0000
0010
0000
0010
0001
0010
0200
,
0000
1300
0001
0100
0000
0101
0000
1000
,
0002
0000
2003
0000
3010
1000
0100
0010
,
0001
2000
0000
0002
0000
3003
0000
0000
;

//--------------- dance-single - ----------------
#NOTES:
     dance-single:
     :
     Hard:
     13:
     0,0,0,0,0:
0000
0000
0000
0000
,
0000
0000
0000
0000
,
0000
0000
0000
0000
,
0000
0000
0000
0000
,
0000
0000
0000
0000
,
0000
0000
0000
0000
,
0010
0001
0100
0010
,
1000
0010
0100
0010
1000
0010
0100
0000
,
0010
1000
0100
0020
0000
0032
0000
1003
,
0001
0100
0010
0100
0001
0100
0010
0000
,
0100
0001
0010
0200
0000
2300
0000
3001
,
0100
0010
1000
0100
0001
0100
1000
0010
,
0200
0000
0302
0000
1003
0100
0010
0001
,
1000
0010
0100
0001
0100
0010
1000
0001
,
0011
0000
0000
0000
1100
0000
0000
0000
1010
0000
0001
1000
0000
0000
0100
0010
,
0100
2000
0000
3020
0000
0130
0000
0010
,
1000
0200
0000
0302
0000
0103
1000
0010
,
0100
0000
0000
0010
1000
0000
0000
0001
1000
0000
0000
1000
0010
0000
1000
0000
,
0200
0000
1300
0020
0000
1030
0100
0010
,
0001
1000
0010
0200
0000
0301
0010
0000
,
0100
1000
0100
0020
0000
0031
0100
0010
,
1000
0001
1000
0200
0000
0320
0000
0031
,
1000
0010
0100
0002
0000
2003
0000
3200
,
0000
0310
0100
1000
0001
0100
0010
0000
,
1000
0010
0001
1000
0100
0001
1000
0000
,
0001
0100
0010
1000
0001
0010
0100
1000
,
1001
0011
1001
1010
,
1001
0001
0010
0200
0000
0000
1300
0000
,
0010
2000
0000
3002
0000
0000
0013
0000
,
0100
1000
0001
0200
0000
1300
0100
0000
,
0001
0010
0100
2000
0000
3100
0010
0001
,
0011
0000
0001
0200
0000
0310
1000
0001
,
0020
0000
0000
0230
0000
0000
1300
0000
0001
0000
0100
0000
0010
0000
0000
0000
,
1000
0001
0100
0010
1000
0001
0010
0000
,
0001
1000
0100
0010
0100
1000
0001
2000
,
0000
3001
0100
1000
0100
0001
0010
0000
,
0001
0010
1000
0001
0100
1000
0001
0000
,
1000
0001
0100
0010
1000
0010
0100
0001
,
0101
0011
1010
1100
,
1001
0100
0010
0001
1000
0010
0100
0000
,
1001
0010
0100
1000
0001
0100
0010
0000
,
1010
0000
0000
1000
0100
0000
0000
0100
0001
0000
0000
0001
0100
0000
0000
0100
,
1000
1020
0000
0230
0000
0301
0010
0200
,
0000
0310
0001
2000
0000
3020
0000
0130
,
0001
0000
0000
1000
0000
0000
0100
0000
1000
0000
0100
0000
0010
0000
0001
0000
,
1000
0020
0000
0130
0001
0010
0100
1000
,
1100
1010
0101
0011
,
1000
0010
0001
0200
0000
1300
0100
0001
,
0010
2000
0000
3200
0000
0310
0001
1000
,
0001
0100
1000
0010
0001
0100
1000
0010
,
0001
0100
1000
0020
0000
1030
0001
0200
,
0000
0301
0010
0100
0000
1100
0000
1010
,
1000
0000
0000
0100
0000
0000
0010
0000
0001
0000
0100
0000
1000
0000
0100
0000
,
0001
0010
0000
0110
0000
0100
1000
0010
,
1010
0000
0000
0000
0101
0000
0001
0000
0010
0000
0100
0010
0000
0000
0001
0000
,
0101
0100
0010
0100
1000
0100
0010
0100
,
0001
0010
0100
2000
0000
3002
0000
1003
,
1010
0010
0100
0010
0001
0010
0100
0010
,
1000
0100
0010
0002
0000
2003
0000
3001
,
1000
0010
0001
1000
0100
0001
1000
0010
,
0001
0000
0011
0000
0010
1000
0010
0001
,
0010
0100
1000
0001
0100
0001
1000
0010
,
1010
1100
0101
0011
,
1001
0010
0100
1000
0001
0100
0010
0000
,
1001
0100
0010
0001
1000
0010
0100
0000
,
0101
0000
0000
0001
0010
0000
0000
0010
1000
0000
0000
1000
0010
0000
0000
0010
,
0001
0201
0000
0320
0000
1030
0100
0020
,
0000
0130
1000
0002
0000
0203
0000
0310
,
1000
0000
0000
0001
0000
0000
0010
0000
0001
0000
0010
0000
0100
0000
1000
0000
,
0001
0200
0000
0310
1000
0100
0010
0001
,
0011
0101
1010
1100
,
1001
0100
0010
0001
0010
0100
1000
0001
,
1001
1000
0100
0010
0001
1000
0010
0100
,
0110
0010
1000
0010
0100
0001
1000
0100
,
0110
0010
0001
0100
0010
1000
0010
0100
,
0101
0001
0010
0100
1000
0010
0100
0001
,
1000
0100
0001
0100
1000
0001
1000
0000
,
1010
1000
0100
0010
0001
0100
0010
1000
,
0001
0010
1000
0010
0001
1000
0001
0000
,
0110
0100
0010
1000
0001
0010
0100
1000
,
1001
0000
0000
0000
0011
0000
0010
0000
0100
0000
1000
0020
0000
0000
1030
0000
,
0001
0020
0000
0200
0000
0000
0330
0000
;

//--------------- dance-single - ----------------
#NOTES:
     dance-single:
     :
     Challenge:
     15:
     0,0,0,0,0:
0000
0000
0000
0000
,
0000
0000
0000
0000
,
0000
0000
0000
0000
,
0000
0000
0000
0000
,
0000
0000
0000
0000
,
0000
0000
0000
0000
,
1001
0000
0000
0001
1000
0000
0000
1000
0010
0000
0000
0010
0100
0000
0000
0100
,
0001
0100
1000
0100
0001
0100
1000
0100
,
0001
0010
0100
1000
0100
0010
0100
1000
,
0010
0001
0010
1000
0010
0001
0010
1000
,
0001
0100
0010
1000
0010
0100
0001
1000
,
0100
0001
0100
1000
0100
0001
0100
1000
,
0100
0010
0001
1000
0010
0100
0001
0100
,
0010
1000
0001
1000
0100
0010
0001
0100
,
1100
0000
0000
1000
0100
0000
0000
0100
0001
0000
0000
0001
1000
0000
0100
0010
,
0001
0010
0100
0010
0001
0010
0100
1000
,
0001
0100
0001
0010
0001
1000
0010
0100
,
0001
0100
0010
0100
0001
1000
0100
0010
,
0001
0100
0001
1000
0100
0010
0011
0000
,
1000
0100
0010
0100
1000
0100
0010
0001
,
1000
0010
1000
0100
1000
0001
0100
0010
,
1000
0010
0100
0010
1000
0001
0010
0100
,
1000
0010
1000
0001
0010
0100
1000
0001
,
0100
0010
1000
0001
1000
0010
0001
0010
,
1000
0010
0100
0010
1000
0100
0001
0100
,
1000
0010
0100
0001
1000
0100
0010
0001
,
1001
0000
0000
1000
0100
0000
0000
0100
0010
0000
0000
0010
0001
0000
1000
0010
,
0100
0010
0100
0001
0010
0100
1000
0001
,
0100
1000
0100
0001
0100
0010
1000
0000
,
0101
0100
0010
1000
0100
0010
0001
1000
,
0010
0001
0010
1000
0100
0010
0001
0000
,
1100
1000
0010
0100
0001
0100
0010
1000
,
0001
0000
0010
0100
0000
1000
0001
0000
0100
0000
0010
0000
1010
0000
0000
0000
,
1001
1000
0010
0100
0001
0010
0100
1000
,
0100
0001
0100
1000
0010
0100
0001
1000
,
1001
0001
0100
0010
1000
0010
0100
0001
,
1000
0100
0001
0100
1000
0100
0001
0100
,
1000
0100
0010
0001
1000
0010
0100
0001
,
0100
0001
0100
0000
0010
0100
0010
0000
1000
0100
0010
0001
1000
0010
0100
0001
,
1000
0100
0000
0100
0010
0000
0001
0010
0100
0000
1000
0000
0001
0000
0100
0000
,
0010
1000
0000
0010
0100
0000
0001
0100
0010
0000
1000
0000
0001
0000
0010
0000
,
0100
0000
1000
0100
1000
0000
0100
0010
0100
0000
0010
0001
0010
0000
0001
1000
,
0001
0100
0000
0010
1000
0000
0001
1000
0100
0000
0010
0000
0100
0000
1000
0000
,
0100
0010
0000
0001
0010
0000
0100
1000
0001
0000
0100
0000
0010
0000
1000
0000
,
0100
0010
0000
0100
1000
0000
0001
0100
0010
0000
1000
0000
0001
0000
0010
0000
,
0100
1000
0000
0001
1000
0000
0010
1000
0001
0000
0100
0000
0010
0000
1000
0000
,
0100
1000
0001
0000
0010
0001
1000
0000
1002
0000
0000
0013
0100
0000
1000
0100
,
0010
0001
0000
0100
1000
0000
0010
0001
0100
0000
0010
0000
1000
0000
0001
0000
,
0010
0001
0000
0010
0100
0000
1000
0001
0100
0000
0010
0000
1000
0000
0001
0000
,
1000
0100
0001
0010
1000
0100
0001
0010
,
1000
0000
0100
0000
0001
0000
0020
0000
0000
0000
0031
0000
0100
0000
0010
1000
,
0100
1000
0000
0001
0100
0000
0010
1000
0001
0000
0010
0000
0100
0000
1000
0000
,
0100
0010
0000
0001
0100
0000
0001
1000
0100
0000
0010
0000
0001
0000
1000
0000
,
0010
1000
0000
1000
0001
0000
0010
0100
1000
0000
0100
0000
0010
0000
0001
0000
,
1000
0010
1000
0000
0001
0010
0001
0000
0010
0000
0001
2000
0000
0000
3001
0000
,
1001
0010
0100
1000
0001
0100
0010
1000
,
0100
0001
0100
1000
0100
0001
0100
1000
,
1001
0001
0010
0100
0010
0001
0100
0010
,
1000
0000
0010
0000
0001
0000
0010
0000
1000
0000
0001
0000
0100
0000
0010
0100
,
0010
0100
0001
1000
0100
0010
0001
1000
,
0001
0010
1000
0010
0001
0100
1000
0100
,
0101
0001
0010
0100
1100
1000
0001
0100
,
0010
1000
0010
0000
0100
0010
0100
0000
0001
0010
0100
1000
0001
0100
0010
1000
,
0001
0010
0000
0010
0100
0000
1000
0100
0010
0000
0001
0000
1000
0000
0010
0000
,
0100
0001
0000
0100
0010
0000
1000
0010
0100
0000
0001
0000
1000
0000
0100
0000
,
0010
0000
0001
0010
0001
0000
0010
0100
0010
0000
0100
1000
0100
0000
1000
0001
,
1000
0010
0000
0100
0001
0000
1000
0001
0010
0000
0100
0000
0010
0000
0001
0000
,
0010
0100
0000
1000
0100
0000
0010
0001
1000
0000
0010
0000
0100
0000
0001
0000
,
0010
0100
0000
0010
0001
0000
1000
0010
0100
0000
0001
0000
1000
0000
0100
0000
,
0010
0001
0000
1000
0001
0000
0010
0001
1000
0000
0010
0000
0100
0000
0001
0000
,
1002
0000
0000
0000
0013
0000
1000
0000
0010
0000
0001
0200
0000
0000
0310
1000
,
0010
0100
0000
0100
0001
0000
0001
0100
0010
0000
0100
0000
0001
0000
1000
0000
,
0100
0010
0000
0100
1000
0000
1000
0001
0100
0000
0010
0000
1000
0000
0100
0000
,
0010
0000
0001
0100
0010
0000
0100
0010
1000
0000
0010
1000
0001
0000
1000
0001
,
0010
0001
0000
0001
1000
0000
0010
1000
0100
0000
0001
0000
0100
0000
1000
0000
,
0100
0010
0000
0100
1000
0000
0100
0010
0100
0000
1000
0000
0100
0000
0010
0000
,
0001
1000
0000
0010
0100
0000
0001
1000
0100
0000
0010
0000
0001
0000
0100
0000
,
0010
0100
0000
0001
0100
0000
0010
0100
0010
0000
1000
0000
0010
0000
0100
0000
,
0001
0100
0000
0010
0100
0000
0001
1000
0010
0000
0100
0000
0010
0000
1000
0000
,
0100
0010
0000
0001
1000
0000
0100
1000
0100
0000
1000
0000
0001
0000
0100
0000
,
0010
1000
0010
0000
0100
0001
0100
0000
0010
0000
1000
0002
0000
0000
1003
0000
,
1001
0020
0000
0200
0000
0000
0330
0000
;
