#TITLE:Kertakayttosydan;
#SUBTITLE:;
#ARTIST:Jasmin Michaela;
#TITLETRANSLIT:;
#SUBTITLETRANSLIT:;
#ARTISTTRANSLIT:;
#GENRE:;
#CREDIT:;
#BANNER:Kertakayttosydan-bn.png;
#BACKGROUND:Kertakayttosydan-bg.png;
#LYRICSPATH:;
#CDTITLE:;
#MUSIC:Kertakayttosydan.ogg;
#OFFSET:2.155000;
#SAMPLESTART:52.390453;
#SAMPLELENGTH:15.000004;
#LASTBEATHINT:4.235000;
#SELECTABLE:YES;
#BPMS:0.000000=110.000000
,0.000000=220.000000
;
#STOPS:
;
#BGCHANGES:;
#KEYSOUNDS:;
#ATTACKS:;

//---------------dance-single - ----------------
#NOTES:
     dance-single:
     :
     Challenge:
     14:
     0.581214,0.731848,0.288887,0.264814,0.008025,507.000000,471.000000,36.000000,33.000000,20.000000,0.000000,0.581214,0.731848,0.288887,0.264814,0.008025,507.000000,471.000000,36.000000,33.000000,20.000000,0.000000:
// measure 0
0000
0000
0000
0000
,  // measure 1
0000
0000
0000
0000
,  // measure 2
0000
0000
0000
0000
,  // measure 3
0000
0000
0000
0000
,  // measure 4
0000
0000
0000
0000
,  // measure 5
0000
0000
0000
0000
,  // measure 6
0100
0000
0010
0001
0100
0000
0010
1000
,  // measure 7
0100
0000
0010
0001
0100
0000
0001
0100
,  // measure 8
0010
0000
1000
0100
0010
0000
0001
0100
,  // measure 9
0010
0100
0001
1000
0010
1000
0100
0010
,  // measure 10
0110
0000
0000
1001
0000
0000
0110
0000
,  // measure 11
0000
0000
0100
0001
1000
0001
0010
0100
,  // measure 12
0110
0000
0000
1001
0000
0000
0100
1000
,  // measure 13
0010
0000
0100
0001
0010
0000
0100
1000
,  // measure 14
1001
0000
0000
0110
0000
0000
1001
0000
,  // measure 15
0000
0000
0001
0100
1000
0100
0001
0010
,  // measure 16
0110
0000
0000
1001
0000
0000
0110
0000
,  // measure 17
0001
1000
0001
0000
1000
0000
0100
0000
,  // measure 18
0110
0000
0000
1001
0000
0000
0110
0000
,  // measure 19
0000
0000
0100
0001
1000
0001
0010
0100
,  // measure 20
0110
0000
0000
1001
0000
0000
0100
0001
,  // measure 21
0010
0000
0100
1000
0010
0000
0100
0001
,  // measure 22
1001
0000
0000
0110
0000
0000
1001
0000
,  // measure 23
0000
0000
1000
0100
0001
0100
1000
0010
,  // measure 24
0110
0000
0000
1001
0000
0000
1000
0001
,  // measure 25
0010
0001
0100
0010
1000
0000
0000
0000
,  // measure 26
0010
1000
0000
1000
0000
1000
0100
0010
,  // measure 27
0001
0000
0100
0001
0000
0001
0000
0000
,  // measure 28
1000
0000
0010
0100
0000
0100
0010
0000
,  // measure 29
2000
0000
3000
0000
,  // measure 30
0100
0000
1000
0100
0001
0100
1000
0010
,  // measure 31
0100
0000
0100
0001
0000
0010
0000
0000
,  // measure 32
0001
0100
0000
0100
0000
0000
0010
0000
,  // measure 33
2000
0000
3001
0000
,  // measure 34
0020
0000
0032
0000
,  // measure 35
1003
0000
0000
0000
0100
0000
1000
0020
,  // measure 36
0000
0030
0100
0002
0000
0003
0010
0000
,  // measure 37
0100
0000
0100
1000
,  // measure 38
0002
0013
2000
3010
,  // measure 39
0002
0000
0103
0000
2000
3100
0000
2000
,  // measure 40
0000
0000
0000
0000
,  // measure 41
0000
3001
0100
0010
,  // measure 42
2000
0000
0000
0000
0000
0000
0000
0000
0000
0000
0000
0000
0000
0000
0000
0000
3200
0000
0000
0000
0000
0000
0000
0000
0000
0302
0000
0000
0000
0000
0000
0000
,  // measure 43
0000
0000
0103
1000
,  // measure 44
0001
0000
0100
0000
0010
1000
0000
0200
,  // measure 45
0000
0020
0000
0330
,  // measure 46
0000
0000
0001
1000
0001
0000
0100
0000
,  // measure 47
0010
0000
0000
0010
0000
0100
0001
0000
,  // measure 48
0010
0000
0100
1000
0010
0000
0100
0000
,  // measure 49
0010
0000
0000
0000
0000
0000
1000
0001
1000
0000
0100
0000
0010
0000
0000
0000
,  // measure 50
0001
0000
0100
0010
0100
0000
0001
0000
,  // measure 51
1000
0000
0100
0010
0100
0000
1000
0000
,  // measure 52
0001
0000
0100
0010
0000
0010
0100
0000
,  // measure 53
0001
0000
1000
0100
1000
0000
0010
0000
,  // measure 54
2000
3100
0002
0103
,  // measure 55
2000
3010
0002
0013
,  // measure 56
0001
1000
0110
0010
,  // measure 57
1001
1000
1000
0100
,  // measure 58
1000
0000
0100
0010
0100
0000
1000
0000
,  // measure 59
0001
0000
0100
0010
0100
0000
0001
0000
,  // measure 60
1000
0000
0100
0000
0010
0000
0001
0100
,  // measure 61
0010
0000
0100
0002
0000
0000
0013
0000
,  // measure 62
0100
0000
1000
0001
1000
0000
0010
0000
,  // measure 63
0100
0000
0001
1000
0000
1000
0001
0000
,  // measure 64
0010
0000
0001
1000
0000
1000
0001
0000
,  // measure 65
0100
0000
0001
0000
0010
0000
0100
1000
,  // measure 66
0010
0000
0010
0100
0000
0100
0010
0000
,  // measure 67
1000
0000
0100
0010
0100
0000
1000
0000
,  // measure 68
1001
0000
0000
1001
0000
0000
1001
0000
,  // measure 69
0001
0000
0010
0100
0000
0100
0010
0000
,  // measure 70
0001
0000
0100
0010
0000
0000
0110
0000
,  // measure 71
MMMM
0000
1000
0001
0100
0000
0010
0000
,  // measure 72
1000
0000
0100
0010
0000
0000
0110
0000
,  // measure 73
MMMM
0000
0001
1000
0100
0000
0010
0000
,  // measure 74
0001
0000
0100
0010
0000
0000
0110
0000
,  // measure 75
MMMM
0000
1000
0001
0100
0000
0010
0000
,  // measure 76
1000
0000
0100
0010
0000
0000
0110
0000
,  // measure 77
MMMM
0000
0001
1000
0100
0000
0010
0000
,  // measure 78
0001
0000
0100
0010
0000
0000
0110
0000
,  // measure 79
MMMM
0000
1000
0001
0100
0000
0010
0000
,  // measure 80
1000
0000
1000
0000
,  // measure 81
1000
0000
0000
1000
0000
0000
0010
0000
,  // measure 82
1000
0000
0100
0010
0100
0000
1000
0000
,  // measure 83
0001
0000
0100
0010
0100
0000
0001
0000
,  // measure 84
1000
0000
0100
0010
0000
0010
0100
0000
,  // measure 85
1000
0000
0001
0100
0001
0000
0010
0000
,  // measure 86
0002
0103
2000
3100
,  // measure 87
0002
0013
2000
3010
,  // measure 88
1000
0001
0110
0010
,  // measure 89
1001
0001
0001
0100
,  // measure 90
0001
0000
0100
0010
0100
0000
0001
0000
,  // measure 91
1000
0000
0100
0010
0100
0000
1000
0000
,  // measure 92
0001
0000
0100
0000
0010
0000
1000
0100
,  // measure 93
0010
0000
0100
2000
0000
0000
3010
0000
,  // measure 94
0100
0000
0001
1000
0001
0000
0010
0000
,  // measure 95
0100
0000
1000
0001
0000
0001
1000
0000
,  // measure 96
0010
0000
1000
0001
1000
0000
0100
0000
,  // measure 97
1000
0010
0100
0001
1000
0100
0010
0010
,  // measure 98
0001
0000
0100
0010
0100
0000
0001
0000
,  // measure 99
1000
0000
0100
0010
0100
0000
1000
0000
,  // measure 100
0001
0000
0100
0010
0000
0010
0100
0000
,  // measure 101
0001
0000
1000
0100
1000
0000
0010
0000
,  // measure 102
2000
3100
0002
0103
,  // measure 103
2000
3010
0002
0013
,  // measure 104
0001
1000
0110
0010
,  // measure 105
1001
1000
1000
0100
,  // measure 106
1000
0000
0100
0010
0100
0000
1000
0000
,  // measure 107
0001
0000
0100
0010
0100
0000
0001
0000
,  // measure 108
1000
0000
0100
0000
0010
0000
0001
0100
,  // measure 109
0010
0000
0100
0002
0000
0000
0013
0000
,  // measure 110
0100
0000
1000
0001
1000
0000
0010
0000
,  // measure 111
0100
0000
0001
1000
0000
1000
0001
0000
,  // measure 112
0100
0000
0000
0100
0000
0000
0100
0000
,  // measure 113
0220
0000
0000
0000
,  // measure 114
0330
0000
0000
0000
;
