#VERSION:0.83;
#TITLE:Hop! Step! Cooking!;
#SUBTITLE:;
#ARTIST:Ray_Oh;
#TITLETRANSLIT:;
#SUBTITLETRANSLIT:;
#ARTISTTRANSLIT:;
#GENRE:;
#CREDIT:;
#MUSIC:Hop! Step! Cooking!.ogg;
#BANNER:Hop! Step! Cooking!-bn.png;
#BACKGROUND:Hop! Step! Cooking!-bg.png;
#CDTITLE:;
#SAMPLESTART:7.399;
#SAMPLELENGTH:15.000;
#SELECTABLE:YES;
#OFFSET:1.601;
#BPMS:0.000=130.000;
#STOPS:;
#SPEEDS:116.000=1.333=32.000=0;
#SCROLLS:0.000=1.000,
80.000=0.750
;
#BGCHANGES:;
#FGCHANGES:;

//--------------- dance-single - ----------------
#NOTEDATA:;
#STEPSTYPE:dance-single;
#DESCRIPTION:;
#DIFFICULTY:Hard;
#METER:14;
#RADARVALUES:0,0,0,0,0;
#CREDIT:Talkion;
#NOTES:
0000
0000
0000
0000
,
0000
0000
0000
0000
,
0000
0000
0000
0000
,
2000
3010
0002
0013
,
1100
0000
0101
0000
1100
1100
0011
0000
,
1000
0000
0000
0100
0000
0000
0010
0000
0000
0100
0000
0000
2000
0000
0000
3000
0000
0000
0001
0000
0100
0010
0000
0100
,
0010
1000
0001
0010
1000
0010
0100
1000
,
0002
0000
0000
0000
0000
0000
0100
0000
0000
0000
0000
0000
0010
0000
0000
0000
0000
0000
0103
0000
0000
0001
0000
0100
,
0010
0000
0000
1000
0000
0000
0001
0000
0000
0010
0000
0000
0100
0000
0100
0000
0000
1100
0000
0000
0000
1000
0000
0000
,
0001
0000
0000
0100
0000
0000
0010
0000
0000
0100
0000
0000
0002
0000
0000
0003
0000
0000
1000
0000
0100
0010
0000
0100
,
0010
0000
0000
0001
0000
0000
1000
0000
1000
0000
0000
0110
0000
0000
0000
0001
0000
0110
0000
0000
0000
1000
0000
0110
,
0000
0000
0000
0002
0000
0103
0000
0000
0000
2000
0000
3100
0000
0000
0000
0002
0000
0103
0000
0000
0100
0000
0000
0000
,
0010
0000
0100
0001
0000
0100
0002
0000
0000
1003
0000
0000
0001
0000
0010
0000
0010
0000
0200
0000
0000
0300
0000
0000
,
1000
0000
0000
0001
0000
0000
0100
0000
1000
0000
0000
1100
0000
0000
0000
0100
0000
0000
0010
0000
0000
1000
0000
0000
,
0001
0000
0000
0010
0000
0000
0001
0000
0010
0000
0000
0011
0000
0000
0000
1000
0000
0000
0010
0000
0100
0001
0000
0100
,
0001
0000
0000
1000
0000
0000
0100
0000
0000
0001
0000
0000
1000
0000
0000
0010
0000
0000
0001
0000
0000
1000
0000
0100
,
0010
0000
0000
0001
0000
0000
1000
0000
0010
0100
0000
0000
0001
0000
0001
0000
0000
0001
0000
0000
0000
0100
0000
0000
,
0001
0000
0000
1000
0000
0000
0100
0000
0001
0000
0000
0101
0000
0000
0000
0100
0000
0000
0010
0000
0000
0001
0000
0000
,
1000
0000
0000
0010
0000
0000
0100
0000
0100
0000
0000
0110
0000
0000
1000
0000
0000
0110
0000
0000
0001
0000
0000
0110
,
0000
2000
0100
3002
0100
2003
0100
3002
,
0100
1003
0010
0100
0002
0000
0000
0003
,
1000
0100
0010
0000
0001
0100
0010
0000
,
1000
0010
0010
0100
0000
0001
0100
0001
,
1000
0100
0010
0000
0001
0100
0010
0000
,
0001
0010
1000
0200
0000
0010
0310
0000
,
0001
0010
0100
0000
1000
0010
0100
0000
,
0001
0010
0010
0100
0000
2000
3100
1000
,
0001
0100
0010
0000
1000
0100
0010
0000
,
0001
0001
1000
0020
0000
1000
0100
1030
,
0001
0010
0100
1000
0001
0100
0010
1000
,
0001
0000
0000
0010
0000
0000
0100
1000
0100
1000
0000
0000
0000
0000
0000
0001
0000
0000
0010
0000
0000
0001
0000
0000
,
1000
0010
0100
0001
1000
0100
0010
0001
,
1000
0010
1000
0010
0000
0000
0100
0000
0000
0100
0000
0000
0000
0000
0000
0001
0000
0000
1000
0001
1000
0001
0000
0000
,
0010
0100
1000
0001
0100
0010
1000
0001
,
0010
0000
0000
0100
0000
0000
1000
0001
1000
0001
0000
0000
0000
0000
0000
0100
0000
0000
0010
0100
0010
0100
0000
0000
,
1001
0001
0010
0100
1001
1000
0010
0100
,
1001
0000
0000
0001
0000
0000
0010
0000
0010
0000
0000
0020
0000
0000
0000
0230
0000
0000
2300
0000
0000
3001
0000
0001
,
0010
0000
0000
0100
0000
0000
1000
0000
0100
0010
0000
0000
1000
0000
0100
0010
0000
0010
0000
0000
0000
0001
0000
0000
,
0011
1000
0011
1000
0011
0011
1100
0000
,
0001
0000
0000
0100
0000
0000
1000
0000
0000
0100
0000
0000
0001
0000
0000
0100
0000
0100
1000
0000
0002
0000
0000
0013
,
0000
0000
0000
1000
0000
0000
0010
0000
0010
0100
0000
0000
0001
0000
0000
1000
0000
0000
0011
0000
0000
1100
0000
0000
,
0001
0000
0000
0010
0000
0000
0100
0000
0000
0010
0000
0000
0001
0000
0000
1000
0000
0000
0010
0000
0100
0001
0000
0100
,
0001
0000
0000
1000
0000
0000
0100
0000
0100
0010
0000
0011
0000
0000
1010
0000
0000
0011
0000
0000
1010
0000
0000
0000
,
1000
0000
0000
0010
0000
0000
0001
0000
0010
0100
0000
0100
0000
0000
0101
0000
0000
1100
0000
0000
0101
0000
0000
1100
,
0000
0000
0000
0001
0000
0000
0010
0000
0010
0100
0000
1100
0000
0000
0000
0001
0000
0101
0000
0000
0000
1000
0000
1100
,
0000
0000
0000
0001
0000
0000
0100
0000
0000
0010
0000
0110
0000
0000
0000
1000
0000
0000
0100
0000
0100
0010
0000
0000
,
0011
1100
0011
1100
0010
0010
1001
0000
,
0001
0000
0000
1000
0000
0000
0100
0000
0001
0000
0000
0101
0000
0000
0000
0100
0000
0000
0010
0000
0000
0001
0000
0000
,
1000
0000
0000
0010
0000
0000
1000
0000
0010
0000
0000
1010
0000
0000
0000
0001
0000
0000
0010
0000
0100
1000
0000
0100
,
1000
0000
0000
0001
0000
0000
0100
0000
0000
1000
0000
0000
0001
0000
0000
0010
0000
0000
1000
0000
0000
0001
0000
0100
,
0010
0000
0000
1000
0000
0000
0001
0000
0010
0100
0000
0000
1000
0000
1000
0000
0000
1000
0000
0000
0000
0100
0000
0000
,
1000
0000
0000
0001
0000
0000
0100
0000
1000
0000
0000
1100
0000
0000
0000
0100
0000
0000
0010
0000
0000
1000
0000
0000
,
0001
0000
0000
0010
0000
0000
0100
0000
0100
0000
0000
0110
0000
0000
0001
0000
0000
0110
0000
0000
1000
0000
0000
0110
,
0000
0002
1000
1000
0100
0100
1000
1003
,
0100
0000
0000
0000
0000
0110
0000
0000
0110
0000
0000
1001
0000
0000
0000
0010
0000
0000
1001
0000
0000
0000
0000
0000
,
1000
0000
0000
0100
0000
0000
0010
0000
0000
0100
0000
0000
2000
0000
0000
3000
0000
0000
0001
0000
0100
0010
0000
0100
,
0010
1000
0001
0010
1000
0010
0100
1000
,
0002
0203
2300
3020
,
0031
0000
0000
0100
0000
0000
1000
0000
0000
0010
0000
0000
0001
0000
0001
0000
0000
0001
0000
0000
0000
1000
0000
0000
,
0001
0000
0000
0100
0000
0000
0010
0000
0000
0100
0000
0000
0002
0000
0000
0000
0000
0000
1003
0000
0100
0010
0000
0100
,
0010
0000
0000
0001
0000
0000
1000
0000
0000
0010
0000
0000
0100
0000
0000
0001
0000
0101
0000
0000
0000
1000
0000
1100
,
0000
0000
0000
0001
0000
0100
0010
0000
0100
0010
0000
1000
0001
0000
1000
0001
0000
1000
0001
0000
1000
0001
0000
0010
,
0200
0000
2300
0000
0002
3003
1001
0000
,
1000
0000
0000
0001
0000
0010
0000
0000
1000
0000
0000
1010
0000
0000
0000
0010
0000
0100
1000
0000
0100
1000
0000
0000
,
0001
0000
0100
0010
0000
0000
1000
0000
0100
0000
0000
0110
0000
0000
0000
0001
0010
0100
1000
0000
0001
0010
0000
0010
,
0100
0000
0000
1000
0000
0000
0001
0000
0000
0100
0000
0000
1000
0000
0000
0001
0000
0000
0010
0000
0000
1000
0001
1000
,
0001
0000
0000
0010
0000
0000
0100
0000
0100
0000
0000
1000
0001
0000
0001
0000
0000
0001
0000
0000
0000
0010
0000
0000
,
0001
0000
0000
1000
0000
0010
0000
0000
0001
0000
0000
0011
0000
0000
0000
0010
0000
0100
0001
0000
0100
0001
0000
0000
,
1000
0000
0100
0010
0000
0000
0001
0000
0100
0010
0000
0000
1000
0000
0100
0010
0000
0000
0001
0000
0100
0000
0000
0110
,
0000
1000
0010
0100
0001
1000
0100
0010
,
0011
0000
0000
1000
0000
0000
0011
0000
0000
1000
0000
0000
0001
0000
0001
0100
0000
0100
0010
0000
0000
0000
0000
0000
,
0110
1000
0100
0010
0011
1000
0010
0100
,
0101
1000
0100
0010
0011
1000
0010
0100
,
0110
0001
0010
0100
1100
0001
0100
0010
,
2020
3030
2020
3030
1010
1010
0101
0000
;

//--------------- dance-single - ----------------
#NOTEDATA:;
#STEPSTYPE:dance-single;
#DESCRIPTION:;
#DIFFICULTY:Challenge;
#METER:17;
#RADARVALUES:0,0,0,0,0;
#CREDIT:Talkion;
#NOTES:
0000
0000
0000
0000
,
0000
0000
0000
0000
,
0000
0000
0000
0000
,
1200
0310
0201
0310
,
1100
0000
0000
0000
0000
0000
0101
0000
0000
0000
0000
0000
1100
0000
0000
1100
0000
0000
MMMM
0000
0000
0001
0100
0010
,
1000
0000
0000
0001
0000
0100
0000
0000
0010
0100
0000
0002
0000
0000
0000
0003
0000
0000
0000
1000
0100
1000
0001
0010
,
0001
0000
1000
0010
0000
0010
0000
0000
0002
0010
0000
0013
0000
0000
1000
0010
0000
0010
0000
0000
0000
0100
0010
1000
,
0002
0000
0000
0010
0000
1000
0000
0000
0010
0000
0000
0013
0000
0000
0100
1000
0000
0100
1000
0000
0000
0001
0100
0010
,
1000
0000
0000
0010
0000
0000
0101
0000
0000
0010
0000
0000
1100
0000
1100
0000
0000
1001
0000
0000
0000
0001
0010
0100
,
1000
0000
0000
0001
0000
0010
0000
0000
0100
0010
0000
0002
0000
0000
0000
0003
0000
0000
0000
1000
0010
1000
0001
0100
,
0001
0000
1000
0100
0000
0100
0000
0000
0001
0100
0000
0110
0000
0000
1000
0100
0000
0110
0000
0000
0001
0100
0000
1200
,
0000
0000
0000
0301
0000
0110
0000
0000
0100
1000
0000
0110
0000
0000
0010
0001
0000
0110
0000
0000
0100
1000
0000
0000
,
0100
0010
0100
0010
0000
0000
1000
0002
1003
0001
0000
0000
0010
0200
0300
0010
0200
0300
0010
0100
0000
MMMM
0000
0000
,
0001
0000
1000
0001
0000
1000
0010
0000
0001
0000
0000
0011
0000
0000
0010
0100
0000
0010
0100
0000
0001
1000
0100
0010
,
0001
0000
1000
0100
0000
1000
0100
0000
0010
0000
0000
0110
0000
0000
0000
0001
1000
0010
0100
0000
0100
0001
0000
0001
,
1000
0000
0000
0100
0000
0000
0001
0000
0001
0100
0000
0100
1000
0000
1000
0010
0000
0010
0001
0000
0000
0010
0100
0010
,
1000
0000
0000
1000
0000
0001
0010
0000
0010
0100
0000
0000
1100
0000
0001
0000
0000
0101
0000
0000
0000
0100
0010
0100
,
0010
0000
1000
0001
0000
1000
0100
0000
0001
0000
0000
0101
0000
0000
0100
0010
0000
0010
0001
0000
1000
0010
0000
0100
,
0001
0000
1000
0100
0000
0010
0001
0000
0001
0000
0000
1100
0000
0000
0010
0100
0000
0101
0000
0000
0010
0000
0000
1001
,
0000
0000
0000
1000
0000
1000
0010
0000
0010
0100
0000
0100
0001
0000
0000
1000
0100
1000
0100
0000
0100
0010
0000
0010
,
0002
0000
0000
0000
0000
0000
0000
0000
0000
0003
0000
0000
1000
0000
1000
0010
0000
0010
0001
0000
0020
0000
0000
0000
,
1030
0001
0010
0100
1100
1000
0010
0100
,
0101
0010
0010
1001
0000
1000
0100
1000
,
0011
0001
0100
0010
1010
1000
0100
0010
,
0011
0100
0100
2001
0000
3010
0100
0001
,
1001
0010
0100
1000
1001
0010
0100
0001
,
1001
0010
0010
2100
0000
3001
0010
0010
,
1001
0100
0010
0001
1001
0100
0010
1000
,
1001
1001
0000
0120
0000
1000
0001
1030
,
0001
0000
0000
0010
0000
0010
0100
0000
0000
1000
0000
0000
0001
0000
0000
0100
0000
0100
0000
0000
0010
1000
0000
0000
,
0002
0000
0000
0023
0000
0000
0130
1000
0100
2000
0000
0000
0000
0000
0000
3001
0000
0001
0100
0000
0100
0010
0000
0010
,
1000
0000
0000
0010
0000
0010
0100
0000
0000
0001
0000
0000
1000
0000
0010
0100
0001
0100
0001
0000
1000
0100
0000
1000
,
0200
0000
0000
0301
0000
0000
0100
0000
0100
0020
0000
0000
0000
0000
0000
0031
1000
0001
1000
0000
0010
0100
0000
0100
,
0001
0000
0000
0100
0000
0100
0010
0000
0000
1000
0000
0000
0001
0000
0000
0010
0000
0010
0000
0000
0100
1000
0000
0100
,
2000
0000
0000
3001
0000
0000
0101
0000
0000
2010
0000
0000
0000
0000
0000
3001
0000
0100
0010
0000
0000
1000
0001
1000
,
0001
0000
0000
0010
0000
0010
0100
0000
1000
0000
0000
0010
0110
0000
0000
0100
0000
0100
0010
0000
1000
0000
0000
0100
,
0110
0000
0000
1000
0100
0010
0001
0000
1010
0000
0000
0010
0100
0001
0100
0001
0100
0001
2000
0000
0000
3100
0010
0001
,
0100
0000
0000
0110
0000
0000
1000
0000
0100
0010
0000
0000
1000
0000
0100
0010
0000
0110
0000
0000
0000
1001
0000
0000
,
0011
0000
1000
0100
0000
0000
0011
0000
1000
0100
0000
0000
0011
0000
0000
0011
0000
0000
MMMM
0000
0000
0000
0000
0000
,
1000
0000
0000
0001
0000
0100
0010
0000
0000
1000
0000
0000
0001
0000
0010
0001
0010
0001
1000
0000
0100
0000
0000
0011
,
0000
0000
0000
0001
1000
0010
1000
0001
0010
0001
1000
0010
0100
0000
0010
0100
0000
0001
0010
0000
0000
1100
0000
1000
,
0000
0000
0001
0100
0000
0100
0010
0000
1000
0000
0000
1001
0000
0000
0010
0000
0000
1000
0100
0000
1000
0100
0000
0010
,
1000
0000
1000
0010
0100
1000
0001
0000
0001
0100
0010
1000
0000
0000
0110
0000
0000
0110
0000
0000
1001
0000
0000
0000
,
0001
0000
0000
1000
0100
0010
0001
0000
0100
0010
0000
0100
0000
0000
1010
0000
0000
0101
0000
0000
0110
0000
0000
1000
,
0100
0000
0000
1000
0100
1000
0001
0100
0001
1000
0100
0010
0000
0000
0001
0100
0000
0110
0000
0000
1000
0100
0000
0110
,
0000
0000
0000
1000
0000
0001
0100
0000
0100
1000
0000
1100
0000
0000
0000
1000
0000
1000
0100
0000
0100
0001
0000
0000
,
0110
0000
0000
1100
0000
0000
0101
0000
0000
1001
0000
0000
1000
0000
0100
0000
0010
0000
1001
0000
0000
0000
0000
0000
,
1000
0000
0001
1000
0000
0001
0100
0000
1000
0000
0000
1100
0000
0000
0100
0010
0000
0100
0010
0000
1000
0001
0010
0100
,
1000
0000
0001
0010
0000
0001
0010
0000
0100
0000
0000
0110
0000
0000
0000
1000
0001
0100
0010
0000
0010
1000
0000
1000
,
0001
0000
0000
0010
0000
0000
1000
0000
1000
0010
0000
0010
0001
0000
0001
0100
0000
0100
1000
0000
0000
0100
0010
0100
,
0001
0000
0000
0001
0000
1000
0100
0000
0100
0010
0000
0000
0011
0000
1000
0000
0000
1010
0000
0000
0000
0010
0100
0010
,
0100
0000
0001
1000
0000
0001
0010
0000
1000
0000
0000
1010
0000
0000
0010
0100
0000
0100
1000
0000
0001
0100
0000
0010
,
1000
0000
0001
0010
0000
0100
1000
0000
1000
0000
0000
0011
0000
0000
0100
0010
0000
1010
0000
0000
0100
0000
0000
1001
,
0000
0000
0000
0001
0000
0010
0001
0000
0010
0001
0000
0010
0001
0000
1000
0010
0100
0001
1000
0000
0001
0010
0100
1000
,
0001
0000
0000
0100
0000
0110
0000
0000
0110
0000
0000
1001
0000
0000
1000
0100
0000
0100
0001
0000
0000
0100
0010
0001
,
1000
0000
0000
0001
0000
0100
0000
0000
0010
0100
0000
0002
0000
0000
0000
0003
0000
0000
0000
1000
0100
1000
0001
0010
,
0001
0000
1000
0010
0000
0010
0000
0000
0002
0010
0000
0013
0000
0000
1000
0010
0000
0010
0000
0000
0000
0100
0010
1000
,
0002
0000
0000
0000
0000
0000
0000
0000
0000
0000
0000
0000
0023
0000
0000
0000
0000
0000
0000
0000
0000
0100
0000
0000
0230
0000
0000
0000
0000
0000
0000
0000
0000
1000
0000
0000
1300
0000
0000
0000
0000
0000
0001
0000
0100
0000
0010
0000
,
1000
0000
0000
0010
0000
0000
0101
0000
0000
0010
0000
0000
1100
0000
1100
0000
0000
1001
0000
0000
0000
0001
0010
0100
,
1000
0000
0000
0001
0000
0010
0000
0000
0100
0010
0000
0002
0000
0000
0000
0003
0000
0000
1000
0010
0100
0001
1000
0100
,
0010
0000
0001
0100
0000
0100
0010
0000
0001
0010
0000
2000
0000
3000
0001
0010
0000
2000
0000
3000
0010
0001
0000
2002
,
0000
3003
0000
1000
0000
0010
0100
0000
0010
0100
0001
1000
0100
1000
0001
0010
0001
1000
0100
1000
0001
0010
0100
1000
,
0002
0000
0000
0000
0000
0000
0203
0000
0000
0000
0000
0000
0020
0000
0000
0330
0000
0000
1001
0000
0000
1000
0010
0100
,
0001
0000
0000
1000
0000
1100
0000
0000
0101
0000
0000
1100
0000
0000
1000
0010
0000
0010
0001
0000
0010
0100
0001
1000
,
0100
0000
0010
0001
0000
0010
0001
0000
1000
0000
0000
1010
0000
0000
0010
0100
0001
1000
0100
0000
0100
0010
0000
0010
,
0001
0000
0000
0010
0000
0000
1000
0000
1000
0010
0000
0010
0001
0000
0001
0100
0000
0100
1000
0000
0000
0100
0010
1000
,
0001
0000
0000
0001
0000
1000
0100
0000
0100
0010
0000
0000
0011
0000
1000
0000
0000
1010
0000
0000
0000
0010
0100
0001
,
1000
0000
0001
1000
0000
1010
0000
0000
0011
0000
0000
1010
0000
0000
1000
0100
0000
0100
0001
0000
1000
0010
0000
0010
,
0001
0000
1000
0010
0000
0100
0001
0000
1000
0100
0000
0010
0001
0000
1000
0010
0000
0010
0100
0000
1000
0000
0000
1100
,
0000
0100
2001
3010
0102
0013
2100
3010
,
0102
0000
0000
0013
0000
0000
2100
0000
0000
3010
0000
0000
0100
0000
0010
0000
0000
0010
0110
0000
0000
1000
0010
0100
,
0001
1000
0100
0010
0011
1000
0010
0100
,
0101
1000
0100
0010
0011
1000
0010
0100
,
0110
0001
0010
0100
1100
0001
0100
0010
,
2020
3030
2020
3030
1010
1010
MMMM
0000
;
