#TITLE:HELL SCAPER;
#SUBTITLE:U-SK'S BPM 200 SPEEDCORE REMIX;
#ARTIST:L.E.D.LIGHT-G;
#TITLETRANSLIT:;
#SUBTITLETRANSLIT:;
#ARTISTTRANSLIT:;
#GENRE:;
#CREDIT:;
#MUSIC:HELL_SCAPER 200 SPEEDCORE REMIX.ogg;
#BANNER:HELL_SCAPER 200 SPEEDCORE REMIX.png;
#BACKGROUND:HELL_SCAPER 200 SPEEDCORE REMIX_bg.png;
#CDTITLE:;
#SAMPLESTART:38.400;
#SAMPLELENGTH:11.550;
#SELECTABLE:YES;
#OFFSET:-0.300;
#BPMS:0.000=200.000
,135.000=400.000
,257.500=380.000
,258.000=340.000
,258.500=300.000
,259.500=250.000
,260.000=200.000
,340.000=400.000
;
#STOPS:194.500=0.225;
#BGCHANGES:;
#FGCHANGES:;

//--------------- dance-single - ApplesCats ----------------
#NOTES:
     dance-single:
     ApplesCats:
     Hard:
     11:
     0,0,0,0,0:
0000
0000
0000
0000
,
0000
0000
0000
0000
,
1010
0000
0000
0000
,
0000
0000
0000
0000
,
0101
0000
0000
0000
,
0000
0000
0000
0000
,
1010
0000
0000
0000
,
0000
0000
0000
0000
,
0101
0000
0000
0000
,
0000
0000
0000
0000
,
1010
0000
0000
0000
,
0000
0000
0000
0000
,
0101
0000
0000
0000
,
0000
0000
0000
0000
,
0110
0000
0000
0000
,
0000
0000
0000
1010
,
0000
0000
0001
0000
0010
0001
0001
0010
,
0100
1000
0000
0000
0100
0010
0001
0000
,
0000
0000
0001
0010
0010
0001
0001
0010
,
0100
1000
0000
0000
0000
0000
0001
0000
,
0000
0000
0001
0010
0010
0001
0001
0010
,
0100
1000
0000
0000
0000
0000
0001
0000
,
0000
0000
0001
0010
0010
0001
0001
0010
,
0100
1000
0000
0000
0000
0000
0001
0000
,
0000
0000
0001
0010
0010
0001
0001
0010
,
0100
1000
0000
0000
0000
0000
0001
0000
,
0000
0000
0001
0010
0010
0001
0001
0010
,
0100
1000
0000
0000
0000
0000
0001
0000
,
0000
0000
0001
0010
0010
0001
0001
0010
,
0100
1000
0000
0000
0000
0000
0001
0000
,
0000
0000
0001
0010
0010
0001
0001
0010
,
0100
1000
0000
0000
0000
0000
2002
0000
,
0000
0000
0000
0000
,
0000
0000
3003
1001
,
0110
1001
0000
0011
,
0000
1100
0000
0110
,
0000
1001
0000
1010
,
0000
0110
0000
1001
,
0110
1001
0000
1100
,
0000
0011
0000
0110
,
0000
1001
0000
0101
,
0000
0110
0000
1001
,
0000
0110
0000
1010
,
0000
0101
0000
0001
,
0010
0100
1000
0100
,
0010
0001
0000
1100
,
0000
0011
0000
1001
,
0000
0110
0000
2002
,
0000
0000
0000
0000
,
3003
0010
0001
0010
,
0100
0010
0001
0010
,
0100
1000
0100
0010
,
0001
1000
0100
0010
,
0001
0100
1000
0100
,
1000
0100
0010
0010
,
0001
0010
1000
0010
,
0001
0010
1000
0001
,
0001
1000
0010
0100
,
1000
0100
0010
0001
,
0010
0100
0010
0100
,
1000
0100
0010
0100
,
0010
1000
0001
1000
,
1000
0100
0011
0011
,
1100
1100
2002
0000
,
0000
0000
0000
3003
,
0000
1001
0000
0000
0000
0000
1000
0000
,
1000
0000
0100
0000
0010
0001
0010
0001
,
0001
1000
0001
1000
,
0001
0000
1000
0000
0001
0000
0001
0010
,
1000
0001
1000
0001
,
1000
0000
0000
0000
0001
0000
0000
0000
1000
0000
0101
0000
0000
1010
0000
0000
,
0110
0001
1000
0001
,
1000
0000
0001
0000
1000
0000
1000
0100
,
0001
1000
0001
1000
,
1000
0000
0100
0000
0010
0001
0010
0001
,
0001
1000
0001
1000
,
0001
0000
1000
0000
0001
0000
0001
0010
,
1000
0001
1000
0001
,
1000
0000
0000
0000
0001
0000
0000
0000
1000
0000
0101
0000
0000
1010
0000
0000
,
0110
0001
1000
0001
,
1000
0000
0001
0000
1000
0000
1000
0100
,
0000
2002
0000
0000
0000
0000
0000
0000
,
0000
0000
0000
0000
,
0000
0000
0000
0000
,
0000
0000
0000
0000
,
0000
3003
0000
0000
0000
0000
0000
0000
,
0000
2020
0000
0000
0000
0000
0000
0000
,
0000
0000
0000
0000
,
0000
0000
0000
0000
,
0000
0000
0000
0000
,
0000
0000
0000
0000
,
0000
0000
3030
0000
;
