#TITLE:花と、雪と、ドラムンベース;
#SUBTITLE:;
#ARTIST:kanone feat. Sennzai;
#TITLETRANSLIT:Hana to, Yuki to, Drum n Bass;
#SUBTITLETRANSLIT:;
#ARTISTTRANSLIT:;
#GENRE:;
#CREDIT:;
#BANNER:Hana to, Yuki to, Drum n Bass.png;
#BACKGROUND:Hana to, Yuki to, Drum n Bass-bg.png;
#LYRICSPATH:;
#CDTITLE:cdtitle.png;
#MUSIC:Hana to, Yuki to, Drum n Bass.ogg;
#OFFSET:-0.053000;
#SAMPLESTART:12.053000;
#SAMPLELENGTH:10.667000;
#SELECTABLE:YES;
#BPMS:0.000000=180.000000
;
#STOPS:
;
#BGCHANGES:;
#KEYSOUNDS:;
#ATTACKS:;

//---------------dance-single - MEGAtive----------------
#NOTES:
     dance-single:
     :
     Hard:
     13:
     0.516464,0.666269,0.136560,0.761861,0.147341,503.000000,484.000000,19.000000,106.000000,0.000000,0.000000,0.516464,0.666269,0.136560,0.761861,0.147341,503.000000,484.000000,19.000000,106.000000,0.000000,0.000000:
// measure 0
0000
0000
0000
0000
,  // measure 1
0000
0000
0000
0000
,  // measure 2
0000
0000
0000
0000
,  // measure 3
0000
0000
0000
0000
,  // measure 4
0000
0000
0000
1000
,  // measure 5
0001
0100
0000
0000
,  // measure 6
0110
0110
0010
1000
,  // measure 7
2002
0000
0000
0000
,  // measure 8
0000
0000
0000
3003
,  // measure 9
0001
2000
3020
0230
,  // measure 10
0302
0023
0230
0320
,  // measure 11
0030
0000
0001
1000
0020
0000
0230
0000
,  // measure 12
0302
0000
0000
0000
1003
0010
0100
0001
,  // measure 13
1000
0200
0320
0230
,  // measure 14
2300
0000
3001
0100
0001
1000
0001
0100
,  // measure 15
0020
1000
0000
2030
,  // measure 16
3200
0010
0000
0320
,  // measure 17
0031
0000
1000
0001
0200
0000
0320
0000
,  // measure 18
2030
3002
0023
0230
,  // measure 19
0300
0000
1000
0001
0100
0010
0100
0001
,  // measure 20
2000
0000
3100
0000
0100
1000
0002
0000
,  // measure 21
0103
0010
2000
0000
0000
0000
3002
0000
,  // measure 22
0023
0000
0230
2300
,  // measure 23
3002
0100
0000
0100
,  // measure 24
0000
1000
0000
1003
,  // measure 25
0001
0000
0010
0000
0100
1000
0001
0000
,  // measure 26
1000
0000
0010
0000
0100
0001
1000
0000
,  // measure 27
0001
0000
0010
0000
0100
1000
0001
0000
,  // measure 28
1000
0000
0010
0000
0100
0001
1000
0000
,  // measure 29
0001
0010
0001
0000
1000
0010
1000
0000
,  // measure 30
0001
0100
0001
0000
1000
0100
1000
0000
,  // measure 31
0001
0010
0001
1000
0010
0100
0001
1000
,  // measure 32
0100
0000
0000
0000
0000
0000
1000
0100
,  // measure 33
0010
0000
0200
0000
1300
0001
0100
0010
,  // measure 34
0000
0200
0000
0301
0100
0010
0100
0001
,  // measure 35
2000
0000
0000
0000
3100
0000
0010
0001
,  // measure 36
2000
0000
3010
0100
0002
0000
0013
0100
,  // measure 37
1000
0000
0002
0000
0103
0000
0010
1000
,  // measure 38
0000
0200
0000
0310
0001
1000
0001
0100
,  // measure 39
0010
0000
0100
0001
0000
0001
1000
0000
1000
0100
0000
0100
,  // measure 40
0010
0000
0010
0000
0001
0010
0001
1000
,  // measure 41
0001
0000
0200
0000
0301
1000
0100
0010
,  // measure 42
0000
0200
0000
1300
0100
0010
0100
1000
,  // measure 43
0002
0000
0000
0000
0103
0000
0010
1000
,  // measure 44
0002
0000
0013
0100
2000
0000
3010
0100
,  // measure 45
0001
0000
2000
0000
3100
0000
0010
0001
,  // measure 46
0000
0200
0000
0310
1000
0001
1000
0100
,  // measure 47
0010
0000
0010
0001
0000
0001
1000
0000
1000
0010
0000
0010
,  // measure 48
0100
0000
0010
0100
0002
0000
1000
0000
,  // measure 49
1003
0002
0023
0230
,  // measure 50
2300
3020
0230
0320
,  // measure 51
0030
0000
1000
0001
0020
0000
0230
0000
,  // measure 52
2300
0000
0001
0000
3001
0010
0100
1000
,  // measure 53
0001
0200
0320
0230
,  // measure 54
0302
0000
1003
0100
1000
0001
1000
0100
,  // measure 55
0020
0000
0000
0031
0010
0000
0002
0000
,  // measure 56
0203
0000
0310
0100
0010
0000
0100
0020
,  // measure 57
1030
0000
0001
1000
0200
0000
0320
0000
,  // measure 58
0032
2003
3020
0230
,  // measure 59
0300
0000
0001
1000
0100
0010
0100
1000
,  // measure 60
0002
0000
0103
0010
0100
0001
2000
0000
,  // measure 61
3100
0010
0002
0000
0000
0000
2003
0000
,  // measure 62
3020
0000
0000
0100
0230
0000
0302
0000
,  // measure 63
2003
0000
0000
3100
1000
0000
0001
0000
,  // measure 64
0100
0000
0001
1000
0100
0010
0001
1000
,  // measure 65
0001
0000
0101
0000
0100
0001
1000
0000
,  // measure 66
0100
0000
1100
0000
1000
0001
0010
0000
,  // measure 67
0001
0000
0011
0000
0010
0001
1000
0000
,  // measure 68
0010
0000
1010
0000
1000
0001
0100
0000
,  // measure 69
0001
0010
0001
0010
0100
1000
0100
1000
,  // measure 70
0001
0100
0001
0100
0010
1000
0010
1000
,  // measure 71
0001
0100
0001
1000
0100
0010
0001
1000
,  // measure 72
0001
0000
0000
0000
,  // measure 73
0011
0000
0000
0010
0001
0000
1000
0000
0010
0000
0000
0010
1000
0000
0001
0000
,  // measure 74
0010
0000
0000
0010
0001
0000
1000
0000
0020
0000
0100
0000
0100
0000
0100
0000
,  // measure 75
0230
0000
0000
0301
1000
0001
2000
0000
0000
3100
0010
0100
,  // measure 76
0000
1000
0001
1000
0010
0100
0010
1000
,  // measure 77
0001
0000
1000
0100
0000
0100
0010
0000
0010
0001
0000
0001
,  // measure 78
0200
0000
0000
0301
1000
0001
2000
0000
0000
3010
0100
0010
,  // measure 79
0200
0000
0302
0000
1003
0100
1000
0100
,  // measure 80
0010
0001
0010
0001
2000
0000
3010
0000
,  // measure 81
1010
0000
0000
0010
1000
0000
0001
0000
0010
0000
0000
0010
0001
0000
1000
0000
,  // measure 82
0010
0000
0000
0010
1000
0000
0001
0000
0020
0000
0100
0000
0100
0000
0100
0000
,  // measure 83
0230
0000
0000
1300
0001
1000
0002
0000
0000
0103
0010
0100
,  // measure 84
0000
0001
1000
0001
0010
0100
0010
0001
,  // measure 85
1000
0000
0001
0100
0000
0100
0010
0000
0010
1000
0000
1000
,  // measure 86
0200
0000
0000
1300
0001
1000
0002
0000
0000
0013
0100
0010
,  // measure 87
0200
0000
1300
0001
1000
0000
0001
0100
,  // measure 88
0010
0000
1000
0000
0010
0000
0100
0000
0001
0000
1000
0000
0100
0000
0010
0001
,  // measure 89
0020
0000
0000
0000
,  // measure 90
0000
0000
0000
0000
,  // measure 91
0200
0000
0000
0000
,  // measure 92
0000
0000
0000
0000
0000
0000
0000
0330
,  // measure 93
0110
0000
0000
0010
0000
0000
0100
0000
2000
0000
0000
0000
0001
0000
0000
0000
,  // measure 94
3001
0100
0010
0000
0200
0000
0010
0000
,  // measure 95
0310
0000
0000
0100
0000
0000
0010
0000
2000
0000
0000
0000
0000
0000
0000
0000
,  // measure 96
3001
0010
0100
0010
0000
0000
0110
0000
,  // measure 97
1100
2002
3003
0000
,  // measure 98
0011
1100
0011
1100
,  // measure 99
0220
0000
0000
0000
,  // measure 100
0000
0000
0000
0330
,  // measure 101
2002
0000
0000
0000
,  // measure 102
0000
0000
0000
0000
,  // measure 103
3003
0000
0000
0000
;

//---------------dance-single - MEGAtive----------------
#NOTES:
     dance-single:
     :
     Challenge:
     16:
     0.693068,1.221493,0.086248,0.711549,0.452804,675.000000,663.000000,12.000000,99.000000,0.000000,0.000000,0.693068,1.221493,0.086248,0.711549,0.452804,675.000000,663.000000,12.000000,99.000000,0.000000,0.000000:
0000
0000
0000
0000
,
0000
0000
0000
0000
,
0000
0000
0000
0000
,
0000
0000
0000
0000
,
0000
0000
0000
0001
,
1000
0010
0000
0000
,
0110
0000
0000
0000
0110
0000
0000
0000
0010
0000
0000
1000
0000
0000
0001
0000
,
0020
0000
0000
0100
,
0100
0000
0000
0100
0000
0000
0001
0000
,
0031
2000
3020
0230
,
2300
0000
3200
0000
0302
0000
0013
0100
,
0010
0000
0001
1000
0200
0000
0302
0000
,
0203
0000
1300
0000
0001
0100
0010
1000
,
0001
0200
2300
3200
,
0302
0000
0013
0100
0010
0001
1000
0001
,
0200
0000
0301
1000
0010
0000
0100
0001
,
1000
0000
0100
1000
0001
0000
0100
0001
,
1000
0000
0001
0010
0200
0000
0302
0000
,
0203
0320
0032
2003
,
3001
0000
0100
0010
0100
0001
1000
0010
,
0200
0000
0301
0000
0100
0001
0020
0000
,
0130
1000
0020
0000
0100
0030
0020
0000
,
2030
0001
3200
0320
,
0032
1000
0000
1000
,
0000
0100
0000
0100
,
1003
0100
1000
0000
0001
0100
0001
0000
,
1000
0010
1000
0000
0001
0010
0001
0000
,
1000
0100
1000
0001
0010
0100
1000
0000
,
0001
0100
0001
1000
0010
0100
0001
0000
,
1000
0100
0010
0100
1000
0010
0100
0010
,
1000
0100
0010
0100
1000
0010
0100
0010
,
1000
0001
1000
0100
1000
0001
0010
0100
1000
0001
1000
0010
1000
0001
0100
0010
,
2000
0000
0000
0000
0000
0000
3001
0010
,
0120
0000
0000
0000
0130
1000
0001
1000
0010
0000
0100
0000
0010
0000
0010
0000
,
1000
0002
0000
0013
1000
0010
0001
0100
,
0020
0000
0000
0000
1030
0001
0010
0010
,
0100
0001
0100
1000
0100
0001
0100
1000
,
0002
0000
0000
0000
0103
0010
0100
0010
1000
0000
0001
0000
0010
0000
0010
0000
,
0001
0200
0000
1300
0100
0001
0010
0100
,
1000
0010
1000
0001
0010
0100
0010
0001
1000
0010
0100
0001
,
1000
0001
1000
0000
1000
0001
1000
0000
0100
0000
0001
0000
0100
0000
1000
0000
,
2010
0000
0000
0000
3010
1000
0001
1000
0100
0000
0010
0000
0100
0000
0100
0000
,
1000
0002
0000
0103
1000
0100
0001
0010
,
0200
0000
0000
0000
1300
0001
0100
0100
,
0010
0001
0010
1000
0010
0001
0010
1000
,
0002
0000
0000
0000
0013
0100
0010
0100
1000
0000
0001
0000
0100
0000
0100
0000
,
0001
0020
0000
1030
0010
0001
0100
0010
,
1000
0000
0001
0000
1000
0000
0100
0000
0000
0010
0000
0000
0100
0000
1000
0000
0001
0000
0100
0000
0000
0010
0000
0000
,
1010
0000
0000
0000
1001
0000
1000
0000
0001
0010
0001
1000
0100
0010
0100
1000
,
0001
0000
1000
0010
0200
0000
2300
0000
,
3200
0302
0023
0230
,
1300
0000
0001
0010
0200
0000
0302
0000
,
0203
0000
0000
0000
2300
0000
0000
0000
3001
0000
0100
0000
0010
0000
0100
0001
,
1000
0000
0010
0100
0002
0000
0203
0000
,
2300
0000
3100
0010
0100
0001
1000
0001
,
0020
0000
0031
1000
0100
0000
0010
0001
,
0010
0000
0000
0000
0100
0000
1000
0000
0001
0000
0000
0000
0100
0000
0010
1000
,
0001
0000
1000
0100
0020
0000
2030
0000
,
3020
0032
0203
0320
,
1030
0000
0001
0100
1000
0100
0001
0010
,
0001
0000
0000
0000
1000
0000
0100
0000
0010
0000
0000
0000
0001
0000
0100
0010
,
1000
0000
0001
0010
0100
0000
2000
0000
,
3002
0000
0013
0100
0020
0000
0032
0000
,
2003
0000
3001
1000
0010
0000
0100
0001
,
0100
0000
0000
0000
0010
0000
1000
0000
0001
0000
1000
0100
0010
0100
0010
0001
,
1000
0001
0100
0010
0100
0001
1000
0100
,
0000
1000
0100
0010
0100
1000
0001
0100
,
0000
0001
0100
0010
0100
0001
1000
0100
,
0000
0000
0010
0001
0010
0001
0010
0001
1000
0000
0010
0000
0100
0000
0000
0000
,
0001
0100
0010
0100
0001
0010
0100
0010
,
0001
0100
0010
0100
0001
0010
0100
0010
,
0001
1000
0010
0100
0010
1000
0001
0010
0100
1000
0001
1000
0010
0100
0001
1000
,
0200
0000
0000
0300
,
1100
0000
0000
1000
0100
0000
0001
0000
0100
0000
0000
1000
0100
0000
0001
0000
,
0100
0000
0000
1000
0100
0000
0001
0000
0100
1000
0100
1000
0001
0010
0001
0010
,
0100
0000
0000
1000
0010
0100
0020
0000
0000
1030
0010
0100
,
0010
2000
3002
2003
3200
0320
0230
2300
,
3002
0000
0103
0010
0100
1000
0100
0010
0100
0001
1000
0001
,
0020
0000
0000
0130
1000
0100
0020
0000
0000
0130
1000
0001
,
0100
0000
0010
0000
0100
0000
0001
0000
1000
0000
0100
0000
1000
0000
0001
0010
,
0001
1000
0100
0010
0001
1000
0001
0000
,
0101
0000
0000
0001
0100
0000
1000
0000
0100
0000
0000
0001
0100
0000
1000
0000
,
0100
0000
0000
0001
0100
0000
1000
0000
0100
0001
0100
0001
1000
0010
1000
0010
,
0100
0000
0000
0001
0010
0100
0020
0000
0000
0031
0010
0100
,
0010
0002
2003
3002
0203
0320
0230
0302
,
2003
0000
3100
0010
0100
0001
0100
0010
0100
1000
0001
1000
,
0020
0000
0000
0130
0001
0100
0020
0000
0000
0130
0001
1000
,
0100
0010
0100
1000
0001
0000
0001
1000
,
0010
0000
0100
0001
1000
0000
0100
0000
0100
0000
1000
0001
0100
0000
0010
1000
,
0002
0000
0000
0000
,
0000
0000
0000
0000
,
1003
0001
1000
0001
1000
0001
1000
0001
1000
0001
1000
0001
1000
0001
1000
0001
,
1000
0100
0010
0001
1000
0001
0100
0010
0100
0001
1000
0100
0010
0001
1000
0001
,
0100
0000
0000
0010
0100
0000
0001
0000
2000
0000
0000
0000
0100
0000
0000
0000
,
3001
0010
0001
0010
0001
0000
0000
0000
0020
0000
0000
0000
0130
0000
0000
0000
,
1000
0000
0000
0100
0010
0000
0001
0000
2000
0000
0000
0000
0010
0000
0000
0000
,
3001
0100
0001
0100
0001
0000
0200
0000
0000
0000
0000
0000
0310
0000
0000
0000
,
1010
2002
3003
0000
,
0001
0010
0100
0000
1000
0010
0100
0000
0001
0010
0100
0000
1000
0010
0100
0000
,
0220
0000
0000
0000
,
0000
0000
0000
0000
0000
0000
0000
0330
,
2002
0000
0000
0000
,
0000
0000
0000
0000
,
3003
0000
0000
0000
;
