#TITLE:Gimme × Gimme (lapix remix);
#SUBTITLE:;
#ARTIST:AZKi × Such;
#TITLETRANSLIT:Gimme x Gimme (lapix remix);
#SUBTITLETRANSLIT:;
#ARTISTTRANSLIT:AZKi x Such;
#GENRE:;
#CREDIT:;
#BANNER:Gimme x Gimme (lapix remix).png;
#BACKGROUND:Gimme x Gimme (lapix remix)-bg.png;
#LYRICSPATH:;
#CDTITLE:cdtitle.png;
#MUSIC:Gimme x Gimme (lapix remix).ogg;
#OFFSET:0.000000;
#SAMPLESTART:45.714001;
#SAMPLELENGTH:18.000000;
#SELECTABLE:YES;
#BPMS:0.000000=105.000000
;
#STOPS:
;
#BGCHANGES:;
#KEYSOUNDS:;
#ATTACKS:;

//---------------dance-single - MEGAtive----------------
#NOTES:
     dance-single:
     :
     Beginner:
     3:
     0.267703,0.302390,0.258003,0.129002,0.000000,276.000000,238.000000,38.000000,19.000000,0.000000,0.000000,0.267703,0.302390,0.258003,0.129002,0.000000,276.000000,238.000000,38.000000,19.000000,0.000000,0.000000:
0000
0000
0000
0000
,
0000
0000
0000
0000
,
0001
0000
0011
0000
0000
1000
0010
0000
,
1000
0000
1010
0000
0000
1000
0001
0000
,
0001
0000
0011
0000
0000
1000
0100
0000
,
1000
0000
1010
0000
0000
0001
0100
0000
,
0001
0000
0011
0000
0000
1000
0100
0000
,
1000
0000
1010
0000
0000
0001
0100
0000
,
0001
0000
0011
0000
0000
1000
0100
0000
,
1000
0000
1010
0000
0000
0001
0100
0000
,
0001
0000
0011
0000
0000
1000
0100
0000
,
1000
0000
1010
0000
0000
0001
0100
0000
,
1002
0000
1003
0000
0000
1000
0001
0000
,
0201
0000
0301
0000
0000
0001
0100
0000
,
0012
0000
0013
0000
0000
0010
0001
0000
,
1020
0000
1030
0000
0000
1000
0010
0000
,
0102
0000
0103
0000
0000
0100
0001
0000
,
0021
0000
0031
0000
0000
0001
0010
0000
,
0102
0000
0103
0000
0000
0100
0001
0000
,
2002
3003
0000
0000
,
0001
0010
0001
1000
,
0010
1000
0001
0100
,
0001
0010
0001
1000
,
0100
0010
0001
1000
,
0001
0100
0001
1000
,
0100
1000
0001
0010
,
0002
1003
2000
3010
,
0110
0000
0110
0000
0010
0100
0000
0000
,
0001
0000
0011
0000
0000
1000
0100
0000
,
1000
0001
1000
0000
0000
0001
0100
0000
,
0001
0000
0101
0000
0000
1000
0010
0000
,
1000
0000
1100
0000
0000
0001
0010
0000
,
0001
0000
0011
0000
0000
1000
0100
0000
,
1000
0001
1000
0000
0000
0001
0100
0000
,
0001
0000
0101
0000
0000
1000
0010
0000
,
2000
0000
0000
3001
,
0001
0000
0011
0000
0000
1000
0100
0000
,
1000
0000
1010
0000
0000
0001
0100
0000
,
0001
0000
0011
0000
0000
1000
0100
0000
,
1000
0000
1010
0000
0000
0001
0100
0000
,
0001
0000
0011
0000
1000
0100
1000
0000
,
0001
0000
0101
0000
1000
0010
1000
0000
,
1000
0000
1100
0000
0001
0010
0001
0000
,
0001
0000
0101
0000
1000
0010
1000
0000
,
0001
0000
0001
0000
0000
0001
1000
0000
,
1000
0100
1000
0000
0000
1000
0001
0000
,
0001
0000
0001
0000
0000
0001
1000
0000
,
1001
0000
0000
0000
,
1000
0010
1000
0001
,
0010
0001
1000
0100
,
1000
0010
1000
0001
,
0100
0010
1000
0001
,
1000
0100
1000
0001
,
0100
0001
1000
0010
,
2000
3001
0002
0013
,
0110
0000
0110
0000
0010
0100
0000
0000
,
1000
0001
1000
0010
,
0200
0000
0000
0000
,
0301
1000
0001
0010
,
0200
0000
0000
0000
,
1300
0001
1000
0100
,
0020
0000
0000
0000
,
0032
1003
2000
3010
,
0110
0000
0110
0000
0010
0100
0000
0000
;

//---------------dance-single - MEGAtive----------------
#NOTES:
     dance-single:
     :
     Easy:
     8:
     0.410283,0.410386,0.475269,0.129002,0.095054,423.000000,353.000000,70.000000,19.000000,0.000000,0.000000,0.410283,0.410386,0.475269,0.129002,0.095054,423.000000,353.000000,70.000000,19.000000,0.000000,0.000000:
0000
0000
0000
0000
,
0000
0000
0000
0000
,
0011
0000
0000
0000
1001
0000
0000
1000
0000
0000
1000
0000
1010
0000
0000
0000
,
1010
0000
0000
0000
1001
0000
0000
0001
0000
0000
0001
0000
0010
0000
0000
0000
,
0001
0000
0000
0000
0011
0000
0000
1000
0000
0000
0010
0000
0100
0000
0000
0000
,
0001
0000
0000
0000
0101
0000
0000
1000
0000
0000
0100
0000
0010
0000
0000
0000
,
0001
0000
0000
0000
0011
0000
0000
1000
0000
0000
0010
0000
0100
0000
0000
0000
,
0001
0000
0000
0000
0101
0000
0000
1000
0000
0000
0100
0000
1000
0000
0000
0000
,
0001
0000
0000
0000
0101
0000
0000
1000
0000
0000
0100
0000
0010
0000
0000
0000
,
0001
0000
0000
0000
0011
0000
0000
1000
0000
0000
0010
0000
0100
0000
0000
0000
,
0001
0000
0000
0000
0101
0000
0000
1000
0000
0000
0100
0000
0010
0000
0000
0000
,
0001
0000
0000
0000
0011
0000
0000
1000
0000
0000
0010
0000
0100
0000
0000
0000
,
0101
0000
0101
0000
0000
0100
0101
0000
,
0001
0010
0001
0000
0000
0010
0011
0000
,
1100
0000
1100
0000
0000
0100
1100
0000
,
1000
0010
1000
0000
0000
0010
1010
0000
,
0101
0000
0101
0000
0000
0100
0101
0000
,
0001
0010
0001
0000
0000
0010
0011
0000
,
1100
0000
1100
0000
0000
0100
1100
0000
,
2002
0000
3003
1001
,
0001
0000
0010
0000
0001
0000
1000
0000
0100
0000
1000
0000
0001
0010
0001
0000
,
1000
0000
0010
0000
1000
0000
0001
0000
0100
0000
0001
0000
1000
0010
1000
0000
,
0001
0000
0010
0000
0001
0000
1000
0000
0100
0000
1000
0000
0001
0010
0001
0000
,
1000
0010
0100
0010
1000
0000
1010
0000
,
1000
0000
0100
0000
1000
0000
0001
0000
0010
0000
0001
0000
1000
0100
1000
0000
,
0001
0000
0100
0000
0001
0000
1000
0000
0010
0000
1000
0000
0001
0100
0001
0000
,
2000
0000
3100
0000
0002
0100
0103
0000
,
1001
0000
1001
0000
0110
0110
0000
0000
,
1000
0001
0010
0010
0010
0000
0001
2000
,
3001
1000
0010
0010
0010
0000
1000
0002
,
1003
0001
0010
0010
0010
0000
0001
2000
,
3001
1000
0010
0000
0100
0010
0100
0000
,
0001
1000
0100
0100
0100
0000
1000
0002
,
1003
0001
0100
0100
0100
0000
0001
2000
,
3001
1000
0100
0100
0100
0000
1000
0002
,
1003
0000
0000
0110
,
0001
0000
0000
0000
0101
0000
0000
1000
0000
0000
0100
0000
0010
0000
0000
0000
,
0001
0000
0000
0000
0011
0000
0000
1000
0000
0000
0010
0000
0100
0000
0000
0000
,
0001
0000
0000
0000
0101
0000
0000
1000
0000
0000
0100
0000
0010
0000
0000
0000
,
0001
0000
0000
0000
0011
0000
0000
1000
0000
0000
0010
0000
0100
0000
0000
0000
,
0101
0000
0000
0000
0101
0000
0000
0001
0000
0000
0100
0000
0101
0000
0000
0000
,
0011
0000
0000
0000
0011
0000
0000
0001
0000
0000
0010
0000
0011
0000
0000
0000
,
1100
0000
0000
0000
1100
0000
0000
1000
0000
0000
0100
0000
1100
0000
0000
0000
,
1010
0000
0000
0000
1010
0000
0000
0010
0000
0000
1000
0000
1010
0000
0000
0000
,
0110
0000
0110
0000
0000
0100
0110
0000
,
0010
1000
0010
0000
0000
1000
1010
0000
,
1100
0000
1100
0000
0000
0100
1100
0000
,
2002
0000
3003
1001
,
1000
0000
0010
0000
1000
0000
0001
0000
0100
0000
0001
0000
1000
0010
1000
0000
,
0001
0000
0010
0000
0001
0000
1000
0000
0100
0000
1000
0000
0001
0010
0001
0000
,
1000
0000
0010
0000
1000
0000
0001
0000
0100
0000
0001
0000
1000
0010
1000
0000
,
0001
0010
0100
0010
0001
0000
0011
0000
,
0001
0000
0100
0000
0001
0000
1000
0000
0010
0000
1000
0000
0001
0100
0001
0000
,
1000
0000
0100
0000
1000
0000
0001
0000
0010
0000
0001
0000
1000
0100
1000
0000
,
0002
0000
0103
0000
2000
0100
3100
0000
,
1001
0000
1001
0000
0110
0110
0000
0000
,
0001
0010
0100
0010
0001
1000
0010
0200
,
0010
0010
0010
0310
,
1000
0010
0100
0010
1000
0001
0010
0200
,
0010
0010
0010
0310
,
0001
0010
0100
0010
0001
1000
0010
0200
,
0010
0010
0010
0310
,
2000
0000
3010
0000
0002
0010
0013
0000
,
1001
0000
1001
0000
0110
0110
0000
0000
;

//---------------dance-single - MEGAtive----------------
#NOTES:
     dance-single:
     :
     Medium:
     12:
     0.504367,0.543165,0.549954,0.488848,0.196897,520.000000,439.000000,81.000000,72.000000,0.000000,0.000000,0.504367,0.543165,0.549954,0.488848,0.196897,520.000000,439.000000,81.000000,72.000000,0.000000,0.000000:
0000
0000
0000
0000
,
0000
0000
0000
0000
,
0011
0000
0000
0001
0000
0000
1000
0000
0000
0000
0000
0010
0000
0000
0000
0010
0000
0000
0220
0000
0000
0330
0000
0000
,
0100
0000
0000
0001
0000
0000
1000
0000
0000
0000
0000
0100
0000
0000
0100
0000
0000
0000
1000
0000
0000
0000
0000
0000
,
1000
0001
0100
0010
2000
0000
3001
0000
,
0001
0010
0100
1000
0002
0000
1003
0000
,
1000
0010
0200
0000
0301
0010
0100
1000
,
0001
0001
0002
0000
1003
1000
2000
0000
,
3001
1000
0010
0100
0002
0000
1003
0000
,
1000
0100
0010
0001
2000
0000
3001
0000
,
0001
0100
0010
0100
0001
0010
0100
1000
,
0001
1000
0010
0100
0010
1000
0002
0000
,
2003
3000
1100
0000
0000
1100
1001
0000
,
0001
0001
0101
0000
0000
0101
1001
0000
,
2020
3030
1010
0000
0000
1010
1001
0000
,
0001
0001
0011
0000
0000
0011
1001
0000
,
2000
3000
1010
0000
0000
1010
1001
0000
,
0001
0001
0011
0000
0000
0011
1001
0000
,
0002
0003
0101
0000
0000
0101
1001
0000
,
0220
0330
0000
1001
,
1000
0000
0001
0000
0010
0000
0100
1000
0100
0000
0010
0001
0100
0000
0010
0000
,
1000
0000
0001
0000
0100
0000
0010
1000
0010
0000
0100
0001
0010
0100
0010
0000
,
0001
0000
1000
0100
1000
0000
0001
0010
0001
1000
0010
0000
0100
0000
0010
0000
,
2000
3200
0320
0032
1003
0001
1000
0000
,
0001
0000
1000
0100
1000
0000
0001
0100
0001
0000
1000
0100
0010
0000
0001
0000
,
1000
0000
0001
0100
0001
0000
1000
0100
1000
0000
0001
0100
0001
1000
0100
0000
,
1000
0000
0002
0000
1003
0100
1000
0002
0000
0000
0103
0010
0100
0001
1000
0000
,
2002
3003
2002
3003
0110
0220
0330
0000
,
1010
1000
0001
0011
0011
1000
1010
0020
,
0130
0100
0001
0101
0101
1000
1100
2000
,
3001
0001
1000
1010
1010
0001
0011
0020
,
0130
1000
0001
1000
1010
0010
0220
0330
,
0101
0001
1000
1100
1100
0001
0101
0200
,
0310
0010
1000
1010
1010
0001
0011
0002
,
1003
1000
0001
0101
0101
1000
1100
0200
,
0310
0001
2000
0000
3002
0000
0103
0000
,
0001
1000
0010
0100
0002
0000
1003
0000
,
1000
0100
0010
0001
2000
0000
3001
0000
,
0001
0100
0020
0000
1030
0100
0010
0001
,
1000
1000
2000
0000
3001
0001
0002
0000
,
1003
0000
1010
0010
1000
0001
0011
0000
,
0001
0000
0011
0001
1000
0010
1010
0000
,
1000
0000
1100
1000
0001
0100
0101
0000
,
0001
0000
0101
0001
1000
0100
1100
0000
,
2200
3300
1100
0000
0000
1100
1001
0000
,
0001
0001
0101
0000
0000
0101
1001
0000
,
2020
3030
1010
0000
0000
1010
1001
0000
,
0220
0330
0000
1001
,
0001
0000
1000
0000
0010
0000
0100
0001
0100
0000
0010
1000
0100
0000
0010
0000
,
0001
0000
1000
0000
0100
0000
0010
0001
0010
0000
0100
1000
0010
0100
0010
0000
,
1000
0000
0001
0100
0001
0000
1000
0010
1000
0001
0010
0000
0100
0000
0010
0000
,
0002
0203
0320
2030
3001
1000
0001
0000
,
1000
0000
0001
0010
0001
0000
1000
0010
1000
0000
0001
0010
0100
0000
1000
0000
,
0001
0000
1000
0010
1000
0000
0001
0010
0001
0000
1000
0010
1000
0001
0010
0000
,
0001
0000
2000
0000
3001
0100
0001
2000
0000
0000
3100
0010
0100
1000
0001
0000
,
2002
3003
2002
3003
0110
0220
0330
0000
,
1000
0000
0100
0010
0100
0000
1000
0001
1000
0000
0010
0100
0010
1000
0002
0000
,
0010
0000
1000
0000
0100
0000
1000
0003
,
0001
0000
0010
0100
0010
0000
0001
1000
0001
0000
0100
0010
0100
0001
2000
0000
,
0100
0000
0001
0000
0010
0000
0001
3000
,
1000
0000
0010
0100
0010
0000
1000
0001
1000
0000
0100
0010
0100
1000
0002
0000
,
0100
0000
1000
0000
0010
0000
1000
0003
,
0001
0000
1000
0001
0100
0001
1000
0200
0000
0000
1300
0100
1000
0001
0100
0000
,
0220
0330
0220
0330
1001
2002
0000
0000
,
3003
0000
0000
0000
;

//---------------dance-single - MEGAtive----------------
#NOTES:
     dance-single:
     :
     Hard:
     16:
     0.677986,0.716977,0.448111,0.556744,0.729877,699.000000,633.000000,66.000000,82.000000,60.000000,0.000000,0.677986,0.716977,0.448111,0.556744,0.729877,699.000000,633.000000,66.000000,82.000000,60.000000,0.000000:
// measure 0
0000
0000
0000
0000
,  // measure 1
0000
0000
0000
0000
,  // measure 2
0001
0000
0001
1000
0000
0000
1010
0000
0000
0000
0000
1010
0000
0000
1000
0200
0000
0000
0302
0000
0000
0000
0000
0000
,  // measure 3
0103
0000
0100
1000
0000
0000
1001
0000
0000
0000
0000
0001
0100
0000
1000
0100
0000
0000
0010
0000
1000
0100
0000
0001
,  // measure 4
0100
0000
0000
1000
0000
0000
0010
0000
0000
0001
0000
0000
0020
0000
0000
0100
0000
0000
0200
0000
0330
0000
0000
0000
,  // measure 5
0010
0000
0000
1000
0000
0000
0200
0000
0000
0000
0000
0310
0100
0000
0100
0010
0000
0000
0001
0000
0000
0000
0000
0000
,  // measure 6
1000
0010
0100
0001
0020
0100
0130
0000
,  // measure 7
1000
0000
0010
0100
0000
0100
0010
0000
0000
1000
0000
0000
0001
0000
0010
0100
0000
0100
0010
0000
0000
0001
0000
0000
,  // measure 8
0100
0000
0000
0010
0000
0000
1000
0000
0000
0100
0000
0000
0020
0000
0000
0100
0000
0000
0200
0000
0330
0000
0000
0000
,  // measure 9
0010
0000
0000
0001
0000
0000
0200
0000
0000
0000
0000
0310
0100
0000
0100
0010
0000
0000
1000
0000
0000
0000
0000
0000
,  // measure 10
0001
0010
0100
1000
0020
0100
0130
0010
,  // measure 11
1000
0000
0000
0100
0000
0000
0010
0000
0000
0001
0000
0100
0010
0000
0010
0100
0000
0000
0001
1000
0100
0000
0000
0000
,  // measure 12
2100
0000
0000
0000
3001
0010
0000
0000
0000
0011
0000
0000
0001
0100
0010
0100
0000
0000
0110
0000
0000
0000
0000
0000
,  // measure 13
0102
0000
0000
0103
0000
0000
0101
0000
0000
0001
0000
0000
1000
0100
0010
0100
0000
0000
0110
0000
0000
0000
0000
0000
,  // measure 14
0012
0000
0000
0000
1003
0100
0000
0000
0000
1100
0000
0000
1000
0010
0100
0010
0000
0000
0110
0000
0000
0000
0000
0000
,  // measure 15
2010
0000
0000
3010
0000
0000
1010
0000
0000
1000
0000
0000
0001
0010
0100
0010
0000
0000
0110
0000
0000
0000
0000
0000
,  // measure 16
1100
0000
0100
0000
1000
0000
0001
0000
0100
0010
0000
0010
0100
0000
0000
0000
,  // measure 17
2010
0000
0010
0000
3010
0000
1000
0000
0100
0010
0000
0010
0100
0000
0000
0000
,  // measure 18
0011
0000
0010
0000
0001
0000
1000
0000
0010
0100
0000
0100
0010
0000
0000
0000
,  // measure 19
2002
0000
0000
0000
0000
0000
3003
0000
0000
0000
0000
0000
0000
0000
0000
0001
1000
0001
1000
0000
0000
0000
0000
0000
,  // measure 20
1010
0000
0000
0010
0000
1000
0002
0000
0000
0013
0000
0001
2000
0000
0000
3010
MMMM
0010
0100
0000
0100
1000
0000
0000
,  // measure 21
1100
0000
0000
0100
0000
1000
0002
0000
0000
0103
0000
0001
2000
0000
0000
3100
0010
0000
0100
MMMM
0100
0001
0000
0000
,  // measure 22
0101
0000
0000
0100
0000
0001
2000
0000
0000
3100
0000
1000
0100
MMMM
0100
0001
0000
0000
0101
0000
0001
1000
0000
0000
,  // measure 23
0200
0000
M000
0302
0000
0000
0203
0000
000M
0310
MMMM
0010
1000
0000
1000
0001
0000
0000
1001
0000
1000
0100
MMMM
0100
,  // measure 24
0001
0000
0000
0100
0000
0001
2000
0000
0000
3100
0000
1000
0002
0000
0000
0103
MMMM
0100
0010
0000
0010
0001
0000
0000
,  // measure 25
0011
0000
0010
0001
0000
0001
2000
0000
0000
3010
0000
1000
0002
0000
0000
0013
0100
0000
0010
MMMM
0010
1000
0000
0000
,  // measure 26
1010
0000
0000
0020
0000
0000
1030
0000
1000
0001
0000
0022
0000
0033
0000
0010
0001
0000
1001
0000
1000
0010
0000
0000
,  // measure 27
0220
0000
0000
0000
0030
0310
0100
0000
0000
0000
0000
0000
0101
0000
0000
2002
0000
0000
3003
0000
0000
0000
0000
0000
,  // measure 28
1010
0000
0000
1000
0000
0001
0010
0000
0010
1000
0000
1000
0010
0000
0000
0110
0000
0100
1000
0000
1000
0020
0000
0000
,  // measure 29
0130
0000
0000
0101
0000
0001
0100
0000
1000
0100
0000
0001
0100
0000
0000
0110
0000
0010
1000
0000
1000
0100
0010
0001
,  // measure 30
1000
0000
0000
0001
0000
1000
0010
0000
0010
0001
0000
0001
0010
0000
0000
0110
0000
0100
0001
0000
0001
1000
0000
0000
,  // measure 31
1100
0000
0000
0100
0000
0010
0100
0000
0000
1000
0000
0001
0100
0000
0010
0100
0000
0000
0220
0000
0000
0330
0000
0000
,  // measure 32
0101
0000
0000
0001
0000
1000
0100
0000
0100
0001
0000
0001
0100
0000
0000
0110
0000
0010
0001
0000
0001
0200
0000
0000
,  // measure 33
0310
0000
0000
1010
0000
1000
0010
0000
0001
0010
0000
1000
0010
0000
0000
0110
0000
0100
0001
0000
0001
0010
0100
1000
,  // measure 34
0001
0000
0000
1000
0000
0001
0100
0000
0100
1000
0000
1000
0100
0000
0000
0110
0000
0010
1000
0000
1000
0001
0000
0000
,  // measure 35
0011
0000
0000
0010
0000
0000
0001
0000
0001
1000
0000
0000
0010
0000
0010
0100
0000
0000
2002
0000
0000
3003
0000
0000
,  // measure 36
0001
1000
0100
0010
0200
0010
0310
0000
,  // measure 37
0100
0000
0000
1000
0000
0000
0020
0000
0000
0000
0000
0130
0010
0000
0010
0100
0000
0000
0001
0000
0000
0000
0000
0000
,  // measure 38
1000
0001
0010
0100
0020
0100
0130
1000
,  // measure 39
0001
0000
0100
0010
0000
0010
0100
0000
0000
0001
0000
0000
1000
0000
0100
0010
0000
0010
0100
0000
1000
0001
0000
0001
,  // measure 40
1000
0000
0000
0000
0000
0000
0100
0000
0000
0000
0000
0000
1000
0000
0000
0000
0000
0000
0001
0000
0000
0000
0000
0000
0100
0000
0000
0000
0010
0000
0100
0000
0000
0000
0100
0000
0010
0000
0000
1000
0000
0000
0001
0000
0000
0000
0000
0000
,  // measure 41
1000
0000
0000
0100
0000
0000
1000
0000
0000
0010
0000
0000
1000
0000
0001
0200
0000
0000
0301
0000
1000
0200
0000
0000
,  // measure 42
0310
0000
0001
0010
0000
0001
1000
0000
0010
1000
0000
0000
0010
0000
1000
0010
0000
1000
0001
0000
0010
0001
0000
0000
,  // measure 43
1000
0000
0100
0010
0000
0010
0100
0000
1000
0001
0000
0001
0100
0000
0100
0001
0000
0001
1000
0000
0000
0000
0000
0000
,  // measure 44
0001
0010
0001
0000
1000
0010
1000
0000
0002
0000
0010
0013
0000
0010
0001
1000
,  // measure 45
0010
0100
0010
1000
0100
0000
0010
0000
0100
1000
0001
0000
0100
0000
0000
0000
,  // measure 46
0001
0100
0001
0100
0001
0010
0100
0000
0000
0100
0010
0100
1000
0000
0001
0000
,  // measure 47
2002
0000
0000
0000
0000
0000
3003
0000
0000
0000
0000
0000
0000
0000
0000
0001
1000
0001
1000
0000
0000
0000
0000
0000
,  // measure 48
1100
0000
0000
1000
0000
0010
0200
0000
0000
0301
0000
0010
0200
0000
0000
0310
MMMM
0010
1000
0000
1000
0001
0000
0000
,  // measure 49
0101
0000
0000
0001
0000
0010
0200
0000
0000
1300
0000
0010
0200
0000
0000
0310
1000
0000
0100
MMMM
0100
0001
0000
0000
,  // measure 50
0011
0000
0000
0001
0000
0100
0020
0000
0000
1030
0000
0100
0010
MMMM
0010
1000
0000
0000
0101
0000
0100
0001
0000
0000
,  // measure 51
0020
0000
000M
2030
0000
0000
3020
0000
M000
0130
MMMM
0100
0001
0000
0001
0010
0000
0000
0011
0000
0001
0100
MMMM
0100
,  // measure 52
1000
0000
0000
0001
0000
0100
0020
0000
0000
1030
0000
0100
0020
0000
0000
0130
MMMM
0100
0001
0000
0001
1000
0000
0000
,  // measure 53
1010
0000
0010
1000
0000
0100
0020
0000
0000
0031
0000
0100
0020
0000
0000
0130
0001
0000
0100
MMMM
0100
1000
0000
0000
,  // measure 54
1100
0000
0000
0200
0000
0000
1300
0000
1000
0001
0000
0202
0000
0303
0000
0100
0001
0000
1001
0000
1000
0100
0000
0000
,  // measure 55
0220
0000
0000
0000
0300
0130
0010
0000
0000
0000
0000
0000
0011
0000
0000
2002
0000
0000
3003
0000
0000
0000
0000
0000
,  // measure 56
0011
0000
0000
0001
0000
0100
0020
0000
0000
1030
0000
0100
0020
0000
0000
0031
0000
0100
0010
0000
1000
0200
0000
0000
,  // measure 57
0010
0001
0010
1000
0010
0001
0010
1300
,  // measure 58
1010
0000
0000
1000
0000
0100
0020
0000
0000
0031
0000
0100
0020
0000
0000
1030
0000
0100
0010
0000
0001
0200
0000
0000
,  // measure 59
0010
1000
0010
0001
0010
1000
0010
0301
,  // measure 60
0011
0000
0000
0001
0000
0100
0020
0000
0000
1030
0000
0100
0020
0000
0000
0031
0000
0100
0010
0000
1000
0200
0000
0000
,  // measure 61
0010
0001
0010
1000
0010
0001
0010
1300
,  // measure 62
1010
0000
0000
1000
0000
0001
0010
0000
0010
0001
0000
0011
0000
0000
0000
0001
0000
1000
0010
0000
0010
1000
0000
0000
,  // measure 63
2200
0000
0000
0000
3000
1300
0100
0000
0000
0000
0000
0000
1001
0000
0000
2200
0000
0000
0000
0000
0000
0000
0000
0000
,  // measure 64
3300
0000
0000
0000
;
