#TITLE:First Level;
#SUBTITLE:;
#ARTIST:Captain Jeff (Kocmoc);
#TITLETRANSLIT:;
#SUBTITLETRANSLIT:;
#ARTISTTRANSLIT:;
#GENRE:;
#CREDIT:;
#MUSIC:First Level.ogg;
#BANNER:First Level-bn.png;
#BACKGROUND:First Level-bg.png;
#CDTITLE:;
#SAMPLESTART:54.167;
#SAMPLELENGTH:15.000;
#SELECTABLE:YES;
#OFFSET:0.101;
#BPMS:0.000=145.874;
#STOPS:;
#BGCHANGES:0.101=First Level.avi=1.000=0=0=1,
99999.000=-nosongbg-=1.000=0=0=0=StretchNoLoop====
;
#FGCHANGES:;

//--------------- dance-single - ----------------
#NOTES:
     dance-single:
     :
     Beginner:
     4:
     0.161144,0.229602,0.080001,0.568005,0,141,131,10,71,0,0,0.161144,0.229602,0.080001,0.568005,0,141,131,10,71,0,0:
0000
0000
0000
0000
,
0000
0000
0000
0000
,
0000
0000
0000
0000
,
0000
0000
0000
0000
,
0000
0000
0000
0000
,
1000
0000
1000
0000
,
0001
0000
0001
0000
,
0100
0000
0100
0000
,
0010
0000
0010
0000
,
1001
0000
0001
0000
,
1001
0000
1000
0000
,
0010
0000
0100
0000
,
0110
0000
0110
0000
,
1001
0000
0010
0000
,
0100
0000
0010
0000
,
1001
0000
0100
0000
,
0010
0100
0220
0030
,
1300
0000
1000
0000
,
1000
0000
1000
0001
,
0100
0000
0100
0000
,
0100
0000
0100
0010
,
1000
0000
1000
0000
,
1000
0000
1000
0001
,
0010
0000
0010
0000
,
0010
0000
0010
0001
,
0100
0000
0100
0000
,
0100
0000
0010
1000
,
0001
0000
0001
0000
,
0001
0000
0001
1000
,
0100
0000
0100
0000
,
0100
0000
0100
0010
,
0002
0000
2003
0000
,
3002
0000
1003
0001
,
0200
0000
0320
0000
,
2030
0000
3002
0000
,
2003
0000
3200
0000
,
2300
0000
3020
0000
,
0230
0000
0320
0000
,
2030
0000
3002
0000
,
0203
0000
0320
0000
,
2030
0000
3002
0000
,
0203
0000
0302
0000
,
0203
0000
0320
0000
,
2030
0000
3200
0000
,
2300
0000
3020
0000
,
0230
0000
0302
0000
,
2003
0000
3200
0000
,
2300
0000
3020
0000
,
0230
0000
0302
0000
,
2003
0000
0000
0000
,
3200
0000
0000
0000
,
0320
0000
0000
0000
,
0002
0000
0033
0000
,
0220
0000
0000
0000
,
0000
0000
0000
0000
,
0000
0000
0330
0000
,
0001
1000
2002
3003
,
0200
0000
0320
0000
,
2030
0000
3002
0000
,
2003
0000
3200
0000
,
0320
0000
0032
0000
,
0203
0000
0320
0000
,
2030
0000
3002
0000
,
0023
0000
0230
0000
,
2300
0000
0002
3003
,
0120
0000
2030
0000
,
3002
0000
0203
0000
,
0020
0000
0000
0000
,
0000
0000
0330
0000
,
2000
0000
3002
0000
,
0023
0000
0230
0000
,
0020
0000
0000
0330
;

//--------------- dance-single - ----------------
#NOTES:
     dance-single:
     :
     Easy:
     7:
     0.309717,0.401803,0.320003,0.328003,0.004,271,231,40,41,0,0,0.309717,0.401803,0.320003,0.328003,0.004,271,231,40,41,0,0:
0000
0000
0000
0000
,
0000
0000
0000
0000
,
0000
0000
0000
0000
,
0000
0000
0000
0000
,
0000
0000
0000
0000
,
0001
0100
0001
1000
,
0001
0100
0001
1000
,
0010
0100
0010
1000
,
0010
0100
0001
1000
,
1100
0010
0100
0010
,
0110
0100
1000
0010
,
0201
0010
0010
0010
,
0001
0001
0302
0103
,
0010
1000
0010
0100
,
0010
0001
0010
0100
,
1000
0001
0100
0010
,
1000
0002
0200
0303
,
0110
0100
0010
0100
,
0001
0100
0001
0100
,
0001
1000
0001
1000
,
0100
1000
0100
1000
,
0100
0010
0100
0010
,
0100
1000
0100
1000
,
0001
1000
0001
1000
,
0001
0010
0001
0010
,
0110
0100
1000
0100
,
0001
0000
0100
0000
1000
0000
0100
0010
,
0002
1000
1000
1000
,
1000
1000
1003
0100
,
1001
0100
0010
0001
,
0010
0000
0100
0000
1000
0000
0001
1000
,
0001
0010
0100
0010
,
0001
0000
1000
0000
0100
0010
0100
0000
,
2000
3001
0002
1003
,
0200
0310
0020
0130
,
1001
0100
0010
0011
,
1001
0010
0100
1100
,
0200
1300
0002
0013
,
2000
3100
0020
0031
,
1010
1000
0100
0010
,
0012
0000
0000
2003
0000
0000
3100
0000
,
0110
0100
0110
0010
,
1001
1000
1001
0010
,
0001
0010
0100
1010
,
1000
0100
0010
0011
,
0110
0100
0110
0010
,
1001
0001
1001
1000
,
1100
0100
0010
0011
,
1002
0000
0000
2003
0000
0000
3002
0000
0000
0000
0000
0000
0103
0000
0000
0000
,
0220
0000
0300
0000
,
2030
0000
0000
0000
,
3002
0000
0000
0000
,
0203
0000
0000
0310
,
0120
0000
0000
0000
,
2030
0000
0000
0010
,
3002
0000
0023
0000
,
0130
1000
2200
3300
,
0110
0001
0110
1000
,
1001
0010
1001
0100
,
0001
0010
0011
0001
,
0100
1000
1010
0010
,
1001
0100
1001
0010
,
0110
1000
0110
0001
,
1000
0010
1010
1000
,
0020
0000
0000
0230
0000
0000
0301
0000
,
0012
0000
0023
0000
,
0230
0000
2300
0000
,
0200
0000
0000
0000
,
0000
0000
3300
0000
,
2000
0000
3020
0000
,
0230
0000
0302
0000
,
2000
0000
0000
3003
;

//--------------- dance-single - ----------------
#NOTES:
     dance-single:
     :
     Medium:
     9:
     0.344003,0.401803,0.320003,0.488004,0.036,301,261,40,61,0,0,0.344003,0.401803,0.320003,0.488004,0.036,301,261,40,61,0,0:
0000
0000
0000
0000
,
0000
0000
0000
0000
,
0000
0000
0000
0000
,
0000
0000
0000
0000
,
0000
0000
0000
0000
,
1000
0000
1001
0000
0100
0010
0000
1000
,
0000
0001
0000
0020
0000
0032
0000
0103
,
0010
0000
1000
0000
0010
0200
0000
0302
,
0000
0000
2003
0000
0000
0000
3100
0000
1000
0000
0000
0100
0000
0000
0010
0000
,
0011
0000
0001
1000
0001
0000
1000
0100
,
1000
0000
0001
1000
0001
0000
0100
0010
,
0200
0001
0001
0001
,
0010
0000
0010
0000
0320
0000
0130
0010
,
1000
0000
1010
0000
1000
0200
0000
2300
,
0000
3002
0000
0203
0000
0320
0000
1030
,
0001
0000
0011
0000
0001
0200
0000
0320
,
0000
0230
0000
0302
0020
0000
0033
0000
,
1001
0000
0100
0000
1000
0000
0010
0100
,
0001
0000
0000
0000
1000
0000
0000
0000
0100
0000
0000
0010
0000
0000
0100
0000
,
0010
0000
0001
0000
0100
0000
0010
1000
,
0001
0000
0000
0000
0010
0000
0000
0000
0100
0000
0000
0010
0000
0000
0001
0000
,
1001
0000
0010
0000
0100
0000
1000
0001
,
0100
0000
0000
0000
0010
0000
0000
0000
1000
0000
0000
0001
0000
0000
1000
0000
,
0020
0000
1030
0001
0200
0000
0310
1000
,
0002
0000
0000
0000
1003
0000
0001
0000
0100
0000
0000
0010
0000
0000
0100
0000
,
0110
0000
0010
0000
1000
0000
0001
1000
,
0010
0000
0000
0000
0100
0000
0000
0000
0001
0000
0000
1000
0000
0000
0100
0000
,
0020
0001
0001
0001
,
0001
0000
0000
0000
0001
0000
0000
0000
0031
0000
0000
0010
0000
0000
0100
0000
,
1000
0000
1100
0000
0100
0000
0001
1000
,
0100
0000
0000
0000
0010
0000
0000
0000
0001
0000
0000
1000
0000
0000
0010
0000
,
0100
0000
0100
0001
0100
0000
0010
0100
,
0001
0000
0100
0010
1000
0001
2000
0000
,
3001
0101
1000
1100
,
0001
0101
1000
1100
,
0002
0010
1000
0103
,
2000
0010
0001
3100
,
1000
1010
0001
0011
,
1000
1010
0001
0011
,
2000
0010
0001
3100
,
0002
0000
1003
0020
0000
0130
0001
0000
,
1001
0001
0011
0001
,
1001
1000
1010
0010
,
0210
0001
0010
0301
,
0120
1000
0100
1030
,
1001
1000
1100
0100
,
0110
0010
0011
0001
,
2001
0100
0001
3010
,
0002
0000
0000
2003
0000
0000
0020
0000
0000
0000
3030
0000
0001
0000
0000
0000
,
2001
0000
0000
0000
,
3200
0000
0000
0000
,
0302
0000
0000
0000
,
0023
0000
2000
3030
,
2200
0000
0300
0000
,
3020
0000
0000
0000
,
0032
0000
0203
0000
,
2300
3200
0020
0330
,
0001
0011
1000
1010
,
0001
0011
1000
1010
,
1200
0010
1000
0310
,
0021
0100
0001
0130
,
1000
1100
0001
0101
,
1000
1100
0001
0101
,
0120
1000
0100
1030
,
0001
0000
0010
0200
0000
1300
0100
0000
,
0002
0000
0203
0000
,
2300
0000
3020
0000
,
0032
0000
0000
0000
,
0020
0000
0033
0000
,
2000
0000
3200
0000
,
0302
0000
0023
0000
,
0200
0000
0000
0330
;

//--------------- dance-single - ----------------
#NOTES:
     dance-single:
     :
     Hard:
     12:
     0.561147,0.631405,0.560004,0.328003,0.176001,491,421,70,41,0,0,0.561147,0.631405,0.560004,0.328003,0.176001,491,421,70,41,0,0:
0000
0000
0000
0000
,
0000
0000
0000
0000
,
0000
0000
0000
0000
,
0000
0000
0000
0000
,
0000
0000
0000
0000
,
1000
0100
1100
0000
1000
0001
0000
0101
,
0000
0010
0001
2001
0000
3002
0000
0103
,
0001
0100
0101
0000
0100
0120
0000
2030
,
0000
0000
3002
0000
0000
0000
0013
0000
0100
0000
1000
0100
0000
0000
0010
0000
,
0011
0000
1000
0001
0101
0000
1000
0001
,
0011
0000
1000
0100
0010
0001
1001
0000
,
0100
0010
0100
0010
0100
0010
0100
0010
,
0100
0001
0100
0001
0100
0010
0110
0000
,
0101
0000
0011
1000
0001
2001
0000
3002
,
0000
0103
0000
0120
0000
2030
0000
3010
,
1000
0001
0011
0000
0010
0210
0000
2300
,
0000
0000
3100
0000
0000
0000
1000
0000
0002
0000
0000
2003
0000
0000
3001
0000
,
0100
1000
0100
0010
0100
1000
0100
0010
,
0100
0001
0000
0010
0000
0000
0100
0000
1000
0000
0000
0010
0000
1000
0001
0000
,
0010
0100
0010
0001
0010
0100
0010
0001
,
1000
0000
0100
0000
0010
0000
0100
0010
0100
0000
0010
0001
0000
0000
1000
0000
,
1010
0000
0010
1000
0001
0000
0100
0000
0010
0000
1000
0000
0010
0000
0100
0000
,
0001
0000
1000
0000
0010
0000
0100
0000
0010
0000
1000
0010
0000
0000
0001
0000
,
0101
0100
0010
0100
0001
0100
1000
0100
,
0010
0000
1000
0000
0100
0000
0010
0001
1000
0000
0100
0010
0000
0000
0001
0000
,
0011
0000
0010
0001
1000
0000
0100
0000
0010
0000
0001
0000
1000
0000
0010
0000
,
0100
0010
0000
1000
0001
0000
0100
0000
0010
0000
1000
0010
0000
1000
0001
0000
,
0010
0001
0010
0001
0010
0100
0010
0100
,
1000
0000
0100
0000
1000
0000
0010
1000
0100
0000
0010
0001
0000
0000
0010
0000
,
0100
0000
0000
1000
0100
0000
0010
0000
0001
0000
1000
0000
0010
0000
0100
0000
,
0010
1000
0000
0001
0000
0000
0010
0000
0100
0000
1000
0001
0000
0000
1000
0000
,
2010
0000
3100
0010
0012
0000
0103
0010
,
1000
0000
0001
0000
0010
0000
0100
1000
0001
0000
1000
0000
1010
0000
0000
0000
,
1001
0100
0010
0001
1001
0010
0100
1000
,
1100
0100
0010
0001
0101
0100
0010
1000
,
1001
0000
0000
1000
0001
0000
0100
0000
0010
0000
0000
0000
1010
0000
0000
0000
,
1001
0000
0000
0001
1000
0000
0100
0000
0010
0000
0001
0000
0011
0000
0000
0000
,
1001
0010
0100
1000
1001
0100
0010
0001
,
0011
0010
0100
1000
1010
0010
0100
0001
,
1001
0000
0000
0001
0100
0000
0010
0000
0100
0000
0000
0000
0110
0000
0000
0000
,
0101
0000
1000
0002
0000
0103
0001
0000
,
1100
1000
0100
0010
0011
0001
0010
0100
,
0110
0010
0100
1000
1001
0001
0100
0010
,
1010
0000
0000
1000
0100
0000
0010
0000
0001
0000
0000
0000
1100
0000
0000
0000
,
0011
0000
0000
0001
0100
0000
0010
0000
1000
0000
0001
0000
0101
0000
0000
0000
,
0011
0001
0010
0100
1100
1000
0100
0010
,
0110
0100
0010
0001
1001
1000
0010
0100
,
0101
0000
0000
0001
1000
0000
0010
0000
0100
0000
0000
0000
0101
0000
0000
0000
,
0012
0000
0000
2003
0000
0000
3010
0000
0100
0000
0001
0000
1000
0000
0100
0000
,
0020
0000
0000
0000
,
0032
0000
0000
1003
,
0200
0000
0000
0310
,
0002
0000
0103
0010
,
2010
0000
0001
0000
,
3200
0000
0010
0000
,
0302
0203
2300
3200
,
0301
0100
0010
0000
0220
0000
0330
0000
,
0011
0001
0010
0100
1100
1000
0100
0010
,
0110
0100
1000
0010
0110
0100
0001
0010
,
0110
0000
0000
0001
1000
0000
0100
0000
0010
0000
0000
0000
0011
0000
0000
0000
,
0110
0000
0000
0001
1000
0000
0001
0000
1000
0000
0010
0000
1010
0000
0000
0000
,
1100
1000
0100
0010
0011
0001
0010
0100
,
0110
0010
0001
0100
0110
0010
1000
0100
,
0110
0000
0000
1000
0100
0000
0010
0000
0001
0000
0000
0000
0110
0000
0000
0000
,
1000
0100
0010
0002
0000
0103
0010
0000
,
1002
0000
0203
0000
,
2300
0000
3020
0000
,
0130
0000
0010
0000
0100
0000
0000
0010
0000
0000
0100
0000
0000
0010
0000
0010
,
1000
0001
1000
0000
0001
1000
0000
0001
0000
1000
0001
0000
1000
0000
0000
0001
,
2000
0000
3200
0000
,
0302
0000
0020
0033
,
0220
0000
0000
0330
;

//--------------- dance-single - ----------------
#NOTES:
     dance-single:
     :
     Challenge:
     15:
     0.744006,0.889707,0.320003,0.168001,0.652005,651,611,40,21,0,0,0.744006,0.889707,0.320003,0.168001,0.652005,651,611,40,21,0,0:
0000
0000
0000
0000
,
0000
0000
0000
0000
,
0000
0000
0000
0000
,
0000
0000
0000
0000
,
0000
0000
0000
0000
,
1000
0100
0010
0000
0001
0010
0100
0000
1000
0000
1001
0000
0001
0000
1000
0001
,
0100
0000
0001
1000
0100
0000
0010
0001
1000
0000
0001
0100
0010
0000
1000
0000
,
0010
1000
0001
0000
0010
0001
1000
0000
0100
0000
0110
0000
0010
0000
0001
0010
,
0100
0000
1000
0100
0010
0000
0001
0000
1001
0000
1000
0100
0000
0010
0001
0000
,
0110
0000
0100
0000
1000
0000
0100
1000
0001
0000
0010
0000
0100
0000
1000
0001
,
0010
0000
0001
0000
0100
0000
0010
1000
0100
0000
0001
0000
0100
0000
0010
0000
,
1000
0100
1000
0000
0100
0010
0100
0000
1000
0100
1000
0000
0100
0010
0100
0000
,
0010
0001
0010
0000
0100
0010
0100
0000
0010
0001
0010
0000
0100
0010
0001
1000
,
0010
1000
0001
0000
0010
0001
1000
0000
0001
0000
1001
0000
1000
0000
0010
0100
,
0001
0000
0010
0100
1000
0000
0001
1000
0010
0000
1000
0001
0010
0000
0100
0000
,
1000
0001
0100
0000
0001
1000
0100
0000
0010
0000
0110
0000
0100
0000
1000
0001
,
0100
0000
0001
1000
0100
0000
0010
0000
0021
0000
0000
1000
0000
0000
0130
0000
,
0110
0000
0010
0100
1000
0000
0001
0000
1000
0000
0010
0000
0100
0000
0001
0000
,
0010
0100
0000
2000
0000
0000
3010
0000
0100
0000
0010
1000
0000
0100
0010
0000
,
0011
0001
0010
0100
0010
0001
0010
0100
,
1000
0001
0000
0100
0000
0010
1000
0001
0100
0000
0010
1000
0000
0001
0010
0000
,
0110
0000
0001
0010
0100
0000
1000
0000
0100
0000
0010
0000
0001
0000
1000
0000
,
0010
1000
0010
0000
0100
0000
0001
0000
1000
0000
0100
0010
0000
0001
1000
0000
,
1001
0000
0000
0100
0010
0000
1000
0000
0001
0000
0000
0010
0100
0000
1000
0001
,
0010
0000
0000
1000
0010
0000
0001
1000
0100
0000
0010
0001
0000
0000
1000
0000
,
1001
0000
0001
0010
0100
0000
1000
0000
0100
0000
0010
0000
0001
0000
1000
0000
,
0100
0010
0000
0002
0000
0000
1003
0000
0010
0000
0100
0001
0000
1000
0010
0000
,
1000
0100
1000
0100
1000
0100
1000
0100
0010
0100
0010
0100
0010
0100
0010
0100
,
0010
0001
0010
0001
0010
0001
0010
0001
0010
0100
1000
0001
0100
0010
1000
0001
,
0101
0000
0001
0100
0010
0000
1000
0000
0010
0000
0100
0000
0001
0000
1000
0000
,
0100
0000
0001
0000
0100
0000
1000
0000
0010
0000
1000
0010
0000
0001
0010
0000
,
1000
0000
0100
0000
0010
0000
0001
1000
0010
0000
0100
0000
0001
0000
1000
0100
,
0010
0000
0001
0000
1000
0000
0010
0100
0001
0000
1000
0000
0012
0000
0000
0000
,
1003
0100
0010
0000
0001
0000
1000
0000
0010
0100
0001
0000
0010
0000
0100
0000
,
1000
0001
0010
0000
0100
0000
1000
0000
0010
1000
0001
0000
0100
0000
0010
0000
,
1010
0000
1000
0100
0010
0000
0001
0000
0010
0000
0100
0000
1100
0000
0000
0000
,
0011
0000
0001
0100
0010
0000
1000
0100
0010
0000
0001
0000
0101
0000
0000
0000
,
1000
0001
0100
0000
0010
0000
1000
0000
0010
0100
0001
0000
1000
0000
0100
0000
,
0010
0001
0100
0000
0001
0000
1000
0000
0100
0010
0001
0000
0010
0000
0100
0000
,
1100
0000
1000
0100
0010
0000
0001
0000
1000
0000
0010
0000
1010
0000
0000
0000
,
0101
0000
0000
0010
0000
0000
2010
0000
0000
0000
3001
0000
0101
0000
0000
0000
,
1000
0001
0100
0001
0010
0000
0100
0000
1000
0010
0100
0010
1000
0000
0100
0000
,
0010
0100
1000
0100
0010
0000
0001
0000
1000
0010
0100
0001
1000
0000
0010
0000
,
1010
0000
0000
0001
1000
0000
0000
1000
0010
0000
1000
0000
1100
0000
0000
0000
,
0011
0000
0001
0010
0100
0000
1000
0001
0010
0000
0001
0000
0101
0000
0000
0000
,
1000
0010
0100
0001
0010
0000
0100
0000
1000
0100
0010
0001
1000
0000
0010
0000
,
0100
0001
1000
0100
0010
0000
0100
0000
1000
0100
0010
0001
0010
0000
0100
0000
,
1100
0000
1000
0001
0100
0000
0010
0000
1000
0000
0001
0000
0011
0000
0010
0000
,
0100
0010
0000
0001
0010
0000
0001
0000
0100
0000
0010
0000
1000
0000
0001
0000
,
0011
0000
0010
0000
0001
0000
0010
0001
0000
0010
0001
0000
0000
0001
0000
0001
,
0100
0000
0010
0000
0100
0000
0010
0100
0000
0010
0100
0000
0000
0010
0000
1000
,
0010
1000
0000
0010
1000
0000
0010
1000
0000
0010
1000
0000
0010
1000
0000
0001
,
0010
0100
1000
0000
0010
0000
0100
0010
0000
1000
0000
0010
0100
0000
0001
0000
,
1001
0000
1000
0000
0100
0000
0010
0100
0000
0010
0100
0000
1000
0000
0100
0010
,
0001
0000
0010
0000
0001
0000
0010
0100
0000
0010
0001
0000
1000
0000
0001
1000
,
0100
0010
0001
1000
0100
0010
0001
1000
0010
0100
0001
1000
0100
1000
0001
0100
,
0001
0010
0100
1000
0001
0000
1000
0000
0220
0000
0000
0000
0330
0000
0000
0000
,
1000
0001
0100
0010
1000
0000
0100
0000
0010
0001
0100
0010
1000
0000
0100
0000
,
0010
0100
1000
0001
0010
0000
0100
0000
1000
0001
0100
0010
1000
0000
0001
0000
,
1001
0000
0000
1000
0001
0000
0010
0000
0100
1000
0010
0000
1010
0000
0000
0000
,
1001
0000
0001
1000
0100
0000
0010
0100
1000
0000
0001
0000
0011
0000
0000
0000
,
1000
0010
0100
0010
1000
0000
0100
0000
0010
0001
1000
0001
0010
0000
0100
0000
,
1000
0001
0100
0010
1000
0000
0100
0000
0010
0001
1000
0100
0010
0000
0001
0000
,
0011
0000
0010
0100
1000
0000
0001
0000
0100
0000
0010
0000
1010
0000
1000
0000
,
0100
0010
0100
0000
0010
0000
0001
0010
0001
0000
0100
0000
0010
1000
0001
0010
,
0200
0310
0020
0031
,
0002
1003
2000
3100
,
1001
0000
0001
0000
1000
0000
0001
1000
0000
0001
1000
0000
0001
1000
0000
1000
,
0100
0010
0100
0000
0010
0100
0000
0010
0000
0100
0010
0000
0100
0000
0000
0100
,
0020
0000
0032
0000
,
0203
0000
2000
3300
,
0220
0000
0000
0330
;
