#TITLE:FLY LIKE A BUTTERFLY;
#SUBTITLE:;
#ARTIST:長沼英樹;
#TITLETRANSLIT:;
#SUBTITLETRANSLIT:;
#ARTISTTRANSLIT:HIDEKI NAGANUMA;
#GENRE:DRUM 'N BASS;
#CREDIT:;
#BANNER:flylikeabutterfly.png;
#BACKGROUND:flylikeabutterfly-bg.png;
#LYRICSPATH:;
#CDTITLE:cdtitle.png;
#MUSIC:flylikeabutterfly.ogg;
#OFFSET:-0.325716;
#SAMPLESTART:44.870956;
#SAMPLELENGTH:13.714000;
#SELECTABLE:YES;
#BPMS:0.000000=140.000290
;
#STOPS:
;
#BGCHANGES:;
#KEYSOUNDS:;
#ATTACKS:;

//---------------dance-single - ----------------
#NOTES:
     dance-single:
     :
     Hard:
     15:
     0.644276,0.684464,0.292392,0.115185,0.739842,509.000000,476.000000,33.000000,13.000000,4.000000,0.000000,0.644276,0.684464,0.292392,0.115185,0.739842,509.000000,476.000000,33.000000,13.000000,4.000000,0.000000:
// measure 0
0000
0000
0000
0000
,  // measure 1
0000
0000
0000
0000
,  // measure 2
0000
0000
0000
0000
,  // measure 3
0000
0000
0000
0000
,  // measure 4
2000
0000
0000
0000
0000
0000
0000
0000
0000
0000
0000
0000
0000
0000
3010
0100
,  // measure 5
0010
0100
0002
0000
0000
0000
0000
0000
0000
0000
0000
0000
0000
0000
0000
0000
,  // measure 6
0023
0000
0000
0000
0000
0000
0000
0000
0000
0000
0000
0000
0000
0000
0130
1000
,  // measure 7
0100
1000
0002
0000
0000
0000
0000
0000
0000
0000
0000
0000
0003
0000
0000
0000
,  // measure 8
0011
0000
0000
0000
0010
0000
0000
0010
0000
0100
0001
0100
1000
0000
2000
0000
,  // measure 9
0000
0000
0000
3000
0000
0000
0000
0000
,  // measure 10
0010
0000
0010
1000
0000
0001
0100
0010
0000
0100
1000
0100
0001
0000
0002
0000
,  // measure 11
0000
0000
0000
0003
0000
0000
0000
0000
,  // measure 12
0101
0000
1000
0000
0100
0000
0000
0100
0000
0001
0100
1000
0100
0000
0010
0000
,  // measure 13
0001
0000
0001
0000
0000
1000
0010
0100
0000
1000
0100
0001
0100
0000
0010
0000
,  // measure 14
1010
0000
0001
0000
0010
0000
0000
0010
0000
1000
0010
0001
0010
0000
0100
0000
,  // measure 15
1000
0000
1000
0000
0000
0001
0100
0010
0000
1000
0010
0001
0010
0000
1000
0000
,  // measure 16
0001
0000
0001
0010
0001
0000
0001
1000
0001
0000
0001
0100
0000
1000
0000
1000
,  // measure 17
0100
0000
0010
0100
0001
0000
1000
0100
0010
0001
0010
0000
0110
0000
0000
0000
,  // measure 18
1100
0000
1000
0000
0001
0000
0000
0001
0000
0010
0001
0010
0100
0000
1000
0000
,  // measure 19
0001
0000
0001
0100
0000
1000
0100
0001
0000
0100
0010
1000
0010
0000
0100
0000
,  // measure 20
0101
0000
0001
0000
1000
0000
0000
1000
0000
0010
1000
0010
0100
0000
0001
0000
,  // measure 21
1000
0000
1000
0100
0000
0001
0100
1000
0000
0100
0010
0001
0010
0000
0100
0000
,  // measure 22
1100
0000
0001
0000
0100
0000
0000
0100
0000
0010
1000
0010
0100
0000
0001
0000
,  // measure 23
1000
0000
1000
0100
0000
0001
0100
1000
0000
0100
0010
0001
0010
0000
0100
0000
,  // measure 24
1100
0000
0000
1001
0000
0000
0101
0000
0000
0000
0110
0000
0000
1010
0000
0000
,  // measure 25
0001
0000
0001
0000
0010
0100
0010
0100
1000
0000
1000
0000
1000
0000
0000
0000
,  // measure 26
1010
0000
0000
1000
0001
0000
0100
0000
0010
0000
0100
1000
0000
0100
0001
0000
,  // measure 27
0101
0000
0000
0001
1000
0000
0100
0000
0010
0000
0100
0001
0000
0100
1000
0000
,  // measure 28
1100
0000
0000
1000
0001
0000
0100
0000
0010
0000
0100
1000
0000
0100
0001
0000
,  // measure 29
0101
0000
0000
0001
1000
0000
0100
0000
0010
0001
0010
0100
1000
0001
0100
0000
,  // measure 30
0101
0000
0000
0001
1000
0000
0010
0000
0100
0000
0010
0001
0000
0010
1000
0000
,  // measure 31
1010
0000
0000
1000
0001
0000
0010
0000
0100
0000
0010
1000
0000
0010
0001
0000
,  // measure 32
0011
0000
0000
0001
1000
0000
0010
0000
0100
0000
0010
1000
0000
0001
1000
0001
,  // measure 33
1000
0000
0010
0000
0010
1000
0001
1000
0001
0000
0010
0000
0001
0010
0100
1000
,  // measure 34
0002
0010
0010
0000
,  // measure 35
1003
0010
0001
1000
0100
0001
0000
0000
,  // measure 36
2000
0010
0010
0000
,  // measure 37
3001
0010
1000
0001
0100
1000
1100
0000
,  // measure 38
1000
0100
0010
0000
0010
0000
0001
0100
0010
0000
0001
0010
0000
1000
0010
0000
,  // measure 39
0100
0001
0010
0000
0010
0000
0100
1000
0010
0000
0100
1000
0000
0100
0001
0000
,  // measure 40
1000
0100
1000
0100
0010
0000
0001
0000
0010
0000
0100
0001
0000
0100
1000
0000
,  // measure 41
0001
0100
0001
0100
0010
0000
1000
0000
0001
0010
0100
1000
0000
0001
0000
0000
,  // measure 42
1001
0000
1000
0001
0000
0001
0000
0001
0000
0001
0000
0001
0000
0001
0000
0001
,  // measure 43
0100
1000
0010
0001
1000
0010
0001
0100
,  // measure 44
1000
0000
0001
1000
0000
1000
0000
1000
0000
1000
0000
1000
0000
1000
0000
1000
,  // measure 45
0100
0001
0010
1000
0001
0010
1000
0100
,  // measure 46
0002
0000
0000
0000
,  // measure 47
2003
0000
0000
0000
0000
0000
0000
0000
0000
0000
0000
0000
3000
0000
0010
0100
,  // measure 48
0010
0100
0020
0000
0000
0000
0000
0000
0000
0000
0000
0000
0000
0000
0000
0000
,  // measure 49
0230
0000
0000
0300
,  // measure 50
0001
0000
1000
0000
M010
0000
0000
001M
0000
0001
0010
0100
1000
0000
0001
0000
,  // measure 51
1000
0000
1000
0000
0000
0001
0000
0001
0000
1000
0010
0100
0001
0000
0001
0000
,  // measure 52
1000
0000
0001
0000
001M
0000
0000
M010
0000
1000
0010
0100
0001
0000
0001
0000
,  // measure 53
0000
0000
1000
0100
0010
0001
0110
0000
,  // measure 54
1100
0000
0000
1000
0001
0000
0100
0000
0010
0000
0100
1000
0000
0100
0001
0000
,  // measure 55
0101
0000
0000
0001
1000
0000
0100
0000
0010
0000
0100
0001
0000
0100
1000
0000
,  // measure 56
1100
0000
0000
1000
0001
0000
0100
0000
0010
0000
0100
1000
0000
0100
0001
0000
,  // measure 57
0101
0000
0000
0001
1000
0000
0100
0000
0010
0001
0010
0100
1000
0001
0100
0000
,  // measure 58
0101
0000
0000
0001
1000
0000
0010
0000
0100
0000
0010
0001
0000
0010
1000
0000
,  // measure 59
1010
0000
0000
1000
0001
0000
0010
0000
0100
0000
0010
1000
0000
0010
0001
0000
,  // measure 60
0011
0000
0000
0001
1000
0000
0010
0000
0100
0000
0010
1000
0000
0001
1000
0001
,  // measure 61
1000
0000
0010
0000
0010
1000
0001
1000
0001
0000
0010
0000
0001
0010
0100
1000
,  // measure 62
0100
0000
0000
0110
0000
0000
0011
0000
0000
0000
0110
0000
0000
1100
0000
0000
,  // measure 63
0001
0000
0100
0010
0000
0010
1000
0000
0100
0010
0000
0010
0001
0000
1000
0010
,  // measure 64
0100
0001
0020
0000
0000
0000
0030
0000
0000
0000
0000
0000
0000
0000
0000
0000
;

//---------------dance-single - ----------------
#NOTES:
     dance-single:
     :
     Medium:
     9:
     0.401249,0.483887,0.327834,0.177208,0.124045,317.000000,280.000000,37.000000,20.000000,0.000000,0.000000,0.401249,0.483887,0.327834,0.177208,0.124045,317.000000,280.000000,37.000000,20.000000,0.000000,0.000000:
0000
0000
0000
0000
,
0000
0000
0000
0000
,
0000
0000
0000
0000
,
0000
0000
0000
0000
,
2000
0000
0000
0000
0000
0000
0000
3001
,
0020
0000
0000
0000
,
0032
0000
0000
0000
0000
0000
0000
0103
,
0020
0000
0000
0030
,
1000
0010
0001
0010
1000
0000
0001
0020
,
0000
0000
0030
0000
,
0100
1000
0100
0001
0100
0000
1000
0002
,
0000
0000
0003
0000
,
1000
0000
0010
0000
0100
0000
0000
0010
0000
0000
0001
0000
0010
0000
1000
0000
,
0001
0000
0010
0000
0100
0000
0000
0010
0000
0000
1000
0000
0010
0000
0001
0000
,
1000
0000
0100
0000
0010
0000
0000
0100
0000
0000
0001
0000
0100
0000
1000
0000
,
0001
0000
0100
0000
0010
0000
0000
0100
0000
0000
1000
0000
0100
0000
0001
0000
,
1000
0000
1000
0000
0001
0000
0001
0000
1000
0000
1000
0000
0000
0010
0000
0010
,
0100
0100
0100
0000
0001
1000
1001
0000
,
1010
0000
0000
0000
1000
0000
0000
1000
0000
0000
0000
0000
0010
0000
0100
0000
,
1000
0000
0100
0000
0001
0000
0000
0220
0000
0000
0000
0000
0330
0000
0000
0000
,
0101
0000
0000
0000
0001
0000
0000
0001
0000
0000
0000
0000
0010
0000
0100
0000
,
0001
0000
0100
0000
1000
0000
0000
0220
0000
0000
0000
0000
0330
0000
0000
0000
,
1100
0000
0000
0000
0001
0000
0000
0001
0000
0000
0000
0000
0100
0000
0010
0000
,
1000
0000
0010
0000
0001
0000
0000
0220
0000
0000
0000
0000
0330
0000
0000
0000
,
1010
0000
0000
0011
0000
0000
1000
0100
,
0001
0100
1000
0000
0001
0100
0010
0000
,
1010
0000
0001
0010
0000
1100
0000
0100
,
0010
0000
0001
1000
0000
1010
0000
0100
,
0001
0000
1000
0100
0000
0011
0000
0010
,
0100
0000
1000
0001
0000
0100
0100
0100
,
0101
0000
1000
0100
0000
0011
0000
0010
,
0100
0000
1000
0001
0000
0101
0000
0010
,
1000
0000
0001
0010
0000
1100
0000
0001
,
0000
0100
0100
0100
0000
0010
0010
0010
,
2000
0000
0000
0000
,
3001
0010
1000
0001
0100
1000
0000
0000
,
0002
0000
0000
0000
,
1003
0010
0001
1000
0100
0001
0101
0000
,
0011
0000
0000
1001
0000
0000
0001
0010
,
1100
0000
0000
1001
0000
0000
1000
0001
,
0000
0100
0010
1000
0000
0010
0001
0010
,
0000
1000
0010
0100
0000
1001
0000
0000
,
0001
0000
1000
0000
0000
0010
0000
0010
0000
0010
0000
0010
0000
0010
0000
0010
,
0000
0000
1000
0100
0001
0010
1000
0000
,
1000
0000
0001
0000
0000
0010
0000
0010
0000
0010
0000
0010
0000
0010
0000
0010
,
0000
0000
0001
0100
1000
0010
0001
0000
,
2000
0000
0000
0000
,
3002
0000
0000
0000
0000
0000
0003
0010
,
0200
0000
0000
0000
,
2300
0000
0000
3000
,
0001
0000
0100
0000
0010
0000
0000
0110
0000
0000
0000
0000
0001
0000
1000
0000
,
0100
0000
0010
0000
0100
0000
0000
0110
0000
0000
0000
0000
1000
0000
0001
0000
,
0100
0000
0010
0000
1000
0000
0000
0110
0000
0000
0000
0000
0001
0000
1000
0000
,
0000
0000
0001
0010
0100
1000
0010
0000
,
1010
0000
0001
0010
0000
1100
0000
0100
,
0010
0000
0001
1000
0000
1010
0000
0100
,
0001
0000
1000
0100
0000
0011
0000
1000
,
0010
0000
0100
0001
1000
0100
0010
0000
,
0011
0000
1000
0010
0000
0101
0000
0100
,
0010
0000
1000
0001
0000
0011
0000
0100
,
1000
0000
0001
0100
0000
1010
0000
0010
,
0010
0010
0000
0100
0100
0100
0000
0000
,
0101
0000
0000
0000
0000
0000
1001
0000
0000
0000
1000
0000
0000
1000
0000
0000
,
0100
0100
0000
0010
0010
0000
0001
1000
,
2002
3003
0000
0000
;

//---------------dance-single - ----------------
#NOTES:
     dance-single:
     :
     Easy:
     5:
     0.265811,0.370032,0.212649,0.097464,0.026581,210.000000,186.000000,24.000000,11.000000,0.000000,0.000000,0.265811,0.370032,0.212649,0.097464,0.026581,210.000000,186.000000,24.000000,11.000000,0.000000,0.000000:
0000
0000
0000
0000
,
0000
0000
0000
0000
,
0000
0000
0000
0000
,
0000
0000
0000
0000
,
2000
0000
0000
3000
,
0002
0000
0000
0003
,
0020
0000
0000
0030
,
0200
0000
0000
0300
,
1100
0000
0001
0000
0010
0000
0001
1000
,
0000
0000
0000
0000
,
0100
0000
1000
0000
0010
0000
1000
0001
,
0000
0000
0000
0000
,
0101
0000
1000
0000
0010
0000
1000
0100
,
0010
0001
1000
0000
,
1100
0000
0001
0000
0010
0000
0001
0100
,
0010
1000
0001
0000
,
1000
1000
1000
0000
,
0001
0001
0001
0011
,
1000
0100
0001
0100
,
0010
0001
1000
0000
,
0001
0100
1000
0100
,
0010
1000
0001
0000
,
1000
0010
0001
0010
,
0100
0001
1000
0000
,
0011
0000
0000
1001
0000
0000
0000
0000
,
1000
0100
0001
0100
,
1100
0000
1000
0001
,
0101
0000
0001
1000
,
1100
0000
0100
0010
,
0110
0000
0000
0000
0001
0001
0001
0000
,
0011
0000
0001
1000
,
1010
0000
1000
0001
,
0011
0000
0010
0100
,
1000
1000
1000
0000
0001
0001
0001
0000
,
2000
0000
0000
0000
,
3001
0010
1000
0010
,
0002
0000
0000
0000
,
1003
0010
0001
0110
,
0001
0100
0010
1000
,
1000
0100
0010
0001
,
1000
0010
0001
0010
,
1000
0100
0001
0100
,
1000
0000
0001
0000
0000
0010
0000
0000
0000
0010
0000
0000
0000
0010
0000
0000
,
0001
0100
1000
0010
,
0001
0000
1000
0000
0000
0010
0000
0000
0000
0010
0000
0000
0000
0010
0000
0000
,
1000
0100
0001
0010
,
2000
0000
0000
0000
,
3000
0000
0000
0000
,
0002
0000
0000
0000
,
0003
0000
0000
0000
,
1000
0100
0010
0000
,
0001
1000
0000
0010
0100
0000
0000
0000
,
0001
0100
0010
0000
,
0000
1000
0001
0220
,
0330
0000
1000
0001
,
0101
0000
0001
1000
,
1100
0000
0100
0010
,
0110
0000
0000
0000
0001
0001
0001
0000
,
0011
0000
0001
1000
,
1010
0000
1000
0001
,
0011
0000
0010
0100
,
1000
1000
1000
0000
0001
0001
0001
0000
,
1001
0000
0000
0110
0000
0000
1001
0000
,
1000
0100
0001
0010
,
2000
3000
0000
0000
;

//---------------dance-single - ----------------
#NOTES:
     dance-single:
     :
     Beginner:
     4:
     0.174676,0.255179,0.159487,0.053162,0.000000,138.000000,120.000000,18.000000,6.000000,0.000000,0.000000,0.174676,0.255179,0.159487,0.053162,0.000000,138.000000,120.000000,18.000000,6.000000,0.000000,0.000000:
0000
0000
0000
0000
,
0000
0000
0000
0000
,
0000
0000
0000
0000
,
0000
0000
0000
0000
,
2000
0000
0000
0000
,
3000
0000
0000
0000
,
0002
0000
0000
0000
,
0003
0000
0000
0000
,
1000
1000
1000
1000
,
0000
0000
0000
0000
,
0001
0001
0001
0001
,
0000
0000
0000
0000
,
0100
0100
0100
0000
,
0010
0010
0010
0000
,
1000
1000
1000
0000
,
0001
0001
0001
0000
,
0100
0100
0100
0000
,
0010
0000
1001
0000
,
1000
1000
1000
0000
,
0010
0010
0010
0000
,
1000
1000
1000
0000
,
0001
0001
0001
0000
,
0010
0010
0010
0000
,
0001
0001
0001
0000
,
0110
0000
1001
0000
,
1000
1000
1000
0000
,
0110
0000
0001
0000
,
0110
0000
1000
0000
,
0110
0000
0001
0000
,
1000
0000
0100
0100
,
0100
0000
1000
0000
,
0110
0000
0001
0000
,
0110
0000
1000
0000
,
0100
0000
0010
0000
,
0002
0000
0000
0000
,
0003
0000
0000
0000
,
2000
0000
0000
0000
,
3000
0000
0000
0000
,
1000
0000
1000
0000
,
0001
0000
0001
0000
,
0100
0000
0010
0000
,
0100
0000
0001
0000
,
1000
1000
1000
1000
,
2000
0000
3000
0000
,
0001
0001
0001
0001
,
0002
0000
0003
0000
,
0110
0000
0000
0000
,
0000
0000
0000
0000
,
1001
0000
0000
0000
,
0000
0000
0000
0000
,
1000
1000
1000
0000
,
0001
0001
0001
0000
,
0010
0010
0010
0000
,
0000
0000
0000
0000
,
0110
0000
1000
0000
,
0110
0000
0001
0000
,
0110
0000
1000
0000
,
0001
0000
0100
0100
,
0100
0000
0001
0000
,
0110
0000
1000
0000
,
0110
0000
0001
0000
,
0100
0000
0010
0000
,
1001
0000
0110
0000
,
1000
0000
0001
0000
,
0110
0000
0000
0000
;
