#TITLE:Driven Shooter;
#SUBTITLE:;
#ARTIST:猫叉Master+;
#TITLETRANSLIT:;
#SUBTITLETRANSLIT:;
#ARTISTTRANSLIT:Nekomata Master+;
#GENRE:;
#CREDIT:;
#MUSIC:Driven Shooter.ogg;
#BANNER:Driven Shooter.png;
#BACKGROUND:Driven Shooter-bg.png;
#CDTITLE:./CDTITLES/GUITAR FREAKS & DRUMMANIA.PNG;
#SAMPLESTART:57.600;
#SAMPLELENGTH:15.000;
#SELECTABLE:YES;
#OFFSET:0.000;
#BPMS:0.000=175.000;
#STOPS:;
#BGCHANGES:4.000=Driven Shooter.avi=1.000=0=0=0=StretchNoLoop====,
99999.000=-nosongbg-=1.000=0=0=0=StretchNoLoop====
;
#FGCHANGES:;

//--------------- dance-single - t7r ----------------
#NOTES:
     dance-single:
     t7r:
     Beginner:
     4:
     0,0,0,0,0:
0000
0000
0000
0000
,
0000
0000
0000
0000
,
0000
0000
0000
0000
,
0000
0000
0000
0000
,
0000
0000
0000
0000
,
0000
0000
0000
0000
,
0000
0000
0000
0000
,
0000
0000
0000
0000
,
0000
0000
0000
0000
,
0000
0000
0000
0000
,
0010
0000
0000
0000
,
0010
0000
0000
0000
,
0100
0000
0000
0000
,
0100
0000
0000
0000
,
0001
0000
0000
0000
,
0001
0000
0000
0000
,
1000
0000
1000
0000
,
1000
0000
0000
0000
,
0001
0000
0000
0000
,
0001
0000
0000
0000
,
0010
0000
0000
0000
,
0010
0000
0000
0100
,
0100
0000
0000
1000
,
1000
0000
0000
0001
,
0001
0000
0001
0000
,
0001
0000
0000
0000
,
1000
0000
0000
0010
,
0010
0000
0010
0000
,
0010
0000
0000
0100
,
0100
0000
0100
0000
,
0100
0000
0000
0001
,
0001
0000
0001
0000
,
0001
0000
0000
0000
,
0000
0000
0000
0000
,
1000
0000
0000
0100
,
0100
0000
0100
0000
,
0100
0000
0000
0010
,
0010
0000
0010
0000
,
0010
0000
0000
1000
,
1000
0000
1000
0000
,
1000
0000
0000
0000
,
0000
0000
0000
0000
,
0001
0000
0001
0000
,
0001
0001
0001
0000
,
1000
0000
1000
0000
,
1000
1000
1000
0000
,
0010
0000
0010
0000
,
0010
0010
0010
0000
,
0100
0000
0100
0000
,
0100
0100
0100
0000
,
0001
0000
0000
0000
,
1000
1000
1000
1000
,
1000
0000
0000
0000
,
0010
0010
0010
0010
,
0010
0000
0000
0000
,
0100
0100
0100
0100
,
0100
0000
0000
0000
,
0001
0001
0001
0001
,
0001
0000
0000
0000
,
0010
0000
0000
0000
,
0100
0000
0000
0000
,
1000
0000
0000
0000
,
0010
0000
0010
0000
,
0010
0000
0000
0000
,
0100
0000
0100
0000
,
0100
0000
0000
0000
,
0001
0000
0001
0000
,
0000
0000
0000
0000
,
1000
0000
1000
0000
,
0000
0000
0000
0000
,
0100
0000
0100
0000
,
0000
0000
0000
0000
,
0010
0000
0010
0000
,
0000
0000
0000
0000
,
1000
0000
1000
0000
,
1000
0000
0000
0000
,
0001
0000
0001
0000
,
0001
0000
0000
0000
,
0100
0000
0100
0000
,
0100
0000
0000
0000
,
0010
0000
0000
0000
,
0010
0000
0010
0010
;

//--------------- dance-single - t7r ----------------
#NOTES:
     dance-single:
     t7r:
     Easy:
     7:
     0,0,0,0,0:
0000
0000
0000
0000
,
0000
0000
0000
0000
,
0000
0000
0000
0000
,
0000
0000
0000
0000
,
0000
0000
0000
0000
,
0000
0000
0000
0000
,
0000
0000
0000
0000
,
0000
0000
0000
0000
,
0000
0000
0000
0000
,
0000
0000
0000
0000
,
1000
0000
0000
1000
0000
0000
1000
0000
,
0000
0001
0100
0100
,
0001
0000
0000
0001
0000
0000
0001
0000
,
0000
1000
0010
0010
,
1000
0000
0000
0100
0000
0000
0010
0000
,
0000
0001
1000
1000
,
0001
0000
0000
0100
0000
0000
0010
0000
,
2000
0000
0000
3001
,
1000
0000
0000
0100
0000
0000
1000
0000
,
1000
0000
0000
0001
0000
0000
0100
0000
,
0001
0000
0000
0010
0000
0000
0001
0000
,
0001
0000
0000
1000
0000
0000
0010
0000
,
0200
0000
0301
0010
,
0200
0000
1300
0010
,
0200
0000
0301
1000
,
0020
0000
0130
0010
,
2001
0000
0000
3001
,
0020
0000
1030
0001
,
0200
0000
0000
1300
,
0020
0000
0031
1000
,
0200
0000
0000
0301
,
0020
0000
1030
0001
,
0200
0000
0000
0000
,
0310
0001
0100
0010
,
1002
0000
0000
0103
,
0020
0000
0031
0010
,
0200
0000
0000
1300
,
0200
0000
0310
1000
,
0002
0000
0000
0013
,
0200
0000
0301
0100
,
2000
0000
0000
0000
0000
0000
0000
3001
,
0000
0000
0000
0000
,
1000
0000
0001
0000
0100
0000
0000
0001
,
0000
1000
0010
0100
,
0001
0000
1000
0000
0010
0000
0000
1000
,
0000
0001
0010
0100
,
1000
0000
0010
0000
0100
0000
0000
0010
,
0000
1000
0100
0010
,
0001
0000
0100
0000
0010
0000
0000
0100
,
0000
0001
1000
0010
,
1000
0000
0100
0000
0001
0000
0000
1000
,
0000
0010
0001
0100
,
0001
0000
0100
0000
1000
0000
0000
0001
,
0000
0010
1000
0100
,
1000
0000
0001
0000
0010
0000
0000
1001
,
0000
0010
0100
0001
,
1000
0000
0001
0000
0100
0000
0000
0110
,
0000
0001
1000
0010
,
1000
0000
0000
0100
0000
0000
0001
0000
,
0000
1000
0000
0000
0100
0000
0110
0000
,
0001
0000
0000
0100
0000
0000
1000
0000
,
0000
0001
0000
0000
0100
0000
0110
0000
,
1000
0000
0100
1000
0000
0000
0001
0000
,
1000
0000
0010
1000
0000
0000
0001
0000
,
1001
0000
0000
0101
0000
0000
1001
0000
,
0000
1100
0000
0000
0110
0000
1001
0000
,
0200
0000
0000
0010
0000
0000
0301
0000
,
0000
1000
0100
0010
,
0200
0000
0000
0010
0000
0000
1300
0000
,
0000
0001
0100
0010
,
2000
0000
0000
0100
0000
0000
3001
0000
,
0000
1000
0010
0100
,
0002
0000
0000
0010
0000
0000
1003
0000
,
0000
0001
0100
0010
,
2000
0000
0000
0100
0000
0000
3010
0000
,
0000
1000
0100
0010
,
0002
0000
0000
0100
0000
0000
0013
0000
,
0000
0001
0100
0010
,
2000
0000
0000
3200
0000
0000
0310
0000
,
0000
0001
1000
1000
,
0002
0000
0000
0203
0000
0000
0310
0000
,
0000
1000
0001
2002
,
0000
0000
0000
0000
,
0000
0000
0000
0000
,
0000
0000
0000
0000
,
3003
0000
0000
0000
;

//--------------- dance-single - t7r ----------------
#NOTES:
     dance-single:
     t7r:
     Medium:
     11:
     0,0,0,0,0:
0000
0000
0000
0000
,
0000
0000
0000
0000
,
0000
0000
0000
0000
,
0000
0000
0000
0000
,
0000
0000
0000
0000
,
0000
0000
0000
0000
,
0000
0000
0000
0000
,
0000
0000
0000
0000
,
0000
0000
0000
0000
,
0000
0000
0000
0000
,
1000
0000
0100
1000
0000
0001
2000
0000
,
0000
0000
3010
0000
0100
0001
0100
0000
,
0001
0000
0010
0001
0000
1000
0002
0000
,
0000
0000
0103
0000
0010
1000
0100
0000
,
1000
0000
0010
1000
0000
0001
0020
0000
,
0000
0000
0031
0000
0100
0010
1000
0000
,
0001
0000
0010
0001
0000
0100
0010
0000
,
0200
0000
0010
0310
,
1000
0000
0100
1000
0000
1000
0001
0000
,
0100
0000
0010
1000
0000
1000
0001
0000
,
0010
0000
0001
0100
0000
0100
0010
0000
,
0100
0000
0001
0010
0000
0010
0100
1000
,
0002
0000
0000
0013
0001
0100
0010
0000
,
2000
0000
0000
3100
1000
0010
0100
0000
,
0010
0000
0100
0001
0000
0100
1000
0000
,
0200
0000
0310
0000
1000
0001
0100
0000
,
0002
0000
0013
0000
0001
0100
0010
0000
,
2000
0000
3100
0001
0000
0100
1000
0000
,
0020
0000
0130
0000
0010
1000
0001
0000
,
0200
0000
0301
0100
0000
1000
0100
0000
,
0002
0000
0013
0000
0001
1000
0010
0000
,
2000
0000
3100
0001
0000
0100
1000
0000
,
0200
0000
0310
0000
0001
1000
0010
0000
,
0100
0010
0000
0000
1000
0001
0100
0000
,
0001
0000
0010
0100
0000
0100
1000
0000
,
0001
0000
0100
1000
0000
0100
0001
0000
,
1000
0000
0100
0010
0000
0010
0001
0000
,
1000
0000
0100
0001
0000
0100
1000
0000
,
0010
0000
0100
0010
0000
0010
0001
0000
,
0010
0000
0100
0001
0000
0100
1000
0000
,
0100
0000
0010
1000
0000
1000
0001
2000
,
0000
0000
0000
0000
0000
0000
0000
3001
,
1000
0000
1100
0000
1000
0100
0010
0100
,
1000
0001
0010
0000
0001
0100
0010
0000
,
0100
0000
0101
0000
0001
0010
0100
0010
,
0001
0100
1000
0000
0001
0100
0010
0000
,
0001
0000
1001
0000
0001
0100
0010
0100
,
0001
1000
0010
0000
1000
0100
0010
0000
,
0100
0000
1100
0000
1000
0010
0100
0010
,
1000
0100
0001
0000
1000
0100
0010
0000
,
1000
0000
1001
0000
0010
0100
0001
1000
,
0001
0100
0010
0000
0001
0100
1000
0000
,
0010
0000
0110
0000
1000
0001
0100
0010
,
1000
0010
0100
0000
1000
0010
0001
0000
,
0100
0000
0000
0101
0000
0000
0001
0000
0001
0010
0000
0010
,
0001
0100
1000
0000
0001
0100
1000
0000
,
0010
0000
0000
0000
0110
0000
0000
0000
1000
0000
0000
0010
0000
0000
1000
0000
,
0001
0010
1000
0000
0001
0010
1000
0000
,
0001
0100
0000
1000
0100
0000
0001
0100
,
0000
0100
1000
0000
0100
0010
0100
0010
,
1000
0100
0000
0001
0100
0000
1000
0100
,
0000
0100
0001
0000
0100
0010
0100
0010
,
1000
0010
0000
0001
0010
0000
1010
0000
,
0001
0010
0000
1000
0010
0000
0011
0000
,
1000
0100
0000
0001
0100
0000
0011
0000
,
0001
0100
0000
1000
0100
0000
0010
0100
,
0002
0000
0103
0002
0000
0103
2000
0000
,
0000
3001
0010
0000
0100
0001
0001
0000
,
2000
0000
3100
2000
0000
3100
0002
0000
,
0000
1003
0010
0000
0100
1000
1000
0000
,
0002
0000
0013
0002
0000
0013
2000
0000
,
0000
3001
0100
0000
0010
0001
0001
0000
,
2000
0000
3010
2000
0000
3010
0002
0000
,
0000
1003
0100
0000
0010
1000
0001
0000
,
1002
0000
0103
0010
0000
0001
0020
0000
,
0000
1030
0001
0000
1000
0100
1000
0000
,
0002
0000
0013
0100
0000
0001
0200
0000
,
0000
1300
0001
0000
1000
0100
0010
0001
,
2000
0000
3010
0200
0000
1300
0200
0000
,
0000
0310
1000
0000
0001
0100
0010
0010
,
2000
0000
3100
0020
0000
1030
0020
0000
,
1030
0100
0001
1000
0010
0000
0220
0000
,
0000
0000
0000
0000
,
0000
0000
0000
0000
,
0000
0000
0000
0000
,
0330
0000
0000
0000
;

//--------------- dance-single - t7r ----------------
#NOTES:
     dance-single:
     t7r:
     Hard:
     15:
     0,0,0,0,0:
0000
0000
0000
0000
,
0000
0000
0000
0000
,
0000
0000
0000
0000
,
0000
0000
0000
0000
,
0000
0000
0000
0000
,
0000
0000
0000
0000
,
0000
0000
0000
0000
,
0000
0000
0000
0000
,
0000
0000
0000
0000
,
0000
0000
0000
0000
,
0100
0000
1000
0100
0000
0001
0100
0000
,
1000
0000
0100
0000
0000
0000
1000
0001
1000
0000
0001
0000
0001
0000
0000
0000
,
0010
0000
0001
0010
0000
1000
0010
0000
,
0001
0010
0000
0100
0010
0010
0001
1001
,
0000
0000
1000
0100
0000
0001
0100
0000
,
1000
0000
0100
0000
0000
0000
0001
0000
0100
0000
0000
0000
1000
0001
1000
0001
,
0010
0000
0001
0100
0000
1000
0100
0000
,
0020
0000
0100
0130
,
0001
0000
0010
0000
0100
0000
0001
0000
0100
0000
1000
0000
0001
0010
0000
0001
,
1000
0000
0010
0000
0100
0000
1000
0000
0100
0000
0001
0000
1000
0100
1000
0000
,
0001
0000
0100
0000
0010
0000
0001
0000
0010
0000
1000
0000
0001
0100
0000
0001
,
1000
0000
0100
0000
0010
0000
1000
0000
0010
0000
0001
0000
1000
0001
1000
0000
,
0001
0100
0020
0000
0000
0000
1030
0000
0001
0000
0010
0000
0001
0100
0001
0000
,
1000
0100
0020
0000
0000
0000
0031
0000
1000
0000
0010
0000
1000
0100
1000
0000
,
0001
0000
0010
0000
1000
0000
0001
0000
0100
0000
0010
0000
0001
1000
0001
1000
,
0010
0000
0100
0000
0001
0000
0010
0000
0100
0000
1000
0000
0001
0000
1000
0100
,
2000
0000
0000
0000
3010
0000
0001
0000
1000
0000
0100
0000
0001
0010
0000
0010
,
0001
0000
0100
0000
0010
0000
1000
0000
0100
0000
0010
0000
0100
1000
0000
1000
,
0002
0000
0000
0000
0013
0000
1000
0000
0001
0000
0100
0000
1000
0010
0000
0010
,
1000
0000
0100
0000
0010
0000
0100
0000
1000
0000
0001
0000
1000
0001
1000
0001
,
1000
0000
0100
0000
0010
0000
0100
0000
0001
0000
1000
0000
0001
0100
0000
0100
,
1000
0000
0010
0000
0100
0000
0010
0000
0001
0000
1000
0000
0001
0010
0000
0010
,
1000
0000
0010
0000
0100
0000
1000
0000
0100
0000
0010
0000
1000
0100
0000
0100
,
0001
0000
0110
0000
0000
0000
0000
0000
1001
0000
0000
0000
1000
0010
0100
0000
,
0001
0000
0100
0000
1000
0000
0100
0000
0100
0000
0001
0000
1000
0010
0000
0100
,
1000
0000
0100
0000
0001
0000
0100
0000
0100
0000
1000
0000
0100
0010
0000
0010
,
1000
0000
0010
0000
0001
0000
0010
0000
0010
0000
1000
0000
0001
0100
0000
0010
,
0001
0000
0010
0000
1000
0000
0010
0000
0010
0000
0001
0000
0010
0100
0010
0100
,
0002
0000
0000
0000
0013
0000
1000
0000
0100
0000
0001
0000
1000
0001
0000
0001
,
2000
0000
0000
0000
3010
0000
0001
0000
0100
0000
1000
0000
0001
1000
0001
1000
,
0001
0000
0100
0000
1000
0000
0001
0000
0010
0000
1000
0000
0001
1000
0002
0000
,
0000
0000
0000
0000
0000
0000
0000
0000
0000
0000
0000
0000
0000
0000
1003
0100
,
1000
0100
0010
1000
0010
0001
1000
0100
,
0010
0000
1000
0000
0010
0000
0001
0100
0010
0000
0100
0000
0001
0000
0100
0010
,
0100
0001
0010
0100
0001
0100
1000
0001
,
0100
0000
0001
1000
0010
0000
1000
0000
0100
0000
1000
0001
0010
0000
0001
1000
,
0001
0100
0010
0001
0010
1000
0001
0100
,
0010
0000
0001
0000
0010
0000
1000
0100
0010
0000
0100
0000
1000
0000
0100
0010
,
0100
1000
0010
0100
1000
0100
0001
1000
,
0100
0000
1000
0001
0010
0000
0001
0000
0100
0000
0001
1000
0010
0000
1000
0001
,
1000
0000
0100
0010
0001
0000
1000
0000
0001
0000
1000
0100
0010
0000
0001
0000
,
1000
0100
0001
0000
1000
0100
0110
0000
,
0001
0000
1000
0100
1000
0000
0001
0000
1000
0010
1000
0010
0100
0001
0100
0001
,
1000
0000
0100
0000
0100
0000
0001
0000
1000
0000
0100
0000
0010
0100
0010
0000
,
1001
0000
0000
0110
0000
0000
0001
0010
0001
1000
0010
1000
,
0001
0100
0010
0000
0001
0000
0010
0000
1000
0100
0010
0000
1000
0000
0010
0000
,
0001
0000
0100
0001
1000
0000
0100
1000
0001
0000
1000
0100
0000
0100
0001
0000
,
0100
0010
0100
0000
0010
0100
0010
0000
0110
0000
0000
0000
1001
0000
0000
0000
,
0001
0010
1000
0001
0100
1000
0001
0010
,
0100
0000
0001
0000
0100
0000
0010
0000
0001
0000
1000
0000
1100
0000
1000
0001
,
1000
0010
0001
1000
0100
0001
1000
0010
,
0100
0000
1000
0000
0100
0000
0010
0000
1000
0000
0001
0000
0011
0000
0001
1000
,
0001
0000
0100
0000
1000
0100
0010
0100
0001
0000
1000
0000
1001
0000
0000
0000
,
1000
0000
0100
0000
0001
0100
0010
0100
1000
0000
0001
0000
1001
0000
0000
0000
,
1000
1010
0000
0001
0011
0000
1000
1100
,
0000
0000
0001
0000
0101
0000
0001
0010
0100
0000
1000
0000
0001
1000
0001
1000
,
0001
0100
0010
0002
0000
0013
2000
0000
,
0000
0000
3001
0000
0010
0000
0100
1000
0100
0000
0100
0000
0010
0000
0001
0000
,
1000
0100
0010
2000
0000
3010
0002
0000
,
0000
1003
0100
0010
0001
0100
0010
0010
,
1000
0010
0100
2000
0000
3100
0002
0000
,
0000
0000
0013
0000
0001
0000
0000
0000
1000
0000
0001
0000
0001
0000
0001
1000
,
0001
0010
0100
0002
0000
0103
2000
0000
,
3001
0000
0100
0000
1000
0000
0100
0000
0010
0000
1000
0000
0001
0000
1000
0001
,
1000
0000
0001
0100
0000
0100
1000
0000
,
0000
0000
0000
0000
0110
0000
0001
0100
0010
0000
1000
0000
1000
0000
1000
0000
,
0001
0000
1000
0100
0000
0100
0001
0000
,
0000
0000
0000
0000
0110
0000
0000
0000
0000
0000
1000
0000
1000
0000
1000
0001
,
1000
0000
0010
0001
0000
0100
1000
0000
,
0000
0000
0001
0000
0100
0000
0001
0000
1000
0000
0000
0000
0001
0010
0001
0010
,
0001
0000
0010
1000
0000
0100
0001
0000
,
0000
1000
0100
0010
0001
0100
0220
0000
,
0000
0000
0000
0000
,
0000
0000
0000
0000
,
0000
0000
0000
0000
,
0330
0000
0000
0000
;
