#TITLE:Diggin It Baby;
#SUBTITLE:;
#ARTIST:2 Mello;
#TITLETRANSLIT:;
#SUBTITLETRANSLIT:;
#ARTISTTRANSLIT:;
#GENRE:;
#CREDIT:;
#MUSIC:Diggin It Baby.mp3;
#BANNER:Diggin It Baby.png;
#BACKGROUND:Diggin It Baby_bg.png;
#CDTITLE:;
#SAMPLESTART:60.311;
#SAMPLELENGTH:16.000;
#SELECTABLE:YES;
#OFFSET:-0.311;
#BPMS:0.000=120.000;
#STOPS:;
#BGCHANGES:;
#FGCHANGES:;

//--------------- dance-single - ApplesCats ----------------
#NOTES:
     dance-single:
     ApplesCats:
     Hard:
     12:
     0,0,0,0,0:
0000
0000
0000
0000
,
0000
0000
0000
0000
,
0000
0000
0000
0000
,
0000
0000
0000
0000
,
0000
0000
0000
0000
,
0000
0000
0000
0000
,
1010
0000
0000
0000
0100
0000
0000
0010
0100
0000
0100
0000
0000
0010
0000
0000
,
0101
0000
0000
0000
0010
0000
0000
0100
0010
0000
0010
0000
0000
0100
0000
0000
,
1010
0000
0000
0000
0100
0000
0000
0010
0100
0000
0100
0000
0000
0010
0000
0000
,
0101
0000
0000
0000
0010
0000
0000
0100
0010
0000
0010
0000
0000
0100
0000
0000
,
0110
0000
0000
0000
1000
0000
0000
0010
0001
0000
0001
0000
0000
0010
0000
0000
,
0110
0000
0000
0000
0001
0000
0000
0100
1000
0000
1000
0000
0000
0100
0000
0000
,
0110
0000
0000
0000
1000
0000
0000
0010
0001
0000
0001
0000
0000
0010
0000
0000
,
1000
0000
0100
0000
0010
0000
0001
0010
0000
0100
0010
0000
0001
0000
0001
0000
,
1000
0100
0000
0000
1000
0000
0000
0000
0000
0000
0000
0000
0001
0010
0000
0001
,
0000
0000
1000
1000
0100
0010
0010
0001
,
1000
0100
0000
0000
1000
0000
0000
0000
0000
0000
0000
0000
0001
0010
0000
0001
,
2000
0000
0000
0000
0000
3000
0000
0000
,
0001
0010
0000
0000
0001
0000
0000
0000
0000
0000
0000
0000
1000
0100
0000
1000
,
0000
0000
0000
0000
0010
0000
0000
0100
0000
0000
0001
0000
0000
0000
0000
0000
,
0001
0010
0000
0000
0001
0000
0000
0000
0000
0000
0000
0000
1000
0100
0000
1000
,
0000
0000
0110
0000
0000
0110
0000
0000
,
2000
0000
0001
0000
0000
0001
0000
3000
,
0002
0000
1000
0000
0000
1000
0000
0003
,
2000
0000
0001
0000
0000
0001
0000
3000
,
0002
0000
1000
0000
0000
1000
0000
0003
,
0200
0000
0010
0000
0000
0010
0000
0300
,
0020
0000
0100
0000
0000
0100
0000
0030
,
0200
0000
0010
0000
0000
0010
0000
0300
,
0020
0000
0000
0000
0000
0000
0000
0000
0030
0000
0001
0010
0100
1000
0000
0000
,
1000
0100
0000
0000
1000
0000
0000
0000
0000
0000
0000
0000
0001
0010
0000
0001
,
0000
0000
1000
1000
0100
0010
0010
0001
,
0001
0010
0000
0000
0001
0000
0000
0000
0000
0000
0000
0000
1000
0100
0000
1000
,
0010
0000
0010
0000
0010
0000
0010
0000
0000
0000
1010
0000
0000
0110
0000
0000
,
0101
0010
0000
0000
0001
0000
0000
0000
0000
0000
0000
0000
1000
0100
0000
1000
,
0000
0000
0110
0000
0000
0110
0000
0000
,
1000
0100
0000
0000
1000
0000
0000
0000
0000
0000
0000
0000
0001
0010
0000
0001
,
0000
0000
0100
0000
0100
0010
0001
0010
0100
0000
0100
0010
1000
0000
0001
0000
,
2000
0000
0001
0000
0000
0001
0000
3000
,
0002
0000
1000
0000
0000
1000
0000
0003
,
2000
0000
0001
0000
0000
0001
0000
3000
,
0002
0000
1000
0000
0000
1000
0000
0003
,
2000
0000
0001
0000
0000
0001
0000
3000
,
0002
0000
1000
0000
0000
1000
0000
0003
,
1010
0000
0000
0000
0101
0110
0000
0000
,
1010
0000
0110
0000
0101
0000
0110
0000
0000
0000
0000
0010
0001
0100
0000
0000
,
1000
0100
0000
0000
1000
0000
0000
0000
0000
0000
0000
0000
0001
0010
0000
0001
,
0000
0000
1000
1000
0100
0010
0010
0001
,
1000
0100
0000
0000
1000
0000
0000
0000
0000
0000
0000
0000
0001
0010
0000
0001
,
1010
0000
0101
0000
,
0001
0010
0000
0000
0001
0000
0000
0000
0000
0000
0000
0000
1000
0100
0000
1000
,
0000
0000
0110
0000
0000
0110
0000
0000
,
0001
0010
0000
0000
0001
0000
0000
0000
0000
0000
0000
0000
1000
0100
0000
1000
,
0000
0000
0000
0000
0000
1000
0100
0010
,
0001
1001
0000
0000
;
