#TITLE:Destroy;
#SUBTITLE:;
#ARTIST:Yooh;
#TITLETRANSLIT:;
#SUBTITLETRANSLIT:;
#ARTISTTRANSLIT:;
#GENRE:;
#CREDIT:;
#MUSIC:song.ogg;
#BANNER:Banner.png;
#BACKGROUND:Background.png;
#CDTITLE:;
#SAMPLESTART:51.706;
#SAMPLELENGTH:10.140;
#SELECTABLE:YES;
#OFFSET:-0.045;
#BPMS:0.000=195.000;
#STOPS:;
#BGCHANGES:;
#FGCHANGES:;

//--------------- dance-single - Maractus (X-Scale) ----------------
#NOTES:
     dance-single:
     Maractus (X-Scale):
     Challenge:
     15:
     0.881,0.975,0.821,0.662,0.781:
0000
0000
0000
0000
,
0000
0000
0000
0000
,
0000
0000
0000
0000
,
0000
0000
0000
0000
,
0000
0000
0000
0000
,
0000
0000
0000
0000
,
1100
0000
1000
0000
0010
0000
0100
0001
,
1000
0000
0100
0000
0010
0000
0001
0100
,
0101
0000
0000
0001
0000
0000
1000
0000
1001
0000
0000
1000
0000
0000
0001
0000
,
1000
0100
0010
0001
0100
0010
2000
0000
0000
3002
0000
0000
,
2003
0000
0001
0000
,
0010
0000
3002
0000
,
1000
0000
0100
0000
,
2003
0000
0100
0000
,
3002
0013
2000
3010
,
0002
0013
0200
0310
,
0002
1003
0020
0130
,
0110
0000
0010
0000
1000
0000
1001
0000
0001
0000
0010
0000
,
0100
0000
1000
0001
0000
0000
1000
0010
1000
0010
0000
1000
,
0100
0000
1000
0010
0000
0000
1000
0001
1000
0001
0000
0100
,
0010
0000
1000
0001
0000
0000
0010
0001
0010
0001
0000
0100
,
0001
0000
1000
0001
0000
0000
1000
0100
1000
0100
0000
1000
,
0010
0000
1000
0001
0000
0000
0100
0001
0100
0001
0000
0010
,
0100
0000
1000
0001
0000
0010
0100
0010
0100
1000
0010
0100
,
1000
0100
0010
1000
0001
0010
0100
0001
0100
0010
0001
1000
,
0002
0000
0000
0000
0203
0300
0020
0030
,
1001
0000
0000
1100
0000
0110
0000
0011
0000
0110
0000
0000
,
2200
0000
0000
3300
0000
0000
1010
0000
0000
0000
0110
0000
0000
0000
0101
0000
0000
0000
0110
0000
0000
0000
1000
0000
,
0002
0000
0000
0003
0000
0000
1001
0000
0000
0000
1010
0000
0000
0000
1001
0000
0000
0000
0011
0000
0000
0000
0000
0000
,
0002
0000
0203
0000
0320
0000
1030
0001
,
1001
0000
0000
0101
0000
0110
0000
1010
0000
0110
0000
0000
,
0202
0000
0000
0303
0000
0000
0011
0000
0000
0000
0110
0000
0000
0000
1100
0000
0000
0000
0110
0000
0000
0000
0001
0000
,
2000
0000
0000
3000
0000
0000
1001
0000
0000
0000
0011
0000
0000
0000
1001
0000
0000
0000
1000
0000
0010
0000
0100
0000
,
0002
0000
2003
0000
3001
0100
1000
0100
,
0001
0000
0000
2000
0000
3200
0000
0320
0000
0032
0000
1003
,
0200
0000
0000
0300
0000
0000
2000
0000
0000
0000
3020
0000
0000
0000
0230
0000
0000
0000
0302
0000
0000
0003
0010
0000
,
0002
0000
0000
0003
0000
0000
2000
0000
0000
0000
3002
0000
0000
0000
2003
0000
0000
0000
3001
0000
0010
0000
0100
0000
,
2000
0000
3020
0000
0230
0000
0301
1000
,
0002
0000
0000
1003
0000
0010
0000
0100
0000
0001
0000
0010
,
0000
0100
0000
1000
0000
0001
0000
0100
0000
0010
0100
0010
,
1000
1100
0001
0101
,
1000
0000
0001
0000
1000
0000
0001
0000
0010
0100
0010
0100
2000
0000
3000
0000
,
1001
0000
1000
0000
0010
0000
0100
0001
,
0000
0001
0000
0001
1000
0000
0100
0001
,
0100
0000
1000
0000
0001
0010
1000
0010
,
0001
0000
0000
0100
0000
0000
0010
0000
1010
0000
0000
1000
0000
0000
0001
0000
,
0011
0000
0000
0100
0000
0000
0011
0000
0000
1000
0000
0000
1001
0000
0000
0000
,
1010
0000
0000
0100
0000
0000
1010
0000
0000
0001
0000
0000
1001
0000
0000
0000
,
1000
0100
1000
0001
1000
0000
0010
0000
1000
0001
1000
0010
1000
0000
0100
0000
,
0010
0000
0001
0000
0100
0000
0010
0000
1000
0100
1000
0010
1000
0000
0001
0000
,
1001
0000
0001
0000
0100
0000
0010
1000
,
0000
1000
0000
1000
0001
0000
0010
1000
,
0010
0000
0000
0000
0001
0000
0000
0000
1000
0000
0000
0100
0000
0000
0001
0000
,
0100
0000
0000
1000
0000
0000
0010
0000
0001
0000
0000
0010
0000
0000
1000
0000
,
1100
0000
0000
0010
0000
0000
1100
0000
0000
0001
0000
0000
1001
0000
0000
0000
,
0101
0000
0000
0010
0000
0000
0101
0000
0000
1000
0000
0000
1001
0000
0000
0000
,
0001
0010
0001
1000
0001
0000
0100
0000
0001
1000
0001
0100
0001
0000
0010
0000
,
0100
0000
1000
0000
0010
0000
0100
0000
0001
0010
0001
0100
0001
1000
0100
0010
,
0001
0000
0000
0101
0000
0000
1000
0000
0000
1100
0000
0000
1000
0000
0100
0000
,
0010
0000
0000
1100
0000
0000
0001
0000
0000
0101
0000
0000
0001
0000
0100
0000
,
0010
0000
0000
1010
0000
0000
0001
0000
0000
0011
0000
0000
0001
0000
0010
0000
,
0100
0000
0000
0011
0000
0000
1000
0000
0000
1010
0000
0000
1000
0000
0001
0000
,
0100
0000
0001
1000
0100
0000
1000
0001
,
0010
0000
0000
0001
0000
0000
1000
0000
0100
0000
0001
0000
0100
0000
1000
0000
,
0001
0000
1000
0001
0010
1000
0010
0001
,
0100
0010
1000
0100
0010
0001
2000
3000
,
0001
0000
0000
0011
0000
0000
1000
0000
0000
1010
0000
0000
1000
0000
0010
0000
,
0100
0000
0000
1010
0000
0000
0001
0000
0000
0011
0000
0000
0001
0000
0100
0000
,
0001
1000
0100
1000
0001
0000
1000
0000
0000
1100
0000
0000
1000
0000
0100
0000
,
0010
0000
0000
1100
0000
0000
0001
0000
0000
0101
0000
0000
0001
0010
0100
1000
,
0001
0100
0001
0010
0001
0000
0100
0000
0001
1000
0010
0100
0001
0000
1000
0000
,
0001
0000
0000
0101
0000
0000
0001
0000
0100
0000
1000
0000
0100
0000
0001
0000
,
1000
0010
0100
0001
1000
0100
0010
0001
0100
0010
1000
0001
0010
0100
1000
0010
,
0200
0000
0302
1003
,
1001
0000
0000
0011
0000
0110
0000
1100
0000
0110
0000
0000
,
0022
0000
0000
0033
0000
0000
0101
0000
0000
0000
0110
0000
0000
0000
1010
0000
0000
0000
0110
0000
0000
0000
0001
0000
,
2000
0000
0000
3000
0000
0000
1001
0000
0000
0000
0101
0000
0000
0000
1001
0000
0000
0000
1100
0000
0000
0000
0000
0000
,
2000
0000
3020
0000
0230
0000
0301
1000
,
1001
0000
0000
1010
0000
0110
0000
0101
0000
0110
0000
0000
,
2020
0000
0000
3030
0000
0000
1100
0000
0000
0000
0110
0000
0000
0000
0011
0000
0000
0000
0110
0000
0000
0000
1000
0000
,
0002
0000
0000
0003
0000
0000
1001
0000
0000
0000
1100
0000
0000
0000
1001
0000
0000
0000
0001
0000
0010
0000
0100
0000
,
1000
0010
0001
0010
2000
3000
2000
3000
,
1001
0000
0000
0002
0000
0023
0000
0230
0000
2300
0000
3001
,
0020
0000
0000
0030
0000
0000
0002
0000
0000
0000
0203
0000
0000
0000
0320
0000
0000
0000
2030
0000
0000
3000
0100
0000
,
2000
0000
0000
3000
0000
0000
0002
0000
0000
0000
2003
0000
0000
0000
3002
0000
0000
0000
1003
0000
0100
0000
0010
0000
,
0002
0000
0203
0000
0320
0000
1030
0001
,
2000
0000
0000
3001
0000
0100
0000
0010
0000
1000
0000
0001
,
0100
0010
0001
0010
0100
0001
1000
0100
0010
1000
0010
0100
,
2000
0001
0000
0001
,
0000
0001
0000
0001
,
0000
0001
0000
0001
,
0000
0000
0000
0000
,
3000
0000
0000
0000
;
