#VERSION:0.83;
#TITLE:第六天魔王;
#SUBTITLE:;
#ARTIST:黒沢ダイスケ × Masahiro "Godspeed" Aoki;
#TITLETRANSLIT:Demon King of the Sixth Heaven;
#SUBTITLETRANSLIT:;
#ARTISTTRANSLIT:Daisuke Kurosawa × Masahiro "Godspeed" Aoki;
#GENRE:;
#CREDIT:;
#MUSIC:Demon King of the Sixth Heaven.ogg;
#BANNER:Demon King of the Sixth Heaven-bn.png;
#BACKGROUND:Demon King of the Sixth Heaven-bg.png;
#CDTITLE:;
#SAMPLESTART:55.800;
#SAMPLELENGTH:15.000;
#SELECTABLE:YES;
#OFFSET:1.600;
#BPMS:0.000=150.000;
#STOPS:;
#WARPS:46.500=10.000,
60.500=10.000,
74.500=10.000,
92.500=10.000,
106.500=10.000,
120.500=10.000
;
#SPEEDS:0.000=1.000=0.000=0,
374.000=0.250=7.500=0,
381.500=4.000=0.500=0
;
#ATTACKS:TIME=55.000:LEN=0.800:MODS=*1.25 100% stealth :TIME=56.000:LEN=0.800:MODS=*1.25 no stealth :TIME=124.000:LEN=3.200:MODS=*0.3125 100% drunk
;
#BGCHANGES:;
#FGCHANGES:;

//--------------- dance-single - ----------------
#NOTEDATA:;
#STEPSTYPE:dance-single;
#DESCRIPTION:;
#DIFFICULTY:Medium;
#METER:15;
#RADARVALUES:0,0,0,0,0;
#NOTES:
0000
0000
0000
0000
,
0000
0000
0000
0000
,
0000
0000
0000
0000
,
2001
0000
0000
0000
0000
0000
0000
0000
0100
0000
0000
0000
3000
0000
0100
0010
,
0002
0000
2003
3020
,
0230
0000
0000
0000
0001
0000
0301
0100
,
2010
0000
0000
0000
0001
0000
0000
0000
3001
0000
0000
0000
1000
0100
0010
0000
,
0001
0000
0011
0000
0000
1010
0000
0000
0011
0000
0000
1010
0000
0000
1000
0010
,
0100
0000
0001
0000
0000
0001
0000
0000
1000
0000
0000
0100
0000
0000
0010
0000
,
0001
0000
1000
0000
0000
1000
0000
0000
0010
0000
0100
0000
0001
0100
0010
1000
,
0001
0000
0011
0000
0000
1100
0000
0000
1001
0000
0000
1001
0000
0000
1001
0000
,
0000
0000
0000
0000
0000
0MM0
0000
M000
,
000M
00M0
0M00
00M0
M000
0MM0
0000
000M
,
M000
00M0
0000
0000
0000
0000
0000
0000
,
0000
0110
0000
1000
0001
0010
0100
0010
,
1000
0MM0
0000
000M
M000
00M0
0M00
00M0
,
000M
0MM0
0000
M000
000M
00M0
0000
0000
,
0000
0000
0000
0000
0000
0110
0000
0001
,
1000
0010
0100
0010
0001
0MM0
0000
M000
,
000M
00M0
0M00
00M0
M000
000M
0M00
00M0
,
000M
00M0
000M
0000
0000
0000
0000
0000
0000
0000
0000
0000
0000
0000
0000
0000
,
0000
0110
0000
1000
0001
0010
0100
0010
,
1000
0000
0001
0000
0100
0000
0010
0000
0001
0010
0001
0000
1000
0010
1000
0010
,
0000
0MM0
0000
M000
000M
0M00
00M0
000M
,
M000
0MM0
0000
000M
M000
0M00
0000
0000
,
0000
0000
0000
0000
0000
0110
0000
1000
,
0001
0100
0010
0001
1000
0MM0
0000
000M
,
M000
0M00
00M0
M000
000M
0MM0
0000
M000
,
000M
0M00
0000
0000
0000
0000
0000
0000
,
0000
0110
0000
0001
1000
0100
0010
1000
,
0001
0MM0
0000
M000
000M
0M00
00M0
000M
,
M000
0000
0M00
0000
00M0
0000
M000
0000
000M
00M0
0M00
0000
0000
0000
0000
0000
,
0000
0000
0000
0000
0000
0110
0000
1000
,
0001
0100
0010
0001
1000
0100
0010
1000
,
0001
0010
0100
0000
0010
0100
1000
0000
0001
0000
0100
0010
0100
0000
0001
0000
,
0010
0100
1000
0100
0010
0000
0001
0000
0100
0010
0100
0000
0001
0000
0010
0000
,
0100
0010
0100
0000
1000
0000
0010
0100
0001
0100
0010
0000
1000
0000
0100
0010
,
0100
0000
1000
0000
0010
0000
0100
0010
0100
0000
0001
0000
0040
0000
0000
0000
,
0130
0000
1000
0000
MM11
0000
0001
0000
1000
0000
0010
0100
1000
0000
0100
0000
,
0001
0010
0100
0010
0001
0000
1000
0000
0010
0100
1000
0000
0100
0000
0001
0000
,
0010
0100
0001
0000
0100
0000
1000
0010
0100
0010
1000
0000
0001
0000
0010
0100
,
0001
0000
0100
0000
1000
0000
0010
0100
1000
0000
0100
0000
0004
0000
0000
0000
,
0013
0100
1MM1
1000
0020
0000
0000
0000
,
0000
0000
0130
0100
0002
0000
1000
0000
,
1000
0000
0000
0000
1003
0000
0001
0010
0200
0000
0000
0000
0010
0000
0000
0000
,
0010
0000
0000
0000
0310
0000
0100
1000
0002
0000
0000
0000
0100
0000
0000
0000
,
0103
0000
0000
0000
0010
0100
0001
0000
1000
0000
0100
0010
0000
0100
0010
0000
,
1010
0000
0000
0011
0000
0000
1010
0000
0001
0000
0100
0010
0000
0100
0010
0000
,
0100
0000
1000
0100
0010
1000
0001
0000
1000
0000
0100
0010
0000
0100
0010
0000
,
1010
0000
0000
0011
0000
0000
1010
0000
0010
0000
1001
0000
0000
1001
0000
0000
,
0001
0010
0100
0000
0001
0100
2000
0000
0000
0000
0000
0000
3000
0000
0000
0000
,
00M0
0000
00M0
0000
1001
0001
0100
2000
,
0000
0000
3100
0000
0010
0100
0010
0100
0001
0000
1000
0000
0100
0000
0002
0000
,
0000
0000
0103
0000
0010
0100
0010
0100
2000
0000
0000
0000
3001
0000
0200
0000
,
0000
0000
0310
0000
1000
0010
1000
0000
1010
0000
0000
0011
0000
0000
1002
0000
,
0000
0000
0103
0000
0010
1000
0010
1000
0002
0000
0000
0000
0013
0000
0200
0000
,
0000
0000
1300
0000
0001
0100
0010
0000
1000
0000
0001
0100
0000
1000
0020
0000
,
0000
0000
0130
0000
0100
0000
0001
0000
1000
0000
0001
0010
0000
1000
0200
0000
,
0000
0000
0310
0000
0010
0000
0001
0000
0011
0000
0000
1010
0000
0000
2001
0000
,
0000
0000
3100
0000
0010
0001
0010
0001
1000
0000
0010
0000
0001
0000
0021
0000
,
0000
0000
0130
0000
0010
1000
0010
1000
0001
0000
0010
0000
1000
0000
1020
0000
,
0000
0000
0130
0000
0010
0001
0010
0001
1000
0000
0001
0010
0001
0000
1000
0010
,
1000
0000
0001
0010
0001
1000
0010
0000
1010
0000
0000
0011
0000
0000
1002
0000
,
0000
0000
0103
0000
0010
1000
0010
1000
0001
0000
0010
0000
0100
0000
1000
0001
,
0010
0001
1000
0000
0001
0100
0010
0000
0100
0000
0001
0000
1000
0100
0010
0100
,
1000
0000
0001
1000
0010
0000
0100
0000
0110
0000
0001
0000
0010
0000
0100
0000
,
1000
1000
0010
0100
0110
0001
0010
0100
,
1000
0100
1000
0000
0001
0100
0001
0000
1000
0100
1000
0100
0010
0001
0010
0001
,
1000
0001
0010
0001
1000
0010
0100
0010
0001
0000
0000
0110
0000
0000
1001
0000
,
0001
0000
1000
0010
1000
0010
1000
0010
0200
0000
0000
0000
0000
0000
0320
0000
,
0000
0000
2030
0000
3001
0010
0010
0100
,
1000
0100
0000
1000
0100
1000
0001
0000
0100
0000
0100
0000
0100
0000
0010
0000
,
0010
0000
0000
0010
0000
0000
1000
0000
0000
0001
0000
0000
0010
0000
0100
0000
1000
0000
0001
0000
0100
0000
0010
0000
,
1000
0000
0010
0000
0100
0000
0001
0000
0000
0000
0000
0000
0100
0000
0000
2000
0000
0000
0000
0000
0000
3100
0000
0000
,
0002
0000
0000
1003
0100
1000
0001
0010
,
0100
1000
0020
0000
0230
0000
0302
0000
,
0000
0000
0000
1003
0100
0001
1000
0010
,
0001
0000
0000
0001
0000
0000
0001
0000
2000
0000
0000
0000
0000
0000
0000
0000
,
3010
0000
0000
0100
0000
0000
0001
0000
0010
0000
2000
0000
0000
0000
3010
0000
,
0100
1000
0001
0100
2000
0000
0000
3001
,
0001
0000
0010
0000
0010
0000
1000
0000
1000
0000
0001
0010
0000
0001
0010
0000
,
0100
0000
0100
0000
0100
0000
1000
0000
0001
0000
0100
0010
0000
0100
0000
0001
,
0000
0001
0000
1000
0100
0000
0100
0010
0000
0001
1000
0000
0010
0000
0100
0000
,
0100
0000
0001
0000
1000
0010
0100
0001
1000
0000
0100
0010
0000
0100
0000
1001
,
0000
1001
0000
0001
0100
0000
0100
0010
0000
1000
0001
0000
0010
0000
0110
0000
,
0110
0000
1000
0000
0001
0100
0010
1000
0001
0000
0010
0100
0000
0001
0000
0101
,
0000
0101
0000
0100
1000
0100
1000
0001
0000
0100
0010
0000
0001
0000
0011
0000
,
0011
0000
0010
0000
1000
0001
1000
0001
0010
0000
0100
0010
0000
1000
0000
1010
,
0000
1010
0000
0010
0001
0010
0001
1000
0100
0000
0001
0100
0000
1000
0100
0000
,
0100
0000
0010
0000
0001
1000
0010
0100
0001
0000
1000
0100
0010
0100
1000
0000
,
0001
0100
0010
1000
0010
0100
0001
0000
1001
0000
0000
0110
0000
0000
1001
0000
,
1000
0001
0010
0001
1000
0100
0010
0100
0002
0000
0000
0000
0100
0000
0000
0000
,
0000
0100
2003
0010
,
0000
3010
2002
0000
,
0000
0000
0000
0000
,
0000
0000
0000
0000
0000
0000
0000
0000
0000
0000
0000
0000
0000
0000
0000
0000
0000
0000
0000
0000
0000
0000
0000
0000
0000
0000
0000
0000
0000
0000
0000
0000
0000
0000
0000
0000
0000
0000
0000
0000
0000
0000
0000
0000
0000
0000
0000
0000
0000
0000
0000
0000
0000
0000
0000
0000
0000
0000
0000
0000
0000
0000
0000
0000
0000
0000
0000
0000
0000
0000
0000
0000
0000
0000
0000
0000
0000
0000
0000
0000
0000
0000
0000
0000
0000
0000
0000
0000
0000
0000
0000
0000
0000
0000
0000
3003
M00M
0000
0000
0000
0000
0000
0000
0000
0000
0000
0000
0000
0000
0000
0000
0000
0000
0000
0000
0000
0000
0000
0000
0000
0000
0000
0000
0000
0000
0000
0000
0000
0000
0000
0000
0000
0000
0000
0000
0000
0000
0000
0000
0000
0000
0000
0000
0000
0000
0000
0000
0000
0000
0000
0000
0000
0000
0000
0000
0000
0000
0000
0000
0000
0000
0000
0000
0000
0000
0000
0000
0000
0000
0000
0000
0000
0000
0000
0000
0000
0000
0000
0000
0000
0000
0000
0000
0000
0000
0000
0000
0000
0000
0000
0000
0000
;

//--------------- dance-single - ----------------
#NOTEDATA:;
#STEPSTYPE:dance-single;
#DESCRIPTION:;
#DIFFICULTY:Hard;
#METER:17;
#RADARVALUES:0,0,0,0,0;
#NOTES:
0000
0000
0000
0000
,
0000
0000
0000
0000
,
0000
0000
0000
0000
,
2001
0000
0000
0000
0000
0000
0000
0000
0100
0000
0000
0000
0000
0000
3100
0010
,
0002
0000
0000
0000
0203
0000
0310
1000
,
2001
0000
0000
0000
0000
0000
0000
0000
0100
0000
0000
0000
0000
0000
3100
0010
,
0002
0000
0000
0000
0000
0000
0000
0000
0000
0000
0000
0000
1000
0000
0000
0000
0000
0000
0000
0000
0000
0000
0000
0000
1003
0000
0000
0000
0000
0000
0000
0000
0001
0000
0100
0000
0001
0000
0000
1000
0000
0000
0010
0000
0000
0000
0000
0000
,
0100
0000
0101
0000
0000
1100
0000
0000
0101
0000
0000
1100
0000
1000
0100
0010
,
0001
0000
0011
0000
0000
1010
0000
0000
0011
0000
0000
1010
0000
0000
1000
0000
,
0010
0000
0110
0000
0000
1001
0000
0000
1000
0100
0010
0001
1000
0010
0100
0010
,
0001
0000
0011
0000
0000
1010
0000
0000
1001
0000
0000
0110
0000
0000
1001
0000
,
0000
0000
0000
0000
0000
0000
0000
0000
0000
0000
0000
0000
0000
0000
0000
0000
0000
0000
0000
0000
0000
0000
0000
0000
0000
0000
0000
0000
0000
0000
0000
0000
0000
0000
0000
0000
0000
0000
0000
0000
0000
0000
0000
0000
0000
0000
0000
0000
0200
0000
0000
0000
0000
0000
0000
0000
0000
0000
0000
0000
0000
0000
0000
0000
0000
0000
0000
0000
0000
0000
0000
0000
0000
0000
0000
0000
0000
0000
0000
0000
0000
0000
0000
0000
0000
0000
0000
0000
0000
0000
0000
0000
0000
0000
0000
0300
0M00
0000
0000
0000
0000
0000
0000
0000
0000
0000
0000
0000
0000
0000
0000
0000
0000
0000
0000
0000
0000
0000
0000
0000
M00M
0000
0000
0000
0000
0000
0000
0000
0000
0000
0000
0000
0000
0000
0000
0000
0000
0000
0000
0000
0000
0000
0000
0000
0000
0000
0000
0000
0000
0000
0000
0000
0000
0000
0000
0000
00M0
0000
0000
0000
0000
0000
0000
0000
0000
0000
0000
0000
0M00
0000
0000
0000
0000
0000
0000
0000
0000
0000
0000
0000
0000
0000
0000
0000
0000
0000
0000
0000
0000
0000
0000
0000
,
M000
0M00
M000
0000
000M
00M0
0M00
M000
000M
0000
0M0M
0000
0000
0M00
00M0
0000
,
M000
00M0
M000
0000
0000
0000
0000
0000
0000
0000
0000
0000
0000
0000
0000
0000
,
0000
0000
1001
0000
0000
0010
0100
0000
1000
0100
1000
0000
0001
0010
0100
1000
,
0001
0000
0M0M
0000
0000
0M00
00M0
0000
M000
00M0
M000
0000
000M
0M00
00M0
M000
,
000M
0000
00MM
0000
0000
00M0
0M00
0000
M000
0M00
M000
0000
0000
0000
0000
0000
,
0000
0000
0000
0000
0000
0000
0000
0000
0000
0000
0101
0000
0000
0100
0010
0000
,
1000
0010
1000
0000
0001
0100
0010
1000
0001
0000
00MM
0000
0000
00M0
0M00
0000
,
M000
0M00
M000
0000
000M
00M0
0M00
M000
000M
0M00
00M0
0M00
000M
00M0
0M00
00M0
,
000M
0M00
00M0
0000
0000
0000
0000
0000
0000
0000
0000
0000
0000
0000
0000
0000
,
0000
0000
0011
0000
0000
0010
0100
0000
1000
0100
1000
0000
0001
0010
0100
1000
,
0001
0000
0000
0100
0000
0000
0010
0000
0000
0100
0000
0000
0001
0000
0000
0010
0000
0000
0100
0000
0000
0010
0000
0000
0001
0000
0000
0100
0000
0000
0010
0000
0000
1000
0000
0000
0001
0000
0010
0000
0001
0000
0010
0000
0000
0100
0000
0000
,
1000
0000
M00M
0000
0000
000M
0M00
0000
00M0
000M
00M0
0000
0M00
00M0
M000
000M
,
00M0
0000
MM00
0000
0000
000M
00M0
0000
0M00
000M
0M00
0000
0000
0000
0000
0000
,
0000
0000
0000
0000
0000
0000
0000
0000
0000
0000
1001
0000
0000
0001
0100
0000
,
0010
0001
0010
0000
0100
0010
1000
0001
0010
0000
MM00
0000
0000
000M
00M0
0000
,
0M00
000M
0M00
0000
00M0
0M00
M000
000M
0M00
0000
M0M0
0000
0000
000M
0M00
0000
,
00M0
000M
00M0
0000
0000
0000
0000
0000
0000
0000
0000
0000
0000
0000
0000
0000
,
0000
0000
1100
0000
0000
0001
0010
0000
0100
0001
0100
0000
0010
0100
1000
0001
,
0100
0000
M0M0
0000
0000
000M
0M00
0000
00M0
000M
00M0
0000
0M00
00M0
M000
000M
,
00M0
0000
0000
0M00
0000
0000
00M0
0000
0000
000M
0000
0000
0M00
0000
0000
00M0
0000
0000
0M00
0000
0000
000M
0000
0000
M000
0000
0M00
0000
M000
0000
0M00
0000
0000
0000
0000
0000
0000
0000
0000
0000
0000
0000
0000
0000
0000
0000
0000
0000
,
0000
0000
0000
0000
0000
0000
0000
0000
0000
0000
1010
0000
0000
0001
0100
0000
,
0010
0001
0010
0000
0100
0010
1000
0001
0010
0100
0010
0001
0100
0010
0100
0001
,
1000
0000
0100
0000
1000
0000
0100
0000
0000
0010
0000
0000
0001
0000
0000
0100
0000
0000
0010
0000
0000
0000
0000
0000
1000
0000
0000
0000
0000
0000
0010
0000
0000
1000
0000
0000
0001
0000
0000
0010
0000
0000
0100
0000
0000
0000
0000
0000
,
M100
0001
1000
0010
0100
0001
0010
0000
0M10
1000
0001
0010
0100
0000
1000
0000
,
0100
1000
0001
0100
0010
0000
M010
0001
1000
0100
0010
0001
0100
0000
01M0
1000
,
0001
0100
0010
0000
1000
0000
0010
1000
0001
0010
0100
0000
0140
0000
0000
0000
,
0031
0000
0010
0000
11MM
0000
1000
0000
0001
0000
0100
0001
1000
0100
0010
0000
,
001M
1000
0001
0010
1000
0010
0100
0000
M100
0001
1000
0100
0010
0000
0001
0000
,
0010
0001
1000
0010
0100
0000
010M
1000
0001
0100
1000
0100
0010
0000
M010
0001
,
1000
0010
0100
0000
0001
0000
0100
0001
1000
0100
0010
0000
0410
0000
0000
0000
,
1300
0100
MM11
0001
1000
0010
1000
0001
,
1000
0010
1000
0001
0011
0010
0001
1000
,
0001
0000
0010
0000
0001
0000
1000
0010
1010
0000
1000
0000
0001
0000
0100
0000
,
0001
0000
1000
0000
0001
0000
0100
0010
0120
0000
0000
0000
0100
0000
0000
0000
,
0130
0000
0000
0000
0000
0000
0000
0000
0001
0000
0100
0000
0001
0000
0000
1000
0000
0000
0010
0000
0000
0000
0000
0000
0101
0000
0000
0000
0000
0000
0001
0000
0000
0100
0000
0000
0010
0000
0000
0100
0000
0000
1000
0000
0000
0000
0000
0000
,
1M10
0000
0000
1001
0000
0000
0011
0000
1100
0000
1000
0100
0010
0100
0001
0000
,
0100
0010
0001
1000
0010
0100
0001
0000
1100
0000
1000
0100
0010
0100
0001
0000
,
0M11
0000
0000
1001
0000
0000
1010
0000
0101
0000
0101
0000
0000
0110
0000
0000
,
1000
0010
0001
1000
0001
0010
2000
0000
0000
0000
0000
0000
3000
0000
0000
0000
,
00M0
0000
0000
0000
00M0
0000
0000
0000
1001
0000
0001
0010
0011
0000
2100
0000
,
0000
0000
3001
0000
1000
0010
0100
0001
1000
0000
0001
0010
0011
0000
2100
0000
,
0000
0000
3001
0000
1000
0010
0100
0010
0002
0000
0000
0000
0013
0000
2000
0000
,
0000
0000
0000
0000
0000
0000
3001
0000
0000
0000
0000
0000
1000
0000
0100
0000
1000
0000
0001
0000
0000
0000
0000
0000
0011
0000
0000
0000
0000
0000
0000
0000
0000
1010
0000
0000
0000
0000
0000
0000
0000
0000
1002
0000
0000
0000
0000
0000
,
0103
0000
0000
0000
0000
0000
0010
0000
0100
0000
0010
0000
0100
0000
0000
0001
0000
0000
1000
0000
0000
0100
0000
0000
0010
0000
0000
0000
0000
0000
0001
0000
0000
0000
0000
0000
1000
0000
0010
0000
1000
0000
0002
0000
0000
0000
0000
0000
,
0000
0000
0013
0000
0100
0010
0001
0000
1000
0100
0100
0001
0100
0100
2000
0000
,
0000
0000
3010
0100
0010
0100
0001
0000
1000
0010
0010
0001
0010
0010
2000
0000
,
0000
0000
0000
0000
0000
0000
3001
0000
0000
0000
0000
0000
1000
0000
0100
0000
1000
0000
0001
0000
0010
0000
0001
0000
1000
0000
0000
0000
0000
0000
0000
0000
0000
0110
0000
0000
0000
0000
0000
0000
0000
0000
1002
0000
0000
0000
0000
0000
,
0013
0000
0000
0000
0000
0000
0100
0000
0010
0000
0100
0000
0010
0000
0000
0001
0000
0000
1000
0000
0000
0100
0000
0000
0010
0000
0000
0000
0000
0000
0001
0000
0000
0010
0000
0000
0011
0000
0000
0000
0000
0000
0001
0000
0000
1000
0000
0000
,
0010
1000
0001
1000
0010
1000
0001
0010
0100
0000
1000
0100
1100
0000
1000
0001
,
0100
0001
1000
0001
0100
0001
1000
0010
0001
0000
0010
1000
0001
1000
0100
1000
,
0001
1000
0010
0100
0001
0010
0100
1000
0001
0000
0000
0110
0000
0000
1002
0000
,
0103
0000
0000
0000
0000
0000
0010
0000
0100
0000
0010
0000
0100
0000
0000
0001
0000
0000
1000
0000
0000
0010
0000
0000
0001
0000
0000
0000
0000
0000
0010
0000
0000
0100
0000
0000
0001
0000
0000
1000
0000
0000
0100
0000
0000
1000
0000
0000
,
0001
0010
0100
1000
0001
0100
0010
0100
1000
0000
0100
0010
1000
0000
0100
0010
,
1000
0010
0100
0000
0010
0100
1000
0000
0110
0000
0001
0100
0010
1000
0001
0000
,
1000
0100
0010
0001
0100
0010
1000
0000
0110
0000
0001
0010
0100
0010
1000
0000
,
0010
0100
1000
0001
0100
0010
0001
0000
1000
0100
0010
1000
0100
0010
1000
0001
,
0100
0010
0001
0100
0010
0001
1000
0100
0001
0000
0000
0110
0000
0000
1002
0000
,
0013
0000
0000
0000
0000
0000
0100
0000
0010
0000
0100
0000
0010
0000
0000
0001
0000
0000
1000
0000
0000
0100
0000
0000
0020
0000
0000
0000
0000
0000
0000
0000
0000
0000
0000
0000
0000
0000
0000
0000
0000
0000
0032
0000
0000
0000
0000
0000
,
0000
0000
1003
1000
0010
0100
0100
0001
,
1000
0100
0000
1000
0100
1000
0001
0000
1000
0000
0010
0000
0010
0000
0001
0000
,
0100
0000
0000
0100
0000
0000
1000
0000
0000
0001
0000
0000
0100
0000
0010
0000
0010
0000
0001
0000
0100
0000
0100
0000
,
1000
0000
0000
0000
0010
0000
0000
0000
0010
0000
0000
0000
0001
0000
0000
0000
0000
0000
0000
0000
0000
0000
0000
0000
0110
0000
0000
0000
0000
0000
2000
0000
0000
0000
0000
0000
0000
0000
0000
0000
0000
0000
3100
0000
0000
0010
0000
0000
,
0002
0000
0000
0000
0000
0000
1003
0100
0001
0000
0100
0000
0010
0000
0001
0000
,
1000
0010
0002
0000
0023
0000
2030
0000
,
0000
0000
0000
0000
0000
0000
3001
0010
0100
1000
0100
0010
0001
1000
0010
0100
,
0001
0000
0000
0101
0000
0000
0100
0010
2000
0000
0000
0000
0000
0000
0000
0000
,
3200
0000
0000
0320
0000
0000
0032
0000
0203
0000
2300
0000
0000
0000
3100
0010
,
1000
0001
0010
0100
0010
0001
1000
0010
0200
0000
0000
0000
0000
0000
0301
0100
,
0001
0000
1000
0100
1000
0000
0001
0010
0001
0000
1000
0010
1000
0001
0010
0000
,
0100
0000
0000
0000
0000
0000
0100
0000
0000
0000
0000
0000
0100
0000
0000
0000
0000
0000
1000
0000
0100
0000
1000
0000
0001
0000
0000
0000
0000
0000
1000
0000
0000
0010
0000
0000
0100
0000
0000
1000
0000
0000
0000
0000
0000
0100
0000
0000
,
0000
010M
0000
0010
0001
1000
0100
0010
0000
0001
0010
0100
0001
0000
0100
0000
,
M100
0000
0010
1000
0001
0100
0010
1000
0001
0000
1000
0100
0010
1000
0000
0010
,
0000
1M10
0000
1000
0001
0100
0010
1000
0000
0001
0100
0010
0001
0000
0010
0000
,
0M11
0000
0001
1000
0100
0010
0001
0100
0010
0000
0100
1000
0000
100M
0000
0010
,
0000
0M10
0000
0001
1000
0100
0010
0001
0000
1000
0100
0010
0000
0100
0001
0000
,
M001
0000
0010
0000
0M10
0000
1000
0001
0100
0000
0010
0100
0001
1000
0010
0001
,
0000
01M1
0000
0100
0010
1000
0001
0010
0100
1000
0001
0100
0010
1000
0001
0010
,
0001
1000
0010
1000
0001
0010
0100
1000
0001
0100
0010
0100
1000
0100
0010
1000
,
0001
0010
0100
0001
0100
0010
0001
1000
0010
0100
1000
0100
0010
1000
0001
0010
,
0100
0010
1000
0010
0100
1000
0001
0100
2000
0000
0000
0000
0100
0000
0000
0000
,
0000
0100
3002
0010
,
0000
0013
2002
0000
,
0000
0000
0000
0000
,
0000
0000
0000
0000
0000
0000
0000
0000
0000
0000
0000
0000
0000
0000
0000
0000
0000
0000
0000
0000
0000
0000
0000
0000
0000
0000
0000
0000
0000
0000
0000
0000
0000
0000
0000
0000
0000
0000
0000
0000
0000
0000
0000
0000
0000
0000
0000
0000
0000
0000
0000
0000
0000
0000
0000
0000
0000
0000
0000
0000
0000
0000
0000
0000
0000
0000
0000
0000
0000
0000
0000
0000
0000
0000
0000
0000
0000
0000
0000
0000
0000
0000
0000
0000
0000
0000
0000
0000
0000
0000
0000
0000
0000
0000
0000
3003
M00M
0000
0000
0000
0000
0000
0000
0000
0000
0000
0000
0000
0000
0000
0000
0000
0000
0000
0000
0000
0000
0000
0000
0000
0000
0000
0000
0000
0000
0000
0000
0000
0000
0000
0000
0000
0000
0000
0000
0000
0000
0000
0000
0000
0000
0000
0000
0000
0000
0000
0000
0000
0000
0000
0000
0000
0000
0000
0000
0000
0000
0000
0000
0000
0000
0000
0000
0000
0000
0000
0000
0000
0000
0000
0000
0000
0000
0000
0000
0000
0000
0000
0000
0000
0000
0000
0000
0000
0000
0000
0000
0000
0000
0000
0000
0000
;

//--------------- dance-single - ----------------
#NOTEDATA:;
#STEPSTYPE:dance-single;
#DESCRIPTION:;
#DIFFICULTY:Challenge;
#METER:19;
#RADARVALUES:0,0,0,0,0;
#NOTES:
0000
0000
0000
0000
,
0000
0000
0000
0000
,
0000
0000
0000
0000
,
2001
0000
0000
0000
0000
0000
0000
0000
0100
0000
0000
0000
0000
0000
3100
0010
,
0002
0000
0000
0000
0203
0000
0310
1000
,
2001
0000
0000
0000
0000
0000
0000
0000
0100
0000
0000
0000
0000
0000
3100
0010
,
0002
0000
0000
0000
0000
0000
0000
0000
0000
0000
0000
0000
1000
0000
0000
0000
0000
0000
0000
0000
0000
0000
0000
0000
1003
0000
0000
0000
0000
0000
0000
0000
0001
0000
0100
0000
0001
0000
0000
1000
0000
0000
0010
0000
0000
0000
0000
0000
,
0100
0000
0101
0000
0000
1100
0000
0000
0101
0000
0000
1100
0000
1000
0100
0010
,
0001
0000
1000
0010
0000
0010
0100
0000
0001
0010
0000
0010
0100
0000
0010
0100
,
0001
0000
0100
0010
0000
0010
0001
0000
0100
0010
0000
0010
1000
0001
0100
0010
,
0001
0000
0011
0000
0000
1010
0000
0000
0110
0000
0001
0110
0000
1000
0110
0000
,
0000
0000
0000
0000
0001
0010
0100
1000
0020
0000
MM30
0000
0000
0M00
000M
0000
,
M000
0M00
00M0
0M00
M000
000M
0M00
000M
00M0
0000
0M0M
0000
0000
0M00
M000
0000
,
000M
0M00
000M
0000
0000
0000
0000
0000
0000
0000
0000
0000
0000
0000
0000
0000
,
0000
0000
1100
0000
0000
0100
0001
0000
1000
0100
0010
0100
1000
0001
0100
0001
,
0020
0000
0M3M
0000
0000
0M00
M000
0000
000M
0M00
00M0
0M00
000M
M000
0M00
M000
,
00M0
0000
MM00
0000
0000
0M00
000M
0000
M000
0M00
M000
0000
0000
0000
0000
0000
,
0000
0000
0000
0000
0000
0000
0000
0000
0000
0000
0101
0000
0000
0100
1000
0000
,
0001
0000
0100
0000
0010
0000
0100
0000
0001
0000
1000
0000
0100
0000
1000
0000
0020
0000
0000
0000
MM30
0000
0000
0000
0000
0000
000M
0M00
000M
0000
0000
0000
,
M000
0M00
00M0
0M00
M000
000M
0M00
00M0
000M
00M0
M000
0M00
00M0
M000
00M0
000M
,
0M00
00M0
000M
0000
0000
0000
0000
0000
0000
0000
0000
0000
0000
0000
0000
0000
,
0000
0000
0000
0000
1100
0000
0000
0000
0000
0000
0001
0100
0001
0000
0000
0000
1000
0000
0100
0000
0010
0000
0100
0000
1000
0000
0001
0000
0100
0000
0010
0000
,
0001
0000
0000
0010
0000
0000
1000
0000
0000
0100
0000
0000
0010
0000
0000
1000
0000
0000
0010
0000
0000
0001
0000
0000
0100
0000
0000
0010
0000
0000
0001
0000
0000
0010
0000
0000
1000
0000
0001
0000
1000
0000
0001
0000
0000
0010
0000
0000
,
0200
0000
M3M0
0000
0000
00M0
000M
0000
M000
0M00
00M0
M000
00M0
0M00
M000
000M
,
0M00
0000
00MM
0000
0000
00M0
M000
0000
000M
0M00
00M0
0000
0000
0000
0000
0000
,
0000
0000
0000
0000
0000
0000
0000
0000
0000
0000
1010
0000
0000
0010
0001
0000
,
1000
0100
0010
1000
0010
0100
1000
0001
0200
0000
03MM
0000
0000
00M0
M000
0000
,
000M
0M00
00M0
000M
00M0
0M00
000M
M000
0M00
0000
M0M0
0000
0000
00M0
000M
0000
,
M000
0M00
00M0
0000
0000
0000
0000
0000
0000
0000
0000
0000
0000
0000
0000
0000
,
0000
0000
0011
0000
0000
0010
1000
0000
0001
0100
0010
0001
0010
0100
0001
1000
,
0200
0000
0000
0000
M3M0
0000
0000
0000
0000
0000
000M
00M0
000M
0000
0000
0000
M000
0000
0M00
0000
00M0
0000
M000
0000
00M0
0000
0M00
0000
M000
0000
000M
0000
,
0M00
0000
0000
00M0
0000
0000
0M00
0000
0000
0000
0000
0000
000M
0000
0000
0000
0000
0000
M000
0000
0000
0000
0000
0000
0M00
0000
0000
00M0
0000
0000
0M00
0000
0000
0000
0000
0000
M000
0000
0000
0000
0000
0000
000M
0000
0000
0000
0000
0000
0M00
0000
0000
0000
00M0
0000
0000
0000
M000
0000
0000
0000
000M
0000
0000
0000
0000
0000
0000
0000
0000
0000
0000
0000
0000
0000
0000
0000
0000
0000
0000
0000
0000
0000
0000
0000
0000
0000
0000
0000
0000
0000
0000
0000
0000
0000
0000
0000
,
0000
0000
0000
0000
0000
0000
0000
0000
0000
0000
0000
0000
0000
0000
0000
0000
0000
0000
0000
0000
1010
0000
0000
0000
0000
0000
0001
0010
0001
0000
0000
0000
,
1000
0000
0100
0000
0010
0000
1000
0000
0010
0000
0100
0000
1000
0000
0001
0000
0100
0010
0100
0000
0001
0000
1000
0000
0100
0010
0100
0000
1000
0000
0001
0000
,
0100
0000
0010
0000
1000
0000
0001
0000
0000
1000
0000
0000
0010
0000
0000
0010
0000
0000
0100
0000
0000
0000
0000
0000
1001
0000
0000
0000
0000
0000
0001
0000
0000
0010
0000
0000
0100
0000
0000
1000
0000
0000
0010
0000
0000
0000
0000
0000
,
0001
0010
0100
1000
0001
0100
0010
0000
0001
0010
0100
1000
0010
0000
0001
0000
,
1000
0010
0100
0001
0010
0000
1000
0010
0100
0001
1000
0100
0010
0000
1000
0010
,
0100
0000
0000
0001
0000
0000
0010
0000
0000
0000
0000
0000
1000
0000
0000
0000
0000
0000
0001
0000
0000
0010
0000
0000
0100
0000
0000
0010
0000
0000
1000
0000
0000
0000
0000
0000
0010
0000
0100
0000
1000
0000
0001
0000
0010
0000
0001
0000
,
2000
0000
3020
0000
1131
0000
0001
0000
1001
0000
1000
0100
0010
0100
0001
0000
,
1000
0100
0010
0100
0001
0100
0010
0000
1000
0100
0010
0001
0100
0000
1000
0000
,
0001
0100
0010
0100
1000
0000
0001
0100
0010
0100
1000
0100
0010
0000
0001
0100
,
0010
0000
0000
1000
0000
0000
0100
0000
0000
0000
0000
0000
0001
0000
0000
0000
0000
0000
1000
0000
0000
0100
0000
0000
0010
0000
0000
0100
0000
0000
0001
0000
0000
0000
0000
0000
0100
0000
0010
0000
0001
0000
1000
0000
0100
0000
1000
0000
,
0002
0203
1311
1000
2001
0000
3400
0000
,
0000
0000
0310
0001
1001
1000
0010
0100
,
0010
0000
1000
0000
0010
0000
0100
0001
0101
0000
1000
0000
0100
0000
0010
0000
,
0100
0000
1000
0000
0100
0000
0010
0001
0012
0000
0000
0000
1000
0000
0000
0000
,
1003
0000
0000
0000
0000
0000
0000
0000
0000
0000
0000
0000
0000
0000
0000
0000
0001
0000
0000
0000
0100
0000
0000
0000
0001
0000
0000
0000
0000
0000
1000
0000
0000
0000
0000
0000
0010
0000
0000
0000
0000
0000
0100
0000
0000
0000
0000
0000
0001
0000
0000
0100
0000
0000
0001
0000
0000
0000
0000
0000
1000
0000
0000
0000
0000
0000
0100
0000
0000
0000
0000
0000
0010
0000
0000
0000
0000
0000
0001
0000
0000
0000
0000
0000
0100
0000
0000
0000
0000
0000
0001
0000
0000
0000
0000
0000
,
1000
0010
1000
0000
0001
0000
1000
0010
1000
0000
0001
0000
0010
0000
0100
0000
1000
0100
1000
0000
0001
0000
0100
0000
0010
0000
1000
0000
0100
0000
1000
0000
,
0001
0000
0000
0010
0000
0000
0001
0000
0000
0000
0000
0000
1000
0000
0000
0000
0000
0000
0001
0000
0000
0000
0000
0000
0100
0000
0000
0000
0010
0000
0000
0000
1000
0000
0000
0000
0001
0000
0000
0000
0000
0000
0010
0000
0000
0000
0000
0000
0100
0000
0000
0010
0000
0000
0100
0000
0000
0000
0000
0000
1000
0000
0000
0000
0000
0000
0001
0000
0000
0000
0000
0000
0100
0000
0000
0000
0000
0000
0010
0000
0000
0000
0000
0000
0100
0000
0000
0000
0000
0000
0001
0000
0000
0000
0000
0000
,
1000
0000
0000
0100
0000
0000
1000
0000
0000
0000
0000
0000
0001
0000
0000
0000
0000
0000
1000
0000
0000
0100
0000
0000
1000
0000
0000
0000
0000
0000
0001
0000
0000
0000
0000
0000
0100
0000
0000
0000
0000
0000
0010
0000
0000
0000
0000
0000
1010
0000
0000
0000
0000
0000
0000
0000
0000
0000
0000
0000
1000
0000
0000
0000
0010
0000
0000
0000
1000
0000
0000
0000
0001
0000
0000
0000
0100
0000
0000
0000
0001
0000
0000
0000
1000
0000
0000
0000
0010
0000
0000
0000
1000
0000
0000
0000
,
0001
0010
0100
1000
0100
0010
0001
1000
0010
0200
0000
0000
0000
0000
0000
0000
0000
0000
0300
0000
0000
0000
0000
0000
,
M000
0000
0000
0000
M000
0000
0000
0000
1001
0000
1000
0100
0010
0100
0001
0000
,
0110
0000
0001
0000
0010
1000
0010
0100
1000
0000
0001
0100
0010
0100
1000
0000
,
0110
0000
0000
0000
0000
0000
1000
0000
0000
0000
0000
0000
0010
0000
0000
0001
0000
0000
0010
0000
0000
0100
0000
0000
0001
0000
0000
1000
0000
0000
0100
0000
0000
0000
0000
0000
0010
0000
0100
0000
0010
0000
0100
0000
0000
0000
0000
0000
,
0001
0000
0000
0100
0000
0000
0010
0000
0000
0001
0000
0000
1000
0000
0010
0000
0100
0000
0001
0000
0000
0000
0000
0000
0101
0000
0000
0000
0000
0000
1000
0000
0000
1100
0000
0000
0000
0000
0000
0001
0000
0000
0102
0000
0000
0000
0000
0000
,
0000
0000
0000
0000
0000
0000
1003
0000
0100
0000
1000
0000
0100
0000
0000
1000
0000
0000
0001
0000
0000
0100
0000
0000
0020
0000
0000
0000
0000
0000
0000
0000
0000
0000
0000
0000
1030
0000
0000
0001
0000
0000
0010
0000
0000
0000
0000
0000
,
0110
0000
0000
0000
0000
0000
0001
0000
0000
0000
0000
0000
0100
0000
0010
0000
0100
0000
0010
0000
0000
0000
0000
0000
1001
0000
0000
1000
0000
0000
0100
0000
0000
0110
0000
0000
0010
0000
0000
0001
0000
0000
1002
0000
0000
0000
0000
0000
,
0000
0000
0103
0000
0010
0010
1000
0000
1001
1000
0010
0110
0100
0001
1002
0000
,
0000
0000
0000
0000
0000
0000
0013
0000
0000
0000
0000
0000
0001
0000
0010
0000
0100
0000
1000
0000
0100
0000
0010
0000
0001
0000
0000
0000
0000
0000
0000
0000
0000
1M11
0000
0000
0000
0000
0000
0000
0000
0000
11M1
0000
0000
0000
0000
0000
,
0001
0000
0000
1000
0000
0000
0010
0000
0100
0000
0010
0000
0100
0000
0000
0001
0000
0000
0010
0000
0000
0100
0000
0000
1000
0000
0000
0001
0000
0000
0010
0000
0000
0001
0000
0000
1000
0000
0000
0010
0000
0000
0100
0000
0000
1000
0000
0000
,
0000
1100
0000
0100
0001
1000
0010
0100
0001
1000
0010
1000
0001
0010
0100
0001
,
0000
0101
0000
0100
1000
0001
0100
0010
0001
0000
0010
1000
0001
0010
1000
0010
,
0100
0000
0010
0000
1000
0000
0010
0000
0100
0000
1000
0000
0001
0000
0100
0000
0101
0000
0000
0000
0000
0000
1100
0000
0000
0000
0001
0100
0002
0000
0000
0000
,
1003
0000
0000
0000
0000
0000
0001
0000
0010
0000
0001
0000
1000
0000
0100
0000
1000
0000
0001
0000
0010
0000
0100
0000
1000
0000
0000
0000
0000
0000
0001
0000
0000
0100
0000
0000
0010
0000
0000
0001
0000
0000
1000
0000
0000
0100
0000
0000
,
0010
0100
1000
0001
0010
0100
0001
1000
0100
0010
0100
0001
1000
0010
1000
0001
,
0100
0010
0100
1000
0001
0100
0010
1000
1001
0000
0001
0100
0010
0100
0001
1000
,
0100
0000
0000
0010
0000
0000
0001
0000
0000
0100
0000
0000
0010
0000
0000
0010
0000
0000
1000
0000
0000
0000
0000
0000
1001
0000
0000
0000
0000
0000
0001
0000
0000
0100
0000
0000
0010
0000
0100
0000
0010
0000
0100
0000
0000
0001
0000
0000
,
1000
0000
0100
0000
0010
0000
0001
0000
0010
0000
0100
0000
1000
0000
0000
1000
0000
0000
0001
0000
0000
0000
0000
0000
1000
0000
0010
0000
1000
0000
0001
0000
0010
0000
0001
0000
1000
0000
0010
0000
1000
0000
0001
0000
0010
0000
0100
0000
,
1000
0000
0010
0000
1000
0000
0001
0000
0100
0000
0010
0000
1000
0000
0100
0000
1000
0000
0001
0000
0010
0000
0100
0000
1000
0000
0000
0000
0000
0000
0001
0000
0000
0011
0000
0000
0000
0000
0000
1000
0000
0000
1010
0000
0000
0000
0000
0000
,
0001
0000
0000
0001
0000
0000
0010
0000
0100
0000
0010
0000
0100
0000
0000
1000
0000
0000
0001
0000
0000
0100
0000
0000
0210
0000
0000
0000
0000
0000
0000
0000
0000
0000
0000
0000
0000
0000
0000
0301
0000
0000
0001
0000
0000
0000
0000
0000
,
1000
0000
0000
0100
0000
0000
0000
0000
0000
1000
0000
0000
0100
0000
0010
0000
0001
0000
1000
0000
0010
0000
0100
0000
0001
0000
0000
0000
0000
0000
0100
0000
0000
0000
0000
0000
0100
0000
0000
0000
0000
0000
0010
0000
0000
0000
0000
0000
,
1000
0010
0000
1000
0001
0010
0100
1000
0001
0100
0001
0100
0001
0000
1000
0100
,
1000
0000
0000
0100
0000
0000
1000
0000
0000
0000
0000
0000
0001
0000
0000
0000
0000
0000
0100
0000
0000
0010
0000
0000
1000
0000
0000
0000
0001
0000
0100
0000
0010
0000
0100
0000
0001
0000
0000
0000
1000
0000
0100
0000
0010
0000
0100
0000
,
1000
0000
0000
0000
0001
0000
0100
0000
0010
0000
0000
0000
1010
0000
0000
0000
0000
0000
0000
0000
0000
0000
0000
0000
0010
0000
0000
0000
0000
0000
0002
0000
0000
0000
0000
0000
0000
0000
0000
0000
0000
0000
0013
0000
0000
0100
0000
0000
,
0002
0000
0000
0000
0000
0000
1003
0100
0001
0000
0100
0000
0010
0000
0001
0000
,
1000
0010
0002
0000
0023
0000
2030
0000
,
0000
0000
0000
0000
0000
0000
3001
0010
0100
0001
0100
0010
0001
0100
0010
0001
,
0010
0000
0000
0100
0000
0000
0001
0000
0000
1000
0000
0000
0100
0000
0000
0010
0000
0000
0001
0000
1000
0000
0001
0000
2000
0000
0000
0000
0000
0000
0000
0000
0000
0000
0000
0000
0000
0000
0000
0000
0000
0000
0000
0000
0000
0000
0000
0000
,
3200
0000
0000
0320
0000
0000
0032
0000
0203
0000
2300
0000
0000
0000
3100
0010
,
1000
0001
0010
0100
0001
1000
0010
0100
2000
0000
0000
0000
0000
0000
3001
0001
,
0010
0000
1000
1000
0010
0000
0001
0001
0010
0100
0000
0100
0001
0100
1000
0000
,
1010
0000
0000
0000
0000
0000
0011
0000
0000
0000
0000
0000
1001
0000
0000
0000
0000
0000
1000
0000
0001
0000
1000
0000
0001
0000
0000
0010
0000
0000
0100
0000
0000
0001
0000
0000
0100
0000
0000
1000
0000
0000
0001
0000
0000
0100
0000
0000
,
0100
0010
1000
0001
0010
0100
1000
0001
0100
0010
0001
0010
1000
0001
0010
0010
,
0100
1000
0001
0100
0010
1000
0100
0010
0001
1000
0100
0010
1000
0010
0001
1000
,
1000
0010
0100
0001
0010
0100
0010
0001
1000
0010
0100
1000
0100
0001
1000
1000
,
0100
0000
0000
0010
0000
0000
0001
0000
0000
0100
0000
0000
0010
0000
0100
0000
0001
0000
1000
0000
0010
0000
1000
0000
0001
0000
0000
0010
0000
0000
0100
0000
0000
0001
0000
0000
1000
0000
0000
0010
0000
0000
0001
0000
0000
1000
0000
0000
,
1000
0010
0100
0001
0010
0100
1000
0001
0100
0010
0001
1000
0100
0001
1000
1000
,
0100
0010
0001
0100
0010
1000
0001
0010
0100
0001
1000
0010
0001
1000
0010
0100
,
0100
0001
0010
0100
1000
0001
0100
1000
0001
0010
0100
0001
0010
0100
0001
1000
,
0010
0000
0000
0001
0000
0000
1000
0000
0000
0010
0000
0000
0001
0000
0000
0010
0000
0000
0100
0000
0000
0001
0000
0000
1000
0000
0100
0000
0010
0000
0001
0000
0100
0000
0010
0000
1000
0000
0000
0001
0000
0000
0010
0000
0000
0001
0000
0000
,
1000
0000
0010
0000
0100
0000
0001
0000
0010
0000
0001
0000
1000
0000
0100
0000
0010
0000
0001
0000
0100
0000
0001
0000
1000
0000
0000
0010
0000
0000
0100
0000
0000
0010
0000
0000
1000
0000
0000
0001
0000
0000
0010
0000
0000
0001
0000
0000
,
1000
0000
0100
0000
0010
0000
0001
0000
0100
0000
0010
0000
1000
0000
0000
1000
0000
0000
0001
0000
0000
0100
0000
0000
2000
0000
0000
0000
0000
0000
0000
0000
0000
0000
0000
0000
0100
0000
0000
0000
0000
0000
0000
0000
0000
0000
0000
0000
,
0000
0100
3002
0010
,
0000
0013
2002
0000
,
0000
0000
0000
0000
,
0000
0000
0000
0000
0000
0000
0000
0000
0000
0000
0000
0000
0000
0000
0000
0000
0000
0000
0000
0000
0000
0000
0000
0000
0000
0000
0000
0000
0000
0000
0000
0000
0000
0000
0000
0000
0000
0000
0000
0000
0000
0000
0000
0000
0000
0000
0000
0000
0000
0000
0000
0000
0000
0000
0000
0000
0000
0000
0000
0000
0000
0000
0000
0000
0000
0000
0000
0000
0000
0000
0000
0000
0000
0000
0000
0000
0000
0000
0000
0000
0000
0000
0000
0000
0000
0000
0000
0000
0000
0000
0000
0000
0000
0000
0000
3003
M00M
0000
0000
0000
0000
0000
0000
0000
0000
0000
0000
0000
0000
0000
0000
0000
0000
0000
0000
0000
0000
0000
0000
0000
0000
0000
0000
0000
0000
0000
0000
0000
0000
0000
0000
0000
0000
0000
0000
0000
0000
0000
0000
0000
0000
0000
0000
0000
0000
0000
0000
0000
0000
0000
0000
0000
0000
0000
0000
0000
0000
0000
0000
0000
0000
0000
0000
0000
0000
0000
0000
0000
0000
0000
0000
0000
0000
0000
0000
0000
0000
0000
0000
0000
0000
0000
0000
0000
0000
0000
0000
0000
0000
0000
0000
0000
;
