#VERSION:0.83;
#TITLE:拝啓ドッペルゲンガー;
#SUBTITLE:;
#ARTIST:kradness;
#TITLETRANSLIT:Dear Doppelganger;
#SUBTITLETRANSLIT:;
#ARTISTTRANSLIT:;
#GENRE:VOCALOID;
#ORIGIN:;
#CREDIT:;
#BANNER:Dear Doppelganger-bn.png;
#BACKGROUND:Dear Doppelganger-bg.png;
#PREVIEWVID:;
#JACKET:Dear Doppelganger-jacket.png;
#CDIMAGE:;
#DISCIMAGE:;
#LYRICSPATH:;
#CDTITLE:;
#MUSIC:Dear Doppelganger.ogg;
#OFFSET:0.362000;
#SAMPLESTART:53.340000;
#SAMPLELENGTH:15.000000;
#SELECTABLE:YES;
#BPMS:0.000=181.000;
#STOPS:;
#DELAYS:;
#WARPS:;
#TIMESIGNATURES:0.000=4=4;
#TICKCOUNTS:0.000=4;
#COMBOS:0.000=1;
#SPEEDS:0.000=1.000=0.000=0;
#SCROLLS:0.000=1.000;
#FAKES:;
#LABELS:0.000=Song Start;
#BGCHANGES:;
#KEYSOUNDS:;
#ATTACKS:
;

//---------------dance-single - ----------------
#NOTEDATA:;
#CHARTNAME:;
#STEPSTYPE:dance-single;
#DESCRIPTION:;
#CHARTSTYLE:;
#DIFFICULTY:Challenge;
#METER:18;
#RADARVALUES:1.070538,1.174294,0.100012,0.085725,1.178715,1049.000000,1035.000000,14.000000,12.000000,0.000000,0.000000,0.000000,0.000000,0.000000,1.070538,1.174294,0.100012,0.085725,1.178715,1049.000000,1035.000000,14.000000,12.000000,0.000000,0.000000,0.000000,0.000000,0.000000;
#CREDIT:;
#NOTES:
0000
0000
0000
0000
,
0000
0000
0000
0000
,
0000
0000
0000
0000
,
1000
0001
1000
0001
0100
0010
0100
0010
1000
0100
1000
0100
0010
0000
0000
0000
,
0001
0000
0100
0000
0010
0100
0001
0000
1000
0000
0100
0010
0100
0000
1000
0000
,
0001
0000
0100
0000
0010
0100
0001
0000
0010
0100
1000
0100
0010
0000
0001
0000
,
1000
0100
0010
0001
0100
0000
0001
0010
0100
1000
0001
0000
1000
0010
0100
0001
,
0010
0000
0001
0000
0100
0001
0010
0100
1000
0000
1000
0001
1000
0000
0100
0000
,
1000
0000
0100
0000
0010
0100
1000
0000
0001
0000
0100
0010
0100
0000
0001
0000
,
1000
0000
0100
0000
0010
0100
1000
0000
0010
0100
0001
0100
0010
0000
1000
0000
,
0001
0100
0010
1000
0100
0000
1000
0010
0100
0001
1000
0000
0001
0010
0100
1000
,
0010
0000
0000
0000
0000
0000
1000
0000
0000
0000
0000
0000
0100
0000
0000
1000
0000
0000
0010
0000
0000
0100
0000
0000
0001
0000
0000
0000
0000
0000
0001
0000
1000
0000
0001
0000
1000
0000
0000
0000
0000
0000
0100
0000
0000
0000
0000
0000
,
0010
0001
0100
1000
0100
0001
0010
1000
,
0010
0001
0100
1000
0100
0001
0010
0100
,
1000
0001
0010
0000
0100
0000
0010
0001
1000
0000
0010
0000
1000
0001
0100
0000
,
0010
0000
0100
0001
1000
0000
0100
0000
1000
0010
1000
0010
0100
0010
0100
0000
,
0002
0000
0000
0013
0001
0000
0100
0000
0010
1000
0010
0000
0100
0000
0001
0000
,
0010
0000
0100
1000
0100
0000
2000
0000
0000
3010
1000
0000
0100
0000
0010
0000
,
0002
0000
0000
0013
0001
0000
0100
0000
0010
1000
0010
0000
0100
0000
0001
0000
,
0010
0000
0100
1000
0100
0000
2000
0000
0000
3100
0010
0000
0001
0000
0001
0000
,
2000
0000
0000
3010
1000
0000
0100
0000
0010
0001
0010
0000
0100
0000
1000
0010
,
0100
0010
0100
0010
0100
0000
0001
1000
0001
1000
0001
0010
0100
0000
0100
0000
,
0100
0000
1000
0000
0010
0100
0010
0000
1000
0000
0100
0010
0100
0000
0010
0001
,
0100
0000
1000
0000
0100
0010
0100
0000
0001
1000
0001
1000
0001
0000
0010
0100
,
1000
0000
0010
0100
0010
0000
1000
0000
0100
0010
0100
0000
0010
0000
0001
0100
,
0010
0000
1000
0001
1000
0000
0002
0000
0000
0013
0001
0000
0100
0000
0010
0000
,
1000
0000
0100
0010
0100
0010
0000
0010
0100
0000
1000
0000
0001
0000
0100
0010
,
0100
0000
0001
1000
0001
0000
2000
0000
0000
3010
1000
0000
0100
0000
0100
0000
,
2000
0000
0000
3010
1000
0000
0100
0000
0010
0001
0010
0000
0100
0000
1000
0010
,
1000
0000
0001
0010
0001
0000
1000
0010
1000
0010
0100
0010
0100
0010
1000
0001
,
1000
0000
0100
0000
0010
0100
0010
0000
0001
0000
0100
0010
0100
0000
0001
1000
,
0100
0000
0001
0000
0100
0010
0100
0000
1000
0001
1000
0001
1000
0000
0010
0000
,
0100
0001
0100
0000
0010
0000
1000
0100
1000
0100
1000
0000
0100
0000
0010
0001
,
0010
0001
0010
0000
0100
0000
1000
0010
1000
0010
1000
0000
0010
0000
0010
1000
,
0100
1000
0100
0000
0010
0000
0001
0100
0001
0100
0001
0000
0100
0000
0010
1000
,
0010
1000
0010
0000
0100
0000
0001
0010
0001
0010
0001
0000
0100
0000
0010
0001
,
0100
0000
0010
1000
0100
0000
0010
0001
0100
0000
0010
1000
0100
0000
0100
1000
,
0010
0000
0100
0001
0010
0000
0100
1000
0010
0000
0100
0001
0010
0000
0100
1000
,
0010
0100
0000
0100
0010
0000
0100
0001
0010
0100
0000
0100
0010
0000
0001
1000
,
0001
0000
0000
0001
0000
0000
0001
0000
0010
0100
0010
0100
0010
0000
0001
0000
,
1000
0000
0000
1000
0000
0000
1000
0000
1100
0000
0000
0000
0101
0000
0000
0000
,
0001
0000
0010
0100
0010
0000
0001
0000
0100
0010
0100
0000
0001
0000
1000
0010
,
1000
0000
0100
0000
1000
0010
1000
0000
0100
0000
0010
0001
0010
0000
0100
0000
,
1000
0000
0010
0100
0010
0000
1000
0001
1000
0000
0100
0000
1000
0000
0001
0100
,
0001
0100
0001
0000
0010
0000
0100
1000
0100
0000
0010
0000
0001
1000
0001
0000
,
0100
0010
0100
0010
0100
0000
0001
1000
0001
1000
0001
0000
0010
0000
0100
1000
,
0010
0000
0100
0000
0010
1000
0100
0000
0010
0000
0100
1000
0001
0000
0100
0000
,
0010
1000
0010
1000
0010
0000
0100
0001
0100
0001
0100
0000
0001
0010
0001
0010
,
0001
0000
1000
0100
1000
0100
1000
0000
0001
1000
0001
1000
0001
1000
0001
0000
,
1000
0000
0010
0100
0010
0000
1000
0000
0100
0010
0100
0000
1000
0000
0001
0010
,
0001
0000
0100
0000
0001
0010
0001
0000
0100
0000
0010
1000
0010
0000
0100
0000
,
0001
0000
0010
0100
0010
0000
0001
1000
0001
0000
0100
0000
0001
0000
1000
0100
,
1000
0100
1000
0000
0010
0000
0100
0001
0100
0000
0010
0000
1000
0001
1000
0000
,
0100
0010
0100
0010
0100
0000
0010
0001
0010
0001
0010
0000
0001
0000
1000
0010
,
1000
0000
0100
1000
0100
1000
0100
1000
0100
0000
1000
0001
1000
0001
1000
0000
,
0101
0000
0000
0110
0000
0000
1010
0000
1100
0000
0000
0110
0000
0000
0011
0000
,
0001
0001
0010
0010
0100
0000
1000
0000
,
0001
0000
0100
0000
0010
0100
0001
0000
1000
0000
0100
0010
0100
0000
1000
0000
,
0001
0000
0100
0000
0010
0100
0001
0000
0010
0100
1000
0100
0010
0000
0001
0000
,
1000
0100
0010
0001
0100
0000
0001
0010
0100
1000
0001
0000
1000
0010
0100
0001
,
0010
0000
0000
0000
0000
0000
0001
0000
0000
0000
0000
0000
0100
0000
0000
0001
0000
0000
0010
0000
0000
0100
0000
0000
1000
0000
0000
0000
0000
0000
1000
0000
0001
0000
1000
0000
0001
0000
0000
0000
0000
0000
0010
0000
0000
0001
0000
0000
,
1000
0000
0100
0000
0010
0100
1000
0000
0001
0000
0100
0010
0100
0000
0001
0000
,
1000
0000
0100
0000
0010
0100
1000
0000
0010
0100
0001
0100
0010
0000
1000
0000
,
0001
0100
0010
1000
0100
0000
1000
0010
0100
0001
1000
0000
0001
0010
0100
1000
,
0010
0000
0000
0000
0000
0000
1000
0000
0000
0000
0000
0000
0100
0000
0000
1000
0000
0000
0010
0000
0000
0100
0000
0000
0001
0000
0000
0000
0000
0000
0001
0000
1000
0000
0001
0000
1000
0000
0000
0000
0000
0000
0000
0000
0000
0000
0000
0000
,
1001
0000
0000
0000
0000
0000
0000
0011
,
0000
0000
0000
0110
,
1001
0000
0000
0000
0000
0000
0000
0110
,
0000
0000
0000
0000
0000
0000
0000
0000
0100
0001
0100
0001
0100
0000
0010
0000
,
1000
0100
1000
0100
1000
0100
1000
0100
0010
0001
0010
0001
0010
0001
0010
0001
,
1000
0010
1000
0010
1000
0010
1000
0010
0100
0001
0100
0001
0100
0001
0100
0001
,
0020
0000
0000
0032
0000
0000
2003
0000
0000
0000
0010
0000
0000
0010
0000
0000
,
3010
0000
0100
0001
0100
0001
0100
0001
0010
0000
0100
1000
0100
0000
1000
0000
,
0001
0000
0100
0010
0100
0000
0001
0000
0010
0100
0010
0000
0001
0000
1000
0100
,
1000
0000
0010
0000
1000
0100
1000
0000
0010
0000
0100
0001
0100
0000
0010
0000
,
1000
0000
0100
0010
0100
0000
1000
0001
1000
0000
0010
0000
1000
0000
0001
0010
,
0001
0010
0001
0000
0100
0000
0010
1000
0010
0000
0100
0000
0001
1000
0001
0000
,
0010
0100
0010
0100
0010
0000
0100
1000
0100
1000
0100
0000
1000
0000
0001
0100
,
0001
0000
0010
0001
0010
0001
0010
0001
0010
0000
0001
1000
0001
1000
0001
1000
,
0010
0000
1000
0001
0000
0001
1000
0000
0100
0000
1000
0001
0000
0001
1000
0000
,
0010
0000
0100
0000
0001
0000
0010
0000
0100
0000
1000
0010
1000
0000
0100
0000
,
1000
1000
0010
0010
0100
0000
0001
0000
,
1000
0000
0010
0000
0100
0010
1000
0000
0001
0000
0010
0100
0010
0000
0001
0000
,
1000
0000
0010
0000
0100
0010
1000
0000
0100
0010
0001
0010
0100
0000
1000
0000
,
0001
0010
0100
1000
0010
0000
1000
0100
0010
0001
1000
0000
0001
0100
0010
1000
,
0100
0000
0000
0000
0000
0000
1000
0000
0000
0000
0000
0000
0010
0000
0000
1000
0000
0000
0100
0000
0000
0010
0000
0000
0001
0000
0000
0000
0000
0000
0001
0000
1000
0000
0001
0000
1000
0000
0000
0000
0000
0000
0010
0000
0000
1000
0000
0000
,
0001
0000
0100
0000
0010
0100
0001
0000
1000
0000
0100
0010
0100
0000
1000
0000
,
0001
0000
0100
0000
0010
0100
0001
0000
0010
0100
1000
0100
0010
0000
0001
0000
,
1000
0100
0010
0001
0100
0000
0001
0010
0100
1000
0001
0000
1000
0010
0100
0001
,
0010
0000
0000
0000
0000
0000
0001
0000
0000
0000
0000
0000
0100
0000
0000
0001
0000
0000
0010
0000
0000
0100
0000
0000
1000
0000
0000
0000
0000
0000
1000
0000
0001
0000
1000
0000
0001
0000
0000
0000
0000
0000
0010
0000
0000
0001
0000
0000
,
1000
0000
0010
0000
0100
0010
1000
0000
0001
0000
0010
0100
0010
0000
0001
0000
,
1000
0000
0010
0000
0100
0010
1000
0000
0100
0010
0001
0010
0100
0000
1000
0000
,
0001
0010
0100
1000
0010
0000
1000
0100
0010
0001
1000
0000
0001
0100
0010
1000
,
0100
0000
0000
0000
0000
0000
1000
0000
0000
0000
0000
0000
0010
0000
0000
1000
0000
0000
0100
0000
0000
0010
0000
0000
0001
0000
0000
0000
0000
0000
0001
0000
1000
0000
0001
0000
1000
0000
0000
0000
0000
0000
0100
0000
0000
1000
0000
0000
,
0010
0000
1000
0000
0100
1000
0100
1000
0100
1000
0100
1000
0100
0000
0010
0001
,
0010
0000
0001
0100
0010
1000
0010
1000
0010
1000
0010
1000
0010
0000
0100
0001
,
0010
0001
0010
0001
0010
0000
0100
1000
0010
0100
0010
0000
1000
0001
1000
0001
,
0010
0000
0000
0100
0000
0000
0010
0000
0000
0100
0000
0000
1000
0000
0000
0001
0000
0000
1000
0000
0000
0001
0000
0000
0010
0000
0000
0000
0000
0000
0001
0000
1000
0000
0001
0000
1000
0000
0000
0000
0000
0000
0100
0000
0000
0000
0000
0000
,
0020
0000
0000
0000
,
0000
0000
0000
0030
0000
1001
0000
0000
;
