#VERSION:0.83;
#TITLE:Cutter;
#SUBTITLE:;
#ARTIST:EmoCo.;
#TITLETRANSLIT:;
#SUBTITLETRANSLIT:;
#ARTISTTRANSLIT:;
#GENRE:;
#ORIGIN:;
#CREDIT:;
#BANNER:;
#BACKGROUND:;
#PREVIEWVID:;
#JACKET:;
#CDIMAGE:;
#DISCIMAGE:;
#LYRICSPATH:;
#CDTITLE:;
#MUSIC:c.mp3;
#OFFSET:1.409000;
#SAMPLESTART:36.091000;
#SAMPLELENGTH:12.000000;
#SELECTABLE:YES;
#BPMS:0.000=160.000;
#STOPS:;
#DELAYS:;
#WARPS:;
#TIMESIGNATURES:0.000=4=4;
#TICKCOUNTS:0.000=4;
#COMBOS:0.000=1;
#SPEEDS:0.000=1.000=0.000=0;
#SCROLLS:0.000=1.000;
#FAKES:;
#LABELS:0.000=Song Start;
#BGCHANGES:3.750=c.mp4=1.000=0=0=1=====,
99999=-nosongbg-=1.000=0=0=0 // don't automatically add -songbackground-
;
#KEYSOUNDS:;
#ATTACKS:
;

//---------------dance-single - ----------------
#NOTEDATA:;
#CHARTNAME:;
#STEPSTYPE:dance-single;
#DESCRIPTION:;
#CHARTSTYLE:;
#DIFFICULTY:Challenge;
#METER:17;
#RADARVALUES:0.840742,0.970384,0.640893,0.254979,0.620219,854.000000,761.000000,93.000000,37.000000,0.000000,0.000000,0.000000,0.000000,0.000000,0.840742,0.970384,0.640893,0.254979,0.620219,854.000000,761.000000,93.000000,37.000000,0.000000,0.000000,0.000000,0.000000,0.000000;
#CREDIT:;
#NOTES:
// measure 0
0000
0000
0000
0000
,  // measure 1
0000
0000
0000
0000
,  // measure 2
0000
0000
0000
0000
,  // measure 3
0000
0000
0000
0000
,  // measure 4
0000
0000
0000
0000
,  // measure 5
0000
0000
0000
0000
,  // measure 6
0001
0000
1000
0100
1000
0000
0010
0100
0010
0000
1000
0000
0010
0000
0100
0000
,  // measure 7
0001
0000
0010
0100
0010
0000
0001
0100
0001
0000
0100
0000
0010
0000
1000
0000
,  // measure 8
0001
0000
1000
0100
1000
0000
0001
1000
0001
0000
0100
0000
0010
0000
1000
0000
,  // measure 9
0001
0010
1000
0010
0001
0100
1000
0100
,  // measure 10
0002
0000
0010
0000
0013
0000
0001
0010
0100
0010
0100
0000
1000
0000
0200
0000
,  // measure 11
0010
0000
0310
0001
1000
0000
0020
0000
0130
0001
0100
0001
1000
0000
0010
0000
,  // measure 12
1010
0000
0000
0101
0000
1100
0000
0011
,  // measure 13
1000
0000
0100
1000
0100
0000
0010
0001
0010
0000
0110
0000
1001
0000
0000
0000
,  // measure 14
1000
0000
1000
0100
0010
0000
0010
0001
0100
0000
0001
0000
1000
0000
0001
0000
,  // measure 15
0100
0000
0100
0001
1000
0000
1000
0100
0010
0000
0001
0000
1000
0000
0001
0000
,  // measure 16
0010
0000
0010
0001
0100
0000
0100
0010
1000
0000
0001
0000
0100
0000
0001
0000
,  // measure 17
0010
0001
0100
1000
0010
1000
0100
0001
,  // measure 18
0101
0000
0001
0010
0001
0000
1000
0010
0100
0000
0100
0010
1000
0000
0001
0000
,  // measure 19
0100
0000
0010
1000
0100
0000
0100
0010
0001
0000
0001
0010
0100
0000
0010
0000
,  // measure 20
0001
0100
0001
0100
0010
1000
0010
1000
0001
0010
0001
0010
0100
1000
0100
1000
,  // measure 21
0002
0000
0103
0000
0001
1000
0001
0010
,  // measure 22
0011
0000
0000
0000
0001
0000
0010
0100
0000
1000
0000
0100
0010
0000
0001
0000
,  // measure 23
1100
0000
0010
0000
0101
0000
0010
0000
1100
0000
0001
1000
0010
0000
0110
0000
,  // measure 24
0001
0000
0000
0000
1000
0000
0100
0010
0000
0010
0000
0100
0010
0000
0011
0000
,  // measure 25
1100
0000
0001
1000
0100
0000
0010
0000
0001
0000
0100
0000
1000
0000
0100
0000
,  // measure 26
0011
0000
0000
0000
0001
0000
0100
0010
0000
0010
0000
0100
0010
0000
1010
0000
,  // measure 27
0101
0000
1000
0010
0100
0000
1000
0000
0100
0000
0001
0000
0010
0000
0110
0000
,  // measure 28
1001
0000
0000
0000
1100
0000
0000
0101
0000
0010
0000
1000
0100
0000
0100
0000
,  // measure 29
0011
0000
1000
0100
0010
0000
0100
1000
0010
0000
0010
0000
0200
0300
0002
0003
,  // measure 30
0101
0000
0010
1000
0010
0000
0001
0000
0100
0010
0100
0000
0010
0100
0010
0000
,  // measure 31
1000
0100
0010
0001
1000
0010
0100
0001
,  // measure 32
1100
0000
0010
0001
0010
0000
1000
0000
0100
0010
0100
0000
1000
0100
1000
0000
,  // measure 33
0001
0010
0100
1000
0001
0100
0010
1000
,  // measure 34
0101
0000
0010
1000
0100
0000
0010
0000
0001
1000
0000
1000
0100
0000
0010
0000
,  // measure 35
0001
0000
0100
0010
1000
0000
0001
0000
0011
0000
0000
0110
0000
0000
1100
0000
,  // measure 36
0001
0000
0010
0100
0010
0000
0001
0000
1000
0010
1000
0010
0100
0001
0100
0001
,  // measure 37
2000
0000
0000
3000
,  // measure 38
0101
0010
1010
0001
,  // measure 39
0110
0100
1000
0001
0010
0000
1100
0000
,  // measure 40
0011
0000
0001
0000
1000
0010
0100
0000
,  // measure 41
0101
0000
1000
0100
0010
0000
0100
0000
1000
0000
1000
0000
0001
0000
0001
0000
,  // measure 42
0110
0000
0001
0010
0100
0000
0010
0000
1001
0000
0001
0100
0010
0000
0010
0000
,  // measure 43
0110
0000
1000
0010
0100
0000
0010
0000
1001
0000
0100
0000
0101
0000
0000
0000
,  // measure 44
0011
0000
1000
0010
0100
0000
0001
0000
0010
0100
0010
0100
0010
0100
0010
0100
,  // measure 45
0000
0000
0000
0000
,  // measure 46
1001
0000
0001
1000
0100
0000
0010
0100
0000
0000
0010
0000
0101
0000
0000
0000
,  // measure 47
1001
0000
0001
0010
0100
0000
0010
0001
0000
0000
1000
0000
1010
0000
0000
0000
,  // measure 48
0101
0000
0100
0001
0010
0000
0100
1000
0000
0000
0001
0000
1010
0000
0000
0000
,  // measure 49
0011
0000
0001
1000
0010
0000
0100
0001
0000
0100
0010
0000
2000
0000
3000
0000
,  // measure 50
1010
0000
0010
0100
0001
0000
0010
1000
0000
0000
0010
0000
1001
0000
0000
0000
,  // measure 51
0101
0000
0100
0001
0010
0000
1000
0010
0000
0000
0100
0000
1001
0000
0000
0000
,  // measure 52
1010
0000
0010
1000
0001
0000
0100
0010
0000
0000
1000
0000
0101
0000
0000
0000
,  // measure 53
0001
0000
0100
0010
1000
0000
0001
0000
0010
0000
0100
0000
1000
0000
0001
0000
,  // measure 54
0101
0000
0001
1000
0100
0000
0010
0000
0001
0100
0010
1000
0010
0000
0100
0000
,  // measure 55
0101
0000
0001
0010
0100
0000
0010
0000
0001
1000
0100
0010
0100
0000
1000
0000
,  // measure 56
1010
0000
0100
0001
0010
0000
0100
0000
0010
1000
0010
0100
1000
0000
0001
0000
,  // measure 57
0101
0000
1000
0100
1000
0000
0001
1000
0100
0010
0100
1000
0010
0000
0000
0000
,  // measure 58
0110
0000
0100
0001
0010
0000
0100
0000
1000
0010
0100
0010
1000
0000
0001
0000
,  // measure 59
0011
0000
0010
0100
1000
0000
0001
0000
0100
0010
1000
0001
0100
0000
0001
0000
,  // measure 60
0011
0000
0100
0000
1100
0000
0001
0000
0010
0100
0010
0100
1000
0100
1000
0100
,  // measure 61
0010
0000
0001
0100
1000
0000
0100
0000
0001
0000
0010
0000
0100
0000
1000
0000
,  // measure 62
0001
0020
0000
0230
0000
0320
0000
0032
,  // measure 63
0000
0203
0000
0320
0000
2030
0000
3000
,  // measure 64
0010
0200
0000
0320
0000
2030
0000
3001
,  // measure 65
0010
0000
0010
0001
1000
0000
0100
1000
0001
0000
0010
0001
1000
0000
0010
0000
,  // measure 66
0110
0000
0100
0001
0010
0000
0100
1000
0010
1000
0100
1000
0010
0000
0100
0000
,  // measure 67
1001
0000
0001
0100
0010
0000
1000
0100
0001
0100
1000
0100
0010
0000
0001
0000
,  // measure 68
0100
0000
0010
0000
1000
0000
0001
0000
0010
0100
0010
0100
0010
0100
0010
0100
,  // measure 69
2000
0000
3001
0000
0001
0010
0001
1000
,  // measure 70
1010
0000
0000
0000
0000
0000
0000
0000
0110
0000
0000
0101
0000
0000
1100
0000
,  // measure 71
0011
0000
0000
0000
0000
0000
0000
0000
0110
0000
0000
1100
0000
0000
0101
0000
,  // measure 72
1010
0000
0000
0000
0000
0000
0000
0000
0011
0000
0000
1100
0000
0000
0001
0000
,  // measure 73
0200
0000
0010
0000
0000
0000
0310
0000
1000
0000
0000
0001
0010
0000
0001
0000
,  // measure 74
1100
0000
0001
1000
0100
0000
0010
0001
0100
1000
0100
0001
0010
0000
0100
0000
,  // measure 75
0011
0000
1000
0001
0010
0000
0100
1000
0010
0001
0010
1000
0100
0000
0010
0000
,  // measure 76
0001
0100
0001
0100
0010
1000
0010
1000
0001
0010
0001
0010
0100
1000
0100
1000
,  // measure 77
0002
0000
0000
0000
0103
0010
1010
0000
,  // measure 78
0011
0000
0001
0010
1000
0000
0010
0000
0001
0010
0001
0000
0010
1000
0010
0000
,  // measure 79
1100
0000
1000
0100
0001
0000
0100
0000
1000
0100
1000
0000
0001
0100
0001
0000
,  // measure 80
0101
0000
0001
0010
1000
0000
0010
0000
0001
0010
0100
0000
0001
0100
0010
0100
,  // measure 81
2000
0000
0000
0000
3001
0000
0100
0000
0101
0000
0010
1000
0010
0000
0100
0000
,  // measure 82
1001
0000
1000
0010
0100
0000
0101
0000
0001
1000
0100
0000
0110
0000
0010
0000
,  // measure 83
0011
0000
1000
0010
0100
0000
0101
0000
0001
0000
1000
0000
1010
0000
0100
0000
,  // measure 84
0001
1000
0100
0010
0001
0100
0001
1000
0010
0100
0001
0010
0100
0010
0001
1000
,  // measure 85
0020
0000
0000
0000
0000
0000
0000
0000
1030
0100
1000
0000
0010
0000
0100
0000
,  // measure 86
0001
0020
0000
0230
0000
2300
0000
3002
,  // measure 87
0000
0023
0000
0230
0000
2300
0000
3000
,  // measure 88
0001
2000
0000
3020
0000
0230
0000
0302
,  // measure 89
0000
0023
0000
0230
0000
2300
0000
3000
,  // measure 90
0101
0000
0000
0000
1010
0000
0000
0000
0101
0000
0000
0001
0100
0000
0010
0000
,  // measure 91
1100
0000
0000
0000
0110
0000
0000
0000
1100
0000
0000
1000
0100
0000
0010
0000
,  // measure 92
0001
0000
1000
0100
1000
0000
0001
0000
1000
0010
1000
0000
0001
0010
0001
1000
,  // measure 93
0010
0000
0100
0010
1000
0000
0001
0000
0010
0000
1000
0000
0100
0000
0001
0000
;
