#VERSION:0.83;
#TITLE:Atlantis Hawk;
#SUBTITLE:;
#ARTIST:kanone;
#TITLETRANSLIT:;
#SUBTITLETRANSLIT:;
#ARTISTTRANSLIT:;
#GENRE:;
#CREDIT:;
#MUSIC:Atlantis Hawk.ogg;
#BANNER:Atlantis Hawk-bn.png;
#BACKGROUND:Atlantis Hawk-bg.png;
#CDTITLE:;
#SAMPLESTART:89.806;
#SAMPLELENGTH:15.000;
#SELECTABLE:YES;
#OFFSET:1.549;
#BPMS:0.000=155.000;
#STOPS:;
#SPEEDS:0.000=1.000=0.000=0,
103.979=0.000=0.000=0,
104.000=1.000=4.000=0
;
#SCROLLS:0.000=1.000,
184.000=0.000,
184.125=2.000,
184.250=0.000,
184.375=2.000,
184.500=0.000,
184.625=2.000,
184.750=0.000,
184.875=2.000,
185.000=0.000,
185.125=2.000,
185.250=0.000,
185.375=2.000,
185.500=0.000,
185.625=2.000,
185.750=0.000,
185.875=2.000,
186.000=0.000,
186.125=2.000,
186.250=0.000,
186.375=2.000,
186.500=0.000,
186.625=2.000,
186.750=0.000,
186.875=2.000,
187.000=0.000,
187.125=2.000,
187.250=0.000,
187.375=2.000,
187.500=0.000,
187.625=2.000,
187.750=0.000,
187.875=2.000,
188.000=1.000
;
#BGCHANGES:-0.387=Atlantis Hawk.avi=1.000=0=0=0=StretchNoLoop====,
99999.000=-nosongbg-=1.000=0=0=0=StretchNoLoop====
;
#FGCHANGES:;

//--------------- dance-single - ----------------
#NOTEDATA:;
#STEPSTYPE:dance-single;
#DESCRIPTION:;
#DIFFICULTY:Hard;
#METER:14;
#RADARVALUES:0,0,0,0,0;
#NOTES:
0000
0000
0000
0000
,
0000
0000
0000
0000
,
0000
0000
0000
0000
,
1001
0000
0000
0000
0001
0000
0000
0010
0000
0000
0010
0000
0100
0000
0000
0000
,
1000
0000
0000
0000
0001
0000
0000
0100
0000
0000
0100
0000
0010
0000
0000
0000
,
1000
0000
0000
0000
0001
0000
0000
0010
0000
0000
0010
0000
0100
0000
0000
0000
,
1000
0000
0000
0000
0001
0000
0000
0100
0000
0000
0100
0000
0010
0000
0000
0000
,
0100
0000
0000
0000
0001
0000
0000
0001
0000
0000
1000
0000
0100
0000
0000
0000
,
0010
0000
0000
0000
0001
0000
0000
0001
0000
0000
1000
0000
0010
0000
0000
0000
,
0100
0000
0020
0100
0000
0000
1030
0000
0100
0000
0020
0100
0000
0000
0031
0000
,
0100
0000
0020
0100
0000
0000
1030
0000
0001
0000
0010
0100
2000
0000
0000
0000
,
3001
0000
0100
0000
1010
0000
0000
0100
0000
0000
0100
0000
1001
0000
0000
0000
,
1000
0000
0100
0000
0011
0000
0000
0100
0000
0100
0010
0000
0110
0000
0000
0000
,
0001
0000
0010
0000
1100
0000
0000
0010
0000
0000
0010
0000
1001
0000
0000
0000
,
1000
0010
1000
0000
0001
0000
0000
0010
0000
0000
0010
0000
1100
0000
0000
0000
,
1000
0000
1010
0000
0011
0000
0001
0000
0011
0000
1010
0000
,
1000
0100
0010
0001
0100
0010
2000
0000
0000
0000
0000
0000
,
3001
0010
1000
0100
,
0001
0000
0100
0000
0001
0000
1000
0000
0100
0000
1000
0000
0001
0000
0100
0000
0010
0000
1000
0000
0000
0010
0000
0000
,
0001
0000
0010
0010
1002
0013
0010
0010
,
0100
0001
0000
0100
1002
0103
0100
0100
,
1000
0200
0302
1003
,
0100
0000
0100
0000
0000
0000
0010
0000
0110
0000
0000
0001
0000
0000
0010
0000
,
1000
0000
0010
0010
2001
3010
0010
0010
,
0100
1000
0000
0100
2001
3100
0100
0100
,
0011
0000
0000
0000
0002
0000
1000
0000
1003
0000
0000
0000
0010
0100
0001
0000
,
0200
0000
0000
0000
,
1300
0100
0010
0010
2000
0001
3100
0100
,
0001
0100
0010
0010
0002
1000
0103
0100
,
1000
0000
0001
0000
0010
0000
1000
0000
0001
0100
0000
0100
0000
0100
0010
0000
,
1000
0010
1000
0000
0001
0010
0001
0000
1000
0100
0010
0000
0200
0000
0000
0000
,
0301
0100
0010
0010
0002
1000
0103
0100
,
1000
0100
0010
0010
2000
0001
3100
0100
,
0001
0000
1000
0000
0010
0000
0001
0000
1000
0000
0100
0000
0010
0100
1000
0000
,
0001
0100
0010
1000
0100
0010
0001
0100
0010
2000
0000
0000
,
3001
0000
0001
0010
0000
0010
0100
1000
0001
0100
0010
1000
,
0001
0000
0001
0010
0000
0010
0100
0001
0100
1000
0000
0001
,
0100
0000
0100
0010
0000
0010
0001
1000
0100
0001
1000
0100
,
0010
0000
0000
0110
0000
0000
1001
0000
1000
0010
0100
0001
,
1000
0000
1000
0100
0000
0100
0010
0001
1000
0010
0100
0001
,
1000
0000
1000
0100
0000
0100
0001
1000
0010
0001
0000
1000
,
0010
0000
0010
0100
0000
0100
1000
0001
0010
1000
0100
0010
,
0000
0000
0000
0000
,
0001
1000
0010
0100
0000
1000
0100
0010
,
0000
1000
0100
0010
0000
1000
0010
0010
,
0001
1000
0010
0100
0000
1000
0100
0010
,
1000
0010
1000
0000
0010
0100
0010
0000
0100
0001
0100
0000
0001
1000
0001
0000
,
0200
0000
0000
0320
0000
0000
1030
0000
0002
0000
0000
0023
0000
0000
0130
0000
,
2000
0000
0000
3020
0000
0000
0130
0000
0002
0000
0000
0023
0000
0000
0031
0000
,
2000
0000
0000
3200
0000
0000
0310
0000
0002
0000
0000
0203
0000
0000
0310
0000
,
2000
0000
0000
3002
0000
0000
0013
0000
0100
0000
1000
0000
0002
0000
0000
0000
,
0103
0000
0000
0000
0001
0000
0000
0100
0000
0000
0100
0000
0010
0000
0000
0000
,
1000
0000
0000
0000
0001
0000
0000
0010
0000
0000
0010
0000
0100
0000
0000
0000
,
1000
0001
0010
0001
1000
0100
0001
0100
,
1000
0001
0100
0001
1000
0010
0002
0000
,
0013
0000
1000
0010
0100
0001
1000
0000
0100
0010
0100
0000
0002
0000
0000
0000
,
0103
0000
1000
0100
0010
0001
1000
0000
0010
0100
0010
0000
0002
0000
0000
0000
,
0013
1000
0100
0100
0001
0100
0010
0002
,
1000
0000
0000
0000
0010
0000
0000
0000
0103
0000
0010
0100
0010
0000
1000
0000
,
0001
0010
0000
2010
0000
0000
3100
0000
1000
0010
0000
0012
0000
0000
0103
0000
,
0001
0010
0000
2010
0000
0000
3100
0000
0010
0000
0010
0000
0001
0010
0100
1000
,
0001
0100
0000
2100
0000
0000
3001
0000
0100
1000
0000
2010
0000
0000
3001
0000
,
0010
0100
0010
0200
0000
0000
1300
0000
0001
0100
0010
0000
1000
0100
0010
0000
,
0001
0100
0000
2100
0000
0000
3010
0000
1000
0100
0000
0102
0000
0000
0013
0000
,
0001
0100
0000
2100
0000
0000
3010
0000
0100
0000
0001
0100
0010
0000
1000
0000
,
0001
0000
0001
0000
0010
0000
0000
0100
0000
0100
1000
0000
0001
0000
0000
0000
,
1002
0000
0000
0000
0103
0000
0001
0001
,
1000
0100
0000
0101
0000
0001
0010
0000
0001
0100
0000
1100
0000
1000
0010
0000
,
1000
0100
0000
0101
0000
0001
0010
0000
0100
0000
0100
0000
1000
0100
0010
0001
,
1000
0010
0000
0011
0000
0001
1000
0000
0010
0001
0000
0101
0000
0100
0010
0000
,
1000
0001
1000
0002
0000
0000
0013
0000
0100
0010
0001
0000
0100
0010
1000
0000
,
0001
0010
0000
1010
0000
1000
0100
0000
1000
0010
0000
0011
0000
0001
0100
0000
,
0001
0010
0000
1010
0000
1000
0100
0000
0010
0000
0100
0010
0001
0000
1000
0000
,
1010
0000
0000
0000
0011
0000
0000
0000
1010
0000
0010
0100
0000
0100
0001
0000
,
2002
0000
0000
3003
,
2000
0000
0000
3200
0000
0000
0301
0000
2000
0000
0000
3020
0000
0000
0031
0000
,
2000
0000
0000
3020
0000
0000
0031
0000
0010
0000
0100
0000
0010
0000
0100
0000
,
0002
0000
0000
0023
0000
0000
1030
0000
0002
0000
0000
0203
0000
0000
1300
0000
,
0002
0000
0000
0203
0000
0000
1300
0000
0100
0000
0010
0000
0100
0000
0010
0000
,
1000
0010
0000
0010
0001
0000
0010
0000
0001
0010
0000
0010
1000
0000
0001
0000
,
1000
0100
0000
0010
0001
0000
1000
0000
0010
0100
0010
0100
0001
0000
1000
0000
,
0100
0010
0001
0100
0010
0000
0000
0000
1010
0000
0000
0101
0000
0000
2002
0000
,
0000
0000
0000
0000
,
3003
0000
0000
0000
;

//--------------- dance-single - ----------------
#NOTEDATA:;
#STEPSTYPE:dance-single;
#DESCRIPTION:;
#DIFFICULTY:Challenge;
#METER:18;
#RADARVALUES:0,0,0,0,0;
#NOTES:
0000
0000
0000
0000
,
0000
0000
0000
0000
,
0000
0000
0000
0000
,
1001
0000
0000
0000
1000
0000
0000
0100
0000
0000
0100
0000
0010
0000
0000
0000
,
0001
0000
0000
0000
1000
0000
0000
0010
0000
0000
0010
0000
0100
0000
0000
0000
,
0001
0000
0000
0000
1000
0000
0000
0100
0000
0000
0100
0000
0010
0000
0000
0000
,
0001
0000
0000
0000
1000
0000
0000
0010
0000
0000
0010
0000
0100
0000
0000
0000
,
0010
0000
0000
0000
1000
0000
0000
1000
0000
0000
0001
0000
0010
0000
0000
0000
,
0100
0000
0000
0000
1000
0000
0000
1000
0000
0000
0001
0000
0100
0000
0000
0000
,
0010
0000
0200
0010
0000
0000
0301
0000
0010
0000
0200
0010
0000
0000
1300
0000
,
0010
0000
0200
0010
0000
0000
0301
0000
1000
0000
0100
0010
0002
0000
0000
0000
,
1003
0000
0010
0000
0101
0000
0000
0010
0000
0000
0010
0000
1100
0000
0000
0000
,
1000
0000
0100
0000
0011
0000
0000
0100
0000
0100
0010
0000
1001
0000
0000
0000
,
0001
0000
0010
0000
1100
0000
0000
0010
0000
0000
0010
0000
0101
0000
0000
0000
,
1000
0100
1000
0000
0001
0100
0000
0010
0000
0010
1000
0000
1001
0000
0000
0000
,
0011
0000
0110
0000
1100
0000
1000
0010
1000
0001
0010
0001
,
1000
0010
0010
0001
0100
0100
2000
0000
0000
0010
0000
0000
,
3001
0010
0100
1000
0100
0010
0001
1000
0010
0100
0010
1000
,
0001
0000
0010
0000
0100
0000
1000
0000
0010
0000
0100
0000
0001
0000
0010
0000
0200
0000
1000
0000
0000
0010
0000
0000
,
0301
0000
0000
0000
0100
1000
0100
1000
0010
0000
1000
0001
0100
0001
0200
0000
,
0010
0000
1300
0000
0000
0000
0100
0001
0010
0000
0100
1000
0100
1000
0001
0100
,
1000
0200
0302
1003
,
0100
0000
0100
0000
0010
0000
1000
0000
1020
0000
0000
0031
0000
0000
0100
0000
,
1000
0000
0000
0000
0100
0001
0100
0001
0010
0000
0001
1000
0100
1000
0200
0000
,
0010
0000
0301
0000
0000
0000
0100
1000
0010
0000
0100
0001
0100
0001
1000
0100
,
0001
0000
0000
0000
2000
0000
0010
0000
3010
0000
0000
0000
0001
1000
0100
1000
,
0020
0000
0000
0000
,
0031
0000
0010
0100
0001
1000
0010
1000
0001
0000
0010
0001
1000
0100
0010
0100
,
0001
0000
0100
0010
0001
1000
0100
1000
0001
0000
0100
0001
1000
0010
0100
0010
,
0001
0000
0010
0000
1000
0000
0001
0000
1000
0100
0010
0001
0000
0100
0010
1000
,
0000
0100
0010
0001
1000
0020
0001
0000
0130
0010
1000
0000
0001
0000
0010
0000
,
1000
0000
0010
0100
1000
0001
0010
0001
1000
0000
0010
1000
0001
0100
0010
0100
,
1000
0000
0100
0010
1000
0001
0010
0001
1000
0000
0100
1000
0001
0010
0100
0010
,
1000
0000
0010
0000
0001
0000
1000
0000
0020
0000
0000
0000
0130
0001
0100
0001
,
1000
0100
0001
1000
0010
0001
1000
0100
0010
0002
0000
0000
,
1003
0000
0010
0000
0100
0000
1000
0000
0100
0000
0010
0000
1000
0000
0001
0010
0001
0000
1000
0000
0010
0100
0010
0000
,
1000
0000
0001
0000
0010
0000
0100
0000
0001
0000
0100
0000
1000
0100
1000
0001
0010
0001
1000
0000
0000
0000
0001
1000
,
0001
0000
0100
0000
0010
0000
0001
0000
0010
0000
0100
0000
0001
0000
1000
0100
0010
0000
0100
0000
0001
0100
0010
0000
,
0011
0000
0000
0000
0000
0000
1100
0000
0000
0000
0000
0000
0011
0000
0000
0000
1000
0010
0100
0000
0001
0000
0001
0000
,
1000
0000
0100
0000
0010
0000
1000
0000
0010
0000
0100
0000
1000
0000
0001
0100
0001
0000
1000
0000
0100
0010
0100
0000
,
1000
0000
0001
0000
0100
0000
0010
0000
0001
0000
0010
0000
1000
0010
1000
0001
0100
0001
1000
0000
0000
0000
0001
1000
,
0001
0000
0010
0000
0100
0000
0001
0000
1000
0000
0010
0000
0001
0010
0001
0010
0001
1000
0200
0000
0320
0000
0032
0000
,
0003
0000
0000
0000
,
1000
0010
0100
0001
1000
0100
1000
0001
,
0100
0010
1000
0001
0010
0100
1000
1000
,
0001
0100
0010
1000
0001
0010
0001
1000
,
0010
0100
0010
0100
0001
1000
0001
1000
0100
0010
0100
0010
0001
1000
0001
1000
,
0020
0000
0000
0230
0000
0000
0301
0000
2000
0000
0000
3200
0000
0000
0310
0000
,
0002
0000
0000
0203
0000
0000
0310
0000
2000
0000
0000
3200
0000
0000
1300
0000
,
0002
0000
0000
0023
0000
0000
0130
0000
2000
0000
0000
3020
0000
0000
0130
0000
,
0002
0000
0000
2003
0000
0000
3100
0000
0010
0000
0001
0000
2000
0000
0000
0000
,
3010
0000
0000
0000
0100
0000
0001
0100
0000
0001
0100
0000
0010
0000
0000
0000
,
1000
0000
0001
0000
0010
0000
0100
1000
0000
0100
1000
0000
0001
0100
0010
0000
,
1000
0010
1000
0000
0001
0010
0001
0000
1000
0010
0100
0001
1000
0100
0010
0000
,
0001
0010
0100
1000
0001
0010
0001
1000
0010
1000
0001
0020
0100
0000
0030
0000
,
0001
0000
0000
1000
0000
0000
0010
0000
0000
1000
0000
0000
0001
0000
0000
0010
0000
0000
0100
0000
0000
0010
0000
0000
0001
0000
1000
0000
0001
0000
1000
0000
0000
0020
0000
0000
0100
0000
0000
0000
0000
0000
0030
0000
0000
0000
0000
0000
,
1000
0000
0000
0001
0000
0000
0010
0000
0000
0001
0000
0000
1000
0000
0000
0010
0000
0000
0100
0000
0000
0010
0000
0000
1000
0000
0001
0000
1000
0000
0001
0000
0000
0020
0000
0000
0100
0000
0000
0000
0000
0000
0030
0000
0000
0000
0000
0000
,
0001
0000
0010
0000
0100
0000
1000
0000
0000
0001
0000
0000
0100
0000
0000
0000
0000
0000
0100
0000
0000
0000
0000
0000
0001
0000
0100
0000
0010
0000
1000
0000
0000
0001
0000
0000
0010
0000
0000
0000
0000
0000
0020
0000
0000
0000
0000
0000
,
0100
0000
0000
0000
0000
0000
1000
0000
0000
0000
0000
0000
0130
0000
0000
0010
0100
0010
0100
0000
0000
1000
0000
0000
,
0001
1000
0020
0001
0030
0100
0001
0000
1000
0001
0020
1000
0030
0100
1000
0000
,
0001
0000
0000
1000
0000
0000
0020
0000
0000
0001
0000
0000
0030
0000
0000
0100
0000
0000
0001
0000
0000
0000
0000
0000
1000
0000
0000
0001
0000
0000
0010
0000
0100
0000
0010
0000
0100
0000
0000
1000
0000
0000
0001
0000
0000
0010
0000
0000
,
0001
0000
0000
1000
0000
0000
0020
0000
0000
0001
0000
0000
0030
0000
0000
0100
0000
0000
0001
0000
0000
0000
0000
0000
1000
0000
0000
0100
0000
0000
0002
0000
0000
1000
0000
0000
0003
0000
0000
0100
0000
0000
0010
0000
0001
0000
0010
0000
,
0001
0000
0000
1000
0000
0000
0020
0000
0000
0100
0000
0000
0030
0000
0000
1000
0000
0000
0001
0000
0010
0000
0001
0000
0010
0000
0000
0001
0000
0000
1000
0000
0010
0000
1000
0000
0010
0000
0000
1000
0000
0000
0001
0000
0000
0010
0000
0000
,
0001
1000
0200
0001
0300
0010
0001
0000
1000
0001
0200
1000
0300
0010
1000
0000
,
0001
0000
0000
1000
0000
0000
0200
0000
0000
0001
0000
0000
0300
0000
0000
0010
0000
0000
0001
0000
0000
0000
0000
0000
2000
0000
0000
0000
0000
0000
3010
0000
0100
0000
0010
0000
0200
0000
0000
0000
0000
0000
0301
0000
1000
0000
0001
0000
,
1000
0000
0100
0000
0100
0000
0000
0010
0100
0010
0100
0000
1000
0000
0000
0000
,
2001
0000
0000
0000
0000
0000
0000
0000
0000
0000
0000
0000
3010
0000
0000
0000
0000
0000
0100
0000
0000
0001
1000
0001
,
1000
0001
0010
1000
0010
0100
1000
0000
0001
1000
0010
0001
0010
0100
0001
0000
,
1000
0000
0000
0001
0000
0000
0010
0000
0000
1000
0000
0000
0010
0000
0000
0100
0000
0000
1000
0000
0000
0000
0000
0000
0001
0000
0000
1000
0000
0000
0010
0000
0100
0000
0010
0000
0100
0000
0000
0001
0000
0000
1000
0000
0000
0010
0000
0000
,
1000
0000
0000
0001
0000
0000
0010
0000
0000
1000
0000
0000
0010
0000
0000
0100
0000
0000
1000
0000
0000
0000
0000
0000
0001
0000
0000
0100
0000
0000
1000
0000
0000
0001
0000
0000
0010
0000
0000
1000
0000
0000
0001
0000
0100
0000
0001
0000
,
0100
0000
0000
0010
0000
0000
1000
0000
0000
0001
0000
0000
0010
0000
0000
0100
0000
0000
1000
0000
0001
0000
1000
0000
0001
0000
0000
0100
0000
0000
0010
0000
0100
0000
0010
0000
0100
0000
0000
0001
0000
0000
1000
0000
0000
0010
0000
0000
,
1000
0001
0100
1000
0100
0010
1000
0000
0001
1000
0100
0001
0100
0010
0001
0000
,
1000
0000
0000
0001
0000
0000
0100
0000
0000
1000
0000
0000
0100
0000
0000
0010
0000
0000
1000
0000
0000
0000
0000
0000
0002
0000
0000
0000
0000
0000
0013
0000
0100
0000
0010
0000
0200
0000
0000
0000
0000
0000
1300
0000
0000
0000
0000
0000
,
1001
0000
0001
0100
0010
0000
1000
0100
0010
0000
0001
0100
0000
0100
0020
0000
,
0001
0000
0000
0100
0000
0000
1000
0000
0001
0000
0000
0100
0000
0000
1030
0000
,
0001
0000
0000
0000
1000
0000
0000
0100
0000
0000
0100
0000
0010
0000
0000
0000
,
0001
0000
0000
0000
1000
0000
0000
0010
0000
0000
0010
0000
0100
0000
0000
0000
,
0001
0000
0000
0000
1000
0000
0000
0100
0000
0000
0100
0000
0010
0000
0000
0000
,
0001
0000
0000
0000
1000
0000
0000
0010
0000
0000
0010
0000
0100
0000
0000
0000
,
0001
0100
0001
0100
0010
0100
0010
0100
0010
1000
0010
1000
0001
1000
0001
1000
,
0100
0000
0010
0000
0100
0000
0010
0000
0000
0001
0000
0000
1000
0000
0010
0000
1000
0000
0010
0000
0000
0100
0000
0000
0001
0000
0100
0000
0001
0000
0100
0000
0000
0010
0000
0000
1000
0000
0001
0000
1000
0000
0001
0000
0000
0010
0000
0000
,
0100
1000
0001
0100
1000
0000
0000
0000
0011
0000
0000
1010
0000
0000
2002
0000
,
0000
0000
0000
0000
,
3003
0000
0000
0000
;
