#VERSION:0.83;
#TITLE:赤色のアザレア;
#SUBTITLE:;
#ARTIST:cybermiso feat. みずたま;
#TITLETRANSLIT:Akairo no Azalea;
#SUBTITLETRANSLIT:;
#ARTISTTRANSLIT:cybermiso feat. Mizutama;
#GENRE:;
#ORIGIN:;
#CREDIT:;
#BANNER:Akairo no Azalea.png;
#BACKGROUND:Akairo no Azalea-bg.png;
#PREVIEWVID:;
#JACKET:Akairo no Azalea-jacket.png;
#CDIMAGE:;
#DISCIMAGE:;
#LYRICSPATH:;
#CDTITLE:cdtitle.png;
#MUSIC:Akairo no Azalea.ogg;
#OFFSET:-0.013000;
#SAMPLESTART:28.857000;
#SAMPLELENGTH:18.000000;
#SELECTABLE:YES;
#BPMS:0.000=105.000,
244.000=102.000,
245.000=99.000,
246.000=90.000,
247.000=87.000,
248.000=84.000;
#STOPS:;
#DELAYS:;
#WARPS:;
#TIMESIGNATURES:0.000=4=4;
#TICKCOUNTS:0.000=4;
#COMBOS:0.000=1;
#SPEEDS:0.000=1.000=0.000=0;
#SCROLLS:0.000=1.000;
#FAKES:;
#LABELS:0.000=Song Start;
#BGCHANGES:;
#KEYSOUNDS:;
#ATTACKS:
;

//---------------dance-single - MEGAtive----------------
#NOTEDATA:;
#CHARTNAME:;
#STEPSTYPE:dance-single;
#DESCRIPTION:MEGAtive;
#CHARTSTYLE:;
#DIFFICULTY:Beginner;
#METER:4;
#RADARVALUES:0.173941,0.235138,0.061563,0.116286,0.000000,178.000000,169.000000,9.000000,17.000000,0.000000,0.000000,0.000000,0.000000,0.000000,0.173941,0.235138,0.061563,0.116286,0.000000,178.000000,169.000000,9.000000,17.000000,0.000000,0.000000,0.000000,0.000000,0.000000;
#CREDIT:;
#NOTES:
0000
0000
0000
0000
,
0000
0000
0000
0000
,
0000
0000
0000
0000
,
0000
0000
0000
0000
,
0000
0000
0000
0000
,
1001
0000
1010
0000
,
1001
0000
0011
0000
,
1001
0000
0101
0000
,
1000
1000
0001
0010
,
0001
0000
0001
0000
,
1000
0000
1000
0000
,
0001
0001
1000
1000
,
0200
0000
0300
0000
,
1001
0000
1000
0010
,
1000
0000
0001
0010
,
0001
0000
1000
0010
,
1000
0000
0002
0000
,
1003
0100
1000
0000
,
0001
0100
0002
0000
,
1003
0010
1000
0001
,
0010
0100
1000
0000
,
1001
0000
0001
0100
,
0001
0000
1000
0100
,
1000
0000
0001
0100
,
0001
0000
2000
0000
,
3001
0010
0001
0000
,
1000
0010
2000
0000
,
3001
0100
0001
1000
,
0100
0010
0001
0000
,
1000
1000
0001
0001
,
0010
0010
0200
0000
,
1300
1000
0001
0001
,
0100
0100
0020
0000
,
1030
0001
1000
0001
,
0010
0100
0010
0100
,
1000
1000
0001
0001
,
0100
0010
0100
0000
0001
1000
0001
0000
,
0000
0000
0000
0000
,
0000
0000
0000
0000
,
1000
0000
1000
0000
,
0001
0000
0001
0000
,
1000
1000
0001
0001
,
0020
0000
0030
1001
,
0001
0100
0020
0000
,
1030
0100
0020
0000
,
0031
1000
0200
0000
,
1300
0001
0100
0010
,
1000
0001
0020
0000
,
0031
1000
0200
0000
,
1300
0001
0200
0000
,
0301
1000
0020
0000
,
1030
0100
1000
0001
,
0100
0010
1000
0001
,
1000
0100
0010
0001
,
1000
0001
1000
0001
,
1000
0010
0100
0001
,
1000
0100
0010
0001
,
1000
1000
0001
0001
,
0100
0000
0000
0000
,
0001
0000
0001
0000
,
1000
0000
1000
0000
,
0002
0000
0000
0000
,
2000
0000
3003
0000
;

//---------------dance-single - MEGAtive----------------
#NOTEDATA:;
#CHARTNAME:;
#STEPSTYPE:dance-single;
#DESCRIPTION:MEGAtive;
#CHARTSTYLE:;
#DIFFICULTY:Easy;
#METER:7;
#RADARVALUES:0.275569,0.342018,0.143648,0.177850,0.000000,282.000000,261.000000,21.000000,26.000000,0.000000,0.000000,0.000000,0.000000,0.000000,0.275569,0.342018,0.143648,0.177850,0.000000,282.000000,261.000000,21.000000,26.000000,0.000000,0.000000,0.000000,0.000000,0.000000;
#CREDIT:;
#NOTES:
// measure 0
0000
0000
0000
0000
,  // measure 1
0000
0000
0000
0000
,  // measure 2
0000
0000
0000
0000
,  // measure 3
0000
0000
0000
0000
,  // measure 4
0000
0000
0000
0000
,  // measure 5
0001
0001
1000
1000
,  // measure 6
0010
0010
0100
0100
,  // measure 7
0001
0010
0001
0000
1000
0010
1000
0000
,  // measure 8
0001
0010
0001
1000
0010
0100
0001
0000
,  // measure 9
2000
3000
2000
3000
,  // measure 10
0002
0003
0002
0003
,  // measure 11
1000
0010
1000
0000
0001
0010
0001
0000
,  // measure 12
0220
0000
0330
0000
,  // measure 13
1000
0000
0001
0000
1000
0010
0100
0000
,  // measure 14
0001
0000
1000
0000
0001
0010
0200
0000
,  // measure 15
1300
0001
1000
0000
0010
0100
0010
0000
,  // measure 16
1000
0001
1000
0000
0200
0000
0000
0000
,  // measure 17
0310
0001
0010
0000
0001
1000
0001
0000
,  // measure 18
1000
0010
1000
0000
0002
0000
0000
0000
,  // measure 19
1003
0100
1000
0000
0001
1000
0001
0000
,  // measure 20
1000
0010
0100
0010
1000
0000
0000
0000
,  // measure 21
0001
0000
1000
0000
0001
0100
0010
0000
,  // measure 22
1000
0000
0001
0000
1000
0100
0020
0000
,  // measure 23
0031
1000
0001
0000
0100
0010
0100
0000
,  // measure 24
0001
1000
0001
0000
0020
0000
0000
0000
,  // measure 25
0130
1000
0100
0000
1000
0001
1000
0000
,  // measure 26
0001
0100
0001
0000
2000
0000
0000
0000
,  // measure 27
3001
0010
0001
0000
1000
0001
1000
0000
,  // measure 28
0001
0100
0010
0100
0001
0000
0000
0000
,  // measure 29
1000
1010
0001
0011
,  // measure 30
1000
1100
0002
0000
,  // measure 31
1003
1100
0001
0101
,  // measure 32
1000
1010
0002
0000
,  // measure 33
1003
0000
0001
0100
0001
0000
1000
0100
,  // measure 34
1000
0000
0001
0100
0001
0000
1000
0100
,  // measure 35
1000
0001
0100
0000
0001
1000
0100
0000
,  // measure 36
0010
0001
1000
0000
0010
1000
0001
0000
,  // measure 37
0000
0000
0000
0000
,  // measure 38
0000
0000
0000
0000
,  // measure 39
0002
0003
0002
0003
,  // measure 40
2000
3000
2000
3000
,  // measure 41
0001
0100
0001
0000
1000
0100
1000
0000
,  // measure 42
0220
0000
0330
1001
,  // measure 43
0001
0010
0001
0000
1000
0100
0010
0001
,  // measure 44
1000
0010
1000
0000
0001
0100
0010
1000
,  // measure 45
0001
0010
0001
0000
1000
0100
0010
0001
,  // measure 46
1000
0010
1000
0010
0100
0001
0100
0001
,  // measure 47
1000
0100
1000
0000
0001
0010
0100
1000
,  // measure 48
0001
0100
0001
0000
1000
0010
0100
0001
,  // measure 49
1000
0100
1000
0000
0001
0010
0100
1000
,  // measure 50
0001
0100
0001
0100
0010
0000
0000
0000
,  // measure 51
1000
1010
0001
0101
,  // measure 52
1000
1100
0001
0011
,  // measure 53
1000
1010
0001
0101
,  // measure 54
1000
0001
0100
0000
0010
1000
0001
0000
,  // measure 55
1000
1100
0001
0011
,  // measure 56
1000
1010
0001
0101
,  // measure 57
1000
0001
0010
0000
0100
1000
0001
0000
,  // measure 58
1001
0000
0000
0000
,  // measure 59
2000
3000
2000
3000
,  // measure 60
0002
0003
0002
0003
,  // measure 61
1000
0010
0100
0001
,  // measure 62
2002
0000
3003
0000
;

//---------------dance-single - MEGAtive----------------
#NOTEDATA:;
#CHARTNAME:;
#STEPSTYPE:dance-single;
#DESCRIPTION:MEGAtive;
#CHARTSTYLE:;
#DIFFICULTY:Medium;
#METER:9;
#RADARVALUES:0.343973,0.406147,0.054723,0.184690,0.071824,352.000000,344.000000,8.000000,27.000000,0.000000,0.000000,0.000000,0.000000,0.000000,0.343973,0.406147,0.054723,0.184690,0.071824,352.000000,344.000000,8.000000,27.000000,0.000000,0.000000,0.000000,0.000000,0.000000;
#CREDIT:;
#NOTES:
0000
0000
0000
0000
,
0000
0000
0000
0000
,
0000
0000
0000
0000
,
0000
0000
0000
0000
,
0000
0000
0000
0000
,
1000
0000
0001
0100
0001
0000
1000
0100
,
1000
0000
0001
0100
0001
1000
0100
0010
,
0001
1000
0001
1000
0100
0010
0100
1000
,
0001
0000
0001
0000
1000
0000
1000
0000
0010
0100
0010
0100
0010
0000
0000
0000
,
2002
0003
0002
3003
,
0022
0003
0002
0003
,
0031
1000
0010
0100
0001
1000
0100
0000
,
1000
0000
1000
0000
0000
0010
0000
0100
0010
0000
0000
0000
0000
0000
0000
0000
,
1000
0010
1000
0000
0001
0010
0001
0000
,
1000
0100
1000
0000
0001
0100
0002
0000
,
1003
0010
1000
0000
0001
0010
0001
0000
,
1000
0100
1000
0000
0001
0010
0100
1000
,
0001
0100
0001
0000
1000
0100
1000
0000
,
0001
0010
0001
0000
1000
0020
0000
0000
,
1030
0001
0010
0100
1000
0001
0100
0010
,
1000
1000
0001
0001
0010
0000
0000
0000
,
0001
0010
0001
0000
1000
0010
1000
0000
,
0001
0100
0001
0000
1000
0100
2000
0000
,
3001
0010
0001
0000
1000
0010
1000
0000
,
0001
0100
0001
0000
1000
0010
0100
0001
,
1000
0100
1000
0000
0001
0100
0001
0000
,
1000
0010
1000
0000
0001
0020
0000
0000
,
0031
1000
0010
0100
0001
1000
0100
0010
,
0001
0001
1000
1000
0010
0000
0000
0000
,
1000
0000
0001
0100
0001
0000
1000
0100
,
1000
0000
0000
0000
0001
0000
0100
0000
0001
0000
0000
1000
0000
0000
0001
0000
,
1000
0000
0001
0010
0001
0000
1000
0010
,
1000
0000
0001
0010
0002
0000
0000
0000
,
1003
0000
0010
0100
0010
0000
1000
0001
,
1000
0000
0100
0010
0100
0000
1000
0001
,
1000
0010
0100
0010
1000
0001
0010
0100
,
1000
0000
1000
0000
0001
0000
0001
0000
0100
0010
0100
0010
0100
0000
0000
0000
,
0000
0000
0000
0000
,
0000
0000
0000
0000
,
2002
3000
2000
3003
,
2200
3000
2000
3000
,
1300
0001
1000
0010
0100
0001
1000
0000
,
0001
0000
0001
0000
0000
0010
0000
0100
0010
0000
0000
0000
1001
0000
0000
0000
,
1000
0000
0010
0000
0100
0000
0001
0000
1000
0000
0100
0010
0100
0000
1000
0000
,
0001
0100
0010
1000
0001
0001
1000
1000
,
0001
0010
0100
1000
0001
0001
1000
1000
,
0001
0100
0010
1000
0001
0010
0001
1000
,
0001
0000
0100
0000
0010
0000
1000
0000
0001
0000
0010
0100
0010
0000
0001
0000
,
1000
0010
0100
0001
1000
1000
0001
0001
,
1000
0100
0010
0001
1000
1000
0001
0001
,
1000
0000
0010
0000
0100
0000
0001
0000
1000
0000
0000
0001
0000
0000
1000
0000
,
0001
0000
0010
0000
0100
0000
0010
0000
0001
0000
1000
0000
0000
1000
0000
0000
,
0001
0000
0100
0000
0010
0000
0100
0000
0001
0000
1000
0000
0000
1000
0000
0000
,
1000
0000
0100
0000
0010
0000
0100
0000
1000
0000
0001
0000
0000
0001
0000
0000
,
1000
0010
0100
0001
1000
0100
0010
0001
,
1000
0000
0010
0000
0100
0000
0010
0000
1000
0000
0001
0000
0000
0001
0000
0000
,
1000
0000
0100
0000
0010
0000
0100
0000
1000
0000
0001
0000
0000
0001
0000
0000
,
0001
0000
0100
0000
0010
0000
1000
0000
0001
0010
0001
0000
1000
0010
1000
0000
,
1001
0000
0000
0000
,
2002
0003
0002
3003
,
0202
0003
0002
0003
,
0302
2003
3200
0320
,
0031
0000
0001
0000
0000
1000
0000
0010
1000
0000
0000
0000
0000
0000
0000
0000
;

//---------------dance-single - MEGAtive----------------
#NOTEDATA:;
#CHARTNAME:;
#STEPSTYPE:dance-single;
#DESCRIPTION:MEGAtive;
#CHARTSTYLE:;
#DIFFICULTY:Hard;
#METER:12;
#RADARVALUES:0.456350,0.534404,0.191530,0.184690,0.352279,467.000000,439.000000,28.000000,27.000000,0.000000,0.000000,0.000000,0.000000,0.000000,0.456350,0.534404,0.191530,0.184690,0.352279,467.000000,439.000000,28.000000,27.000000,0.000000,0.000000,0.000000,0.000000,0.000000;
#CREDIT:;
#NOTES:
0000
0000
0000
0000
,
0000
0000
0000
0000
,
0000
0000
0000
0000
,
0000
0000
0000
0000
,
0000
0000
0000
0000
,
1001
0000
0000
0001
0100
0000
0010
0000
0100
0000
0001
0000
1000
0000
0000
0000
,
0100
0000
0000
1000
0100
0000
0010
0000
0100
0000
1000
0000
0001
0000
0000
0000
,
0100
0010
0100
0010
1000
0001
1000
0001
,
1000
0010
1000
0000
0001
0010
0001
0000
1000
0010
0100
0001
1000
0000
0000
0000
,
1002
1000
2003
0001
,
3200
0010
0320
0001
,
0031
0000
1000
0000
0001
0100
0001
1000
0100
1000
0001
1000
0010
0000
0000
0000
,
0110
0000
0110
0000
0000
1001
0000
1000
0001
0000
0000
0000
0000
0000
0000
0000
,
2001
0000
0000
0000
3000
0001
0000
0001
1000
0000
0010
0000
1000
0000
0001
0000
,
0020
0000
0000
0000
0030
0001
0000
0001
1000
0000
0001
0000
0100
0010
0100
0010
,
1000
0001
1000
0000
0100
0010
0100
0000
,
1000
0000
0001
0000
1000
0000
0010
0000
0100
0001
0100
0000
0001
1000
0001
0000
,
0010
0100
1000
0001
1000
0000
0001
0100
,
0010
0000
1000
0000
0001
0000
0010
0000
0001
0000
1000
0100
1000
0000
0001
0100
,
0001
1000
0010
0100
0001
0010
0100
1000
,
0001
0010
0001
0000
1000
0010
1000
0000
0001
0000
0000
0000
0000
0000
0000
0000
,
1002
0000
0000
0000
0003
1000
0000
1000
0001
0000
0100
0000
0001
0000
1000
0000
,
0200
0000
0000
0000
0300
1000
0000
1000
0001
0000
1000
0000
0010
0100
0010
0100
,
0001
1000
0001
0000
0010
0100
0010
0000
,
0001
0000
1000
0000
0001
0000
0100
0000
0010
1000
0010
0000
1000
0001
1000
0000
,
0100
0010
0001
1000
0001
0000
1000
0010
,
0100
0000
0001
0000
1000
0000
0100
0000
1000
0000
0001
0010
0001
0000
1000
0010
,
1000
0001
0100
0010
1000
0100
0010
0001
,
1000
0100
1000
0000
0001
0100
0001
0000
1000
0000
0000
0000
0000
0000
0000
0000
,
1001
0000
0000
0001
0100
0000
0001
0000
1000
0000
0000
0100
1000
0000
0001
0000
,
0100
0000
0000
0001
0100
0000
0001
0000
2000
0000
0000
0001
0000
0000
0001
0000
,
3001
0000
0000
1000
0010
0000
1000
0000
0001
0000
0000
0010
0001
0000
1000
0000
,
0010
0000
0000
1000
0010
0000
1000
0000
0002
0000
0000
0000
0000
0000
0000
0000
,
1003
0000
0000
0010
0100
0000
0001
0000
1000
0000
0000
0100
0010
0000
0001
0000
,
1000
0000
0000
0010
0100
0000
0001
0000
1000
0000
0100
0000
1000
0001
1000
0000
,
0010
0100
0010
0100
0001
1000
0001
1000
,
0001
0010
0001
0000
1000
0010
1000
0000
0001
0010
0100
1000
0001
0000
0000
0000
,
0000
0000
0000
0000
,
0000
0000
0000
0000
,
2001
0001
3002
1000
,
0203
0010
0320
1000
,
1030
0000
0001
0000
1000
0100
1000
0001
0100
0001
1000
0001
0100
0000
0000
0000
,
0110
0000
0110
0000
0000
1001
0000
1000
0001
0000
0000
0000
1001
0000
0000
0000
,
1000
0100
1000
0000
0001
0100
0001
0000
1000
0000
0001
1000
0001
0000
1000
0000
,
0001
0010
0001
0000
1000
0010
1000
0000
0001
0010
0100
0010
0100
0000
1000
0000
,
0001
0100
0001
0000
1000
0100
1000
0000
0001
0100
0010
0100
0010
0000
1000
0000
,
0001
0000
0010
0000
0100
0000
1000
0000
0001
1000
0001
0000
0100
0010
0100
0000
,
0001
0010
0001
0000
1000
0010
1000
0000
0001
0000
1000
0001
1000
0000
0001
0000
,
1000
0100
1000
0000
0001
0100
0001
0000
1000
0000
1000
0000
0001
0010
0001
0000
,
1000
0100
1000
0000
0001
0100
0001
0000
1000
0000
0001
0000
0010
0000
0001
0000
,
1000
0000
0010
0000
0100
0001
0100
0001
1000
0000
0000
1100
0000
0000
1001
0000
,
0001
0100
0001
0100
0002
0000
0000
0000
1003
0000
1010
0000
0000
1010
0000
0000
,
1000
0100
1000
0100
2000
0000
0000
0000
3001
0000
0011
0000
0000
0011
0000
0000
,
0001
0100
0001
0100
0002
0000
0000
0000
1003
0000
1010
0000
0000
1010
0000
0000
,
1000
0001
0010
0100
1000
0001
0100
0010
,
1000
0010
1000
0010
2000
0000
0000
0000
3001
0000
0101
0000
0000
0101
0000
0000
,
0001
0010
0001
0010
0002
0000
0000
0000
1003
0000
1100
0000
0000
1100
0000
0000
,
1000
0000
0001
0100
0001
0000
1000
0000
0100
0010
0100
0010
0001
1000
0001
1000
,
0001
0000
0000
0000
,
1002
1000
2003
0001
,
3020
0100
0230
0001
,
0302
0023
0230
2300
,
3001
0000
1001
0000
0000
0101
0000
0001
0100
0000
0000
0000
0000
0000
0000
0000
;

//---------------dance-single - MEGAtive----------------
#NOTEDATA:;
#CHARTNAME:;
#STEPSTYPE:dance-single;
#DESCRIPTION:MEGAtive;
#CHARTSTYLE:;
#DIFFICULTY:Challenge;
#METER:16;
#RADARVALUES:0.569705,0.705413,0.136807,0.444624,0.619053,583.000000,563.000000,20.000000,65.000000,0.000000,0.000000,0.000000,0.000000,0.000000,0.569705,0.705413,0.136807,0.444624,0.619053,583.000000,563.000000,20.000000,65.000000,0.000000,0.000000,0.000000,0.000000,0.000000;
#CREDIT:;
#NOTES:
0000
0000
0000
0000
,
0000
0000
0000
0000
,
0000
0000
0000
0000
,
0000
0000
0000
0000
,
0000
0000
0000
0000
,
0011
0000
0010
0001
1000
0000
0010
0000
1000
0000
0002
0000
0013
0000
0002
0000
,
1003
0010
1000
0010
0100
0000
0001
1000
0200
0000
0310
0000
0200
0000
1300
0000
,
0001
0001
1000
1000
0010
0010
0100
0100
,
0001
0000
0000
0010
0000
0000
0001
0000
0000
1000
0000
0000
0100
0000
0000
0010
0000
0000
0001
0000
0000
1000
0000
0000
0010
0000
0100
0000
0010
0000
1000
0000
0001
0000
0010
0000
0100
0000
0000
0000
0000
0000
0000
0000
0000
0000
0000
0000
,
2001
0000
0100
0001
3002
0000
0100
1000
,
2003
0000
0010
0001
3002
0000
0010
1000
,
1003
0000
0000
0001
0000
0000
1000
0100
1000
0001
0010
0100
1000
0001
1000
0010
0100
0001
1000
0000
0000
0000
0000
0000
,
1100
0000
1100
0000
0000
1001
0000
0001
1001
0000
0000
0000
0000
0000
0000
0000
,
1002
0000
0000
0000
1003
0010
0000
0010
1000
0000
0001
0000
1000
0000
0100
0000
,
0020
0000
0000
0000
0130
1000
0000
1000
0001
0000
0100
0000
0100
0100
0100
0100
,
0001
1000
0100
0010
0100
1000
0001
0100
,
0010
0000
1000
0000
0001
0000
0010
0001
1000
0010
0010
0010
0100
0100
0100
0100
,
1000
0000
0001
0000
0100
0000
0010
0000
1000
0000
0001
1000
0100
0000
0010
0000
,
0100
0000
1000
0001
0100
0000
0010
1000
0001
0000
0001
0001
0001
0001
0001
0001
,
1000
1000
0100
0100
0010
0010
0001
0001
,
1000
0000
0000
0010
0000
0000
1000
0000
0000
0001
0000
0000
0010
0000
0000
0100
0000
0000
1000
0000
0001
0000
1000
0000
0010
0000
0000
0000
0000
0000
0000
0000
0000
0000
0000
0000
0000
0000
0000
0000
0000
0000
0000
0000
0000
0000
0000
0000
,
2001
0000
0000
0000
3001
0100
0000
0100
0001
0000
1000
0000
0001
0000
0010
0000
,
0200
0000
0000
0000
0310
0001
0000
0001
1000
0000
0010
0000
0010
0010
0010
0010
,
1000
0001
0010
0100
0010
0001
1000
0010
,
0100
0000
0001
0000
1000
0000
0100
1000
0010
0010
0002
0000
0013
0010
2000
3000
,
0001
0000
1000
0000
0010
0000
0100
0000
0001
0000
1000
0001
0010
0000
0100
0000
,
0010
0000
0001
1000
0010
0000
0100
0001
1000
0000
1000
1000
1000
1000
1000
1000
,
0001
0001
0010
0010
0100
0100
1000
1000
,
0001
0100
0001
1000
0100
0010
0001
1000
0010
0000
0000
0000
0000
0000
0000
0000
,
1000
0100
0010
0001
2000
0000
3100
0000
1000
0010
0100
0001
2000
0000
3010
0000
,
0100
0001
1000
0100
0020
0000
0031
0000
1000
0000
0000
0010
1000
0000
0001
0000
,
1000
0100
0010
0001
2000
0000
3100
0000
1000
0010
0100
0001
2000
0000
3010
0000
,
0100
0001
1000
0100
0020
0000
0031
0000
2000
0000
0000
0000
0000
0000
0000
0000
,
3001
0000
0100
0010
2000
0000
3001
0000
0010
0000
0001
1000
0020
0000
0130
0000
,
0010
0000
1000
0001
0020
0000
0130
0000
0010
0000
0001
1000
0020
0000
0130
0000
,
0001
0001
1000
1000
0100
0100
0010
0010
,
0001
0000
0000
1000
0000
0000
0100
0000
0000
1000
0000
0000
0010
0000
0000
0100
0000
0000
0010
0000
0000
1000
0000
0000
0001
0000
0010
0000
0001
0000
1000
0000
0100
0000
0010
0000
0001
0000
0000
0000
0000
0000
0000
0000
0000
0000
0000
0000
,
0000
0000
0000
0000
,
0000
0000
0000
0000
,
1002
0000
0010
1000
2003
0000
0010
0001
,
3002
0000
0100
1000
2003
0000
0100
0001
,
3001
0000
0000
1000
0000
0000
0001
0100
0010
1000
0001
0010
0100
0010
0001
1000
0001
0100
0010
0000
0000
0000
0000
0000
,
1010
0000
1010
0000
0000
1001
0000
0001
1001
0000
0000
0000
0110
0000
0000
0000
,
1000
0100
0100
0001
1000
0010
0010
0100
2000
0000
0001
0001
3002
0000
1003
0000
,
0001
0010
0010
1000
0001
0100
0100
0010
0001
1000
1000
1000
0001
0200
0020
0300
,
1030
0100
0100
0001
1000
0010
0010
0100
1000
0001
0001
0001
1000
0100
0020
0000
,
0031
0000
0000
0000
1000
0000
0001
0000
0000
0100
0000
0000
0001
0000
0000
1000
0000
0000
0100
0000
0000
0010
0000
0000
0001
0000
1000
0000
0001
0000
0100
0000
0000
0010
0000
0000
1000
0000
0001
0000
1000
0000
0100
0000
0000
0000
0000
0000
,
1000
0010
0010
0001
1000
0100
0100
0010
2000
0000
0001
0001
3002
0000
1003
0000
,
0001
0100
0100
1000
0001
0010
0010
0100
0002
0003
0002
0000
1003
0100
0020
0000
,
0031
0100
0100
1000
0001
0010
0010
0100
0002
0000
1000
0000
1003
0010
0200
0000
,
0301
0000
0000
0000
0000
0000
1000
0000
0100
0000
0000
0000
1000
0000
0001
0000
0100
0000
0001
0000
0000
0010
0000
0000
0100
0000
0000
0000
0000
0000
0000
0000
0000
0110
0000
0000
0000
0000
0000
0000
0000
0000
1001
0000
0000
0000
0000
0000
,
1000
0010
0100
0001
2000
0000
3001
0000
1000
0000
0200
0010
0300
0200
1000
0300
,
0001
0100
0010
1000
0002
0000
1003
0000
0001
0000
0020
0100
0030
0020
0001
0030
,
1000
0100
0010
0001
2000
0000
3001
0000
1000
0000
0020
0100
0030
0020
1000
0030
,
0001
0000
0000
0000
0000
0000
0000
0000
0000
0000
0000
0000
1000
0000
0000
0000
0000
0000
0000
0000
0000
0000
0000
0000
0100
0000
0000
0000
0010
0000
0000
0000
0100
0000
0000
0000
1000
0000
0000
0000
0000
0000
0001
0000
0000
0000
0000
0000
1000
0000
0000
0000
0000
0000
0000
0000
0000
0000
0000
0000
0010
0000
0000
0000
0000
0000
0000
0000
0000
0000
0000
0000
1000
0000
0000
0001
0000
0000
1000
0000
0000
0000
0000
0000
0020
0000
0000
0000
0000
0000
0000
0000
0000
0000
0000
0000
,
1030
0100
0010
0001
2000
0000
3001
0000
1000
0000
0020
0100
0030
0020
1000
0030
,
0001
0010
0100
1000
0002
0000
1003
0000
0001
0000
0200
0010
0300
0200
0001
0300
,
1000
0000
0000
0010
0000
0000
0100
0000
0000
0001
0000
0000
1000
0000
0000
0000
0000
0000
0001
0000
0000
0000
0000
0000
1000
0000
0100
0000
0010
0000
0001
0000
0000
1000
0000
0000
0010
0000
0100
0000
0001
0000
1000
0000
0000
0100
0000
0000
,
1000
0000
0000
0000
,
1002
0000
0100
1000
2003
0000
0100
0001
,
3002
0000
0010
1000
2003
0000
0010
0001
,
3002
0023
0230
2300
,
3001
0000
0101
0000
0000
1001
0000
1000
1100
0000
0000
0000
0000
0000
0000
0000
;
