#TITLE:ABSOLUTE (EUROBEAT REMIX);
#SUBTITLE:;
#ARTIST:Tracy vs. Yu_Asahina;
#TITLETRANSLIT:;
#SUBTITLETRANSLIT:;
#ARTISTTRANSLIT:;
#GENRE:;
#CREDIT:;
#MUSIC:ABSOLUTE (EUROBEAT REMIX).ogg;
#BANNER:ABSOLUTE (EUROBEAT REMIX).png;
#BACKGROUND:ABSOLUTE (EUROBEAT REMIX)-bg.png;
#CDTITLE:;
#SAMPLESTART:27.154;
#SAMPLELENGTH:15.000;
#SELECTABLE:YES;
#OFFSET:-0.492;
#BPMS:0.000=162.000
,284.000=150.000
,286.000=138.000
,288.000=126.000
,292.000=114.000
,294.000=104.000
,296.000=90.000
;
#STOPS:;
#DISPLAYBPM:90.000:162.000;
#BGCHANGES:;
#FGCHANGES:;

//--------------- dance-single - forcednature ----------------
#NOTES:
     dance-single:
     forcednature:
     Beginner:
     4:
     0,0,0,0,0:
0000
0000
0000
0000
,
0000
0000
0000
0000
,
0000
0000
0000
0000
,
0000
0000
0000
0000
,
0000
0000
0000
0000
,
1001
0000
0000
0000
,
1001
0000
0000
0000
,
1001
0000
1001
0000
,
1001
0000
0000
0000
,
0000
0000
0000
0000
,
0100
0000
0100
0000
,
0010
0000
0000
0000
,
0001
0000
1000
0000
,
0001
0000
0000
0000
,
0100
0000
0100
0000
,
0010
0000
0010
0000
,
1000
0000
0001
0000
,
1000
0000
0000
0000
,
0001
0001
0001
0000
,
0100
0000
0010
0000
,
1000
1000
1000
0000
,
0100
0000
0010
0000
,
0100
0100
0100
0000
,
1000
0000
0001
0000
,
0010
0010
0010
0000
,
0001
0000
1000
0000
,
1001
0000
0100
0000
,
0100
0000
0000
0000
,
0010
0000
1000
0000
,
0001
0000
0000
0000
,
0010
0000
0100
0000
,
1000
0000
0000
0000
,
0001
0000
0100
0000
,
0010
0000
0000
0000
,
0100
0000
0000
0000
,
1001
0000
0000
0000
,
1000
0000
0010
0000
,
0100
0000
0000
0000
,
0001
0000
0010
0000
,
0100
0000
0000
0000
,
1000
0000
0001
0000
,
0100
0000
0000
0000
,
0001
0000
1000
0000
,
1001
0000
0000
0000
,
1000
0000
0100
0000
,
0001
0000
0000
0000
,
0010
0000
0100
0000
,
1001
0000
0010
0000
,
0100
0000
0010
0000
,
0100
0100
0100
0100
,
0100
0000
0000
0000
,
1000
1000
1000
0000
,
0010
0000
0100
0000
,
0001
0001
0001
0000
,
0010
0000
0100
0000
,
0100
0100
0100
0000
,
0001
0000
1000
0000
,
0010
0010
0010
0000
,
1000
0000
0001
0000
,
1000
0000
1000
0000
,
0010
0000
0000
0000
,
0001
0000
0001
0000
,
0100
0000
0000
0000
,
0010
0000
0010
0000
,
0001
0000
0001
0000
,
0100
0000
0100
0000
,
1000
0000
0000
0000
,
0001
0001
1000
1000
,
0001
0000
0000
0000
,
0100
0100
0010
0010
,
0100
0000
0000
0000
,
0001
0001
1000
1000
,
0001
0000
0000
0000
,
0010
0010
0100
0100
,
0010
0000
0000
0000
;

//--------------- dance-single - forcednature ----------------
#NOTES:
     dance-single:
     forcednature:
     Easy:
     7:
     0,0,0,0,0:
0000
0000
0000
0000
,
0000
0000
0000
0000
,
0000
0000
0000
0000
,
0000
0000
0000
0000
,
0000
0000
0000
0000
,
1001
0000
0000
0000
0000
0000
0000
0100
,
0010
0000
0000
0000
,
1001
0000
0110
0000
,
2002
0000
0000
0000
,
3003
0000
0000
0000
,
1001
0010
1000
0001
,
1000
0001
1000
0000
0100
0000
0010
0000
,
0110
0000
0000
0000
0001
0000
0000
0000
1000
0000
0000
0001
0000
0000
1000
0000
,
0000
0010
0100
0001
,
1001
0100
0010
1000
,
0110
0000
0001
0000
1000
0001
1000
0000
,
1001
0000
0000
0000
0100
0000
0000
0000
0010
0000
0000
0100
0000
0000
0010
0000
,
0200
0000
0000
0300
,
0001
0100
0001
0000
1000
0100
1000
0000
,
0020
0100
0130
0000
,
1000
0001
1000
0000
0001
1000
0001
0000
,
0200
0010
0310
0000
,
1000
0100
1000
0000
0001
0010
0001
0000
,
0200
0010
0310
0000
,
0001
0100
0001
0000
1000
0010
1000
0000
,
0002
1000
1003
0000
,
1001
0100
0010
0100
,
0001
0100
0001
0000
1000
0000
0010
0000
,
0110
1000
0001
0100
,
0001
0010
0001
0000
1000
0000
0100
0000
,
0110
0001
1000
0010
,
1000
0001
1000
0000
0100
0000
0010
0000
,
0110
1000
0001
0100
,
0001
0010
0001
0000
0100
0000
0010
0000
,
1000
0001
1000
0001
1000
0000
0000
0000
,
1001
1000
0100
0010
,
0001
0100
1000
0100
,
0001
0010
0100
0001
,
0100
1000
0010
0100
,
1000
0100
0001
0010
,
0100
1000
0010
1000
,
0001
0010
0100
0010
,
0100
0000
0010
0000
,
1001
0001
0100
0001
,
0010
1000
0010
0001
,
1000
0010
0001
0010
,
0100
1000
0100
0001
,
0110
0100
0100
0100
,
1001
0010
0010
0010
,
1001
0100
1001
0010
,
2002
0000
0000
3003
,
1000
0010
1000
0000
0001
0100
0001
0000
,
0020
0100
0130
0010
,
0001
0010
0001
0000
1000
0100
1000
0000
,
0020
0100
0130
0010
,
1000
0001
1000
0000
0010
0100
0010
0000
,
2000
0001
3001
1000
,
0001
1000
0001
0000
0010
0100
0010
0000
,
0002
1000
1003
0001
,
1001
0000
0100
0000
0001
0010
0001
0000
,
0100
0010
1000
0001
,
0010
0000
0000
0000
0001
0000
0000
0000
0100
0000
0000
0010
0000
0000
0100
0000
,
0000
0001
1000
0010
,
1001
1000
0100
0010
,
0110
0001
1000
0010
,
1001
0000
0000
0000
0100
0000
0000
0000
0010
0000
0000
0010
0000
0000
0020
0000
,
0000
0000
0000
0030
,
1000
0001
1000
0000
0001
1000
0001
0000
,
0200
0000
0000
0000
,
0310
1000
0010
0000
0100
0001
0100
0000
,
0002
0000
0000
0000
,
0013
0001
0010
0000
0100
1000
0100
0000
,
0020
0000
0000
0000
,
0031
1000
0001
0000
0100
0010
0100
0000
,
0002
0000
0000
0000
,
0003
0000
0000
0000
;

//--------------- dance-single - forcednature ----------------
#NOTES:
     dance-single:
     forcednature:
     Medium:
     11:
     0,0,0,0,0:
0000
0000
0000
0000
,
0000
0000
0000
0000
,
0000
0000
0000
0000
,
0000
0000
0000
0000
,
0000
0000
0000
0000
,
1001
0000
0001
0000
1000
0000
0001
0010
,
0100
1000
0001
1000
,
0110
0001
0110
1000
,
2002
0000
0000
3003
,
0001
0100
0010
1000
0002
0000
0003
0000
,
1000
0100
1000
0000
0001
0010
0001
0000
,
0100
0010
1000
0001
0010
0100
1000
0001
,
0100
0000
0000
0000
0110
0000
0000
0000
0001
0000
0000
1000
0000
0000
0001
0000
,
0000
1000
0100
1000
0010
1000
0001
0100
,
0001
0010
0100
0000
1000
0100
0010
0000
,
0001
0100
0001
1000
0010
1000
0001
0000
,
0100
0100
0010
1000
0001
0001
0010
0100
,
1000
0000
0101
0000
0001
0010
0100
0000
,
1000
0100
1000
0010
0100
0001
0010
0100
,
2000
0010
0100
0001
,
3010
0100
0001
0010
0100
0001
0100
1000
,
0020
1000
0001
1000
,
0130
0001
1000
0100
0001
0100
0010
0001
,
0200
0010
0001
1000
,
0310
1000
0001
1000
0100
0010
0001
0100
,
0002
0010
0100
0010
,
1003
0000
0000
0001
0000
0000
0100
0000
0010
0000
0000
1000
0000
0000
0001
0000
,
0010
0100
0001
0100
,
1000
0000
0000
0010
0000
0000
1000
0000
0001
0000
0000
0100
0000
0000
0001
0000
,
0010
0100
1000
0010
,
0100
0000
0000
1000
0000
0000
0100
0000
0001
0000
0000
0010
0000
0000
0100
0000
,
0001
0100
1000
0010
,
0100
0000
0000
0001
0000
0000
1000
0000
0010
0000
0000
0001
0000
0000
0010
0000
,
0100
0001
1000
0100
,
1000
0010
0100
1000
0100
0000
1001
0000
,
0101
0000
0001
0010
0100
0000
0010
0000
,
0100
1000
0010
0000
0100
0001
0010
0000
,
0100
0000
1000
0010
0100
0000
0001
0000
,
1000
0010
0001
0000
0010
0100
0001
0000
,
0110
0000
0001
1000
0100
0000
0010
0000
,
0100
1000
0001
0000
0100
0001
1000
0000
,
0010
0000
1000
0100
0010
0000
0001
0000
,
0100
0010
1000
0000
0001
0010
0100
0010
,
0100
0000
1000
0001
0100
0000
0010
0000
,
1000
0001
0010
0000
0100
0010
0001
0000
,
0110
0000
0001
0100
1000
0000
0100
0000
,
0010
1000
0100
0000
0010
0001
0100
0000
,
0100
0001
1000
0001
1000
0001
1000
0001
,
0010
0100
1000
0100
1000
0100
1000
0100
,
0010
0001
0010
0000
0100
1000
0100
0000
0020
0000
0000
0000
0000
0000
0000
0000
,
0130
1000
0010
0100
,
0001
0100
1000
0100
0001
0010
0100
1000
,
0010
0000
0000
0010
1000
0000
0000
1000
0001
0000
0000
0001
0010
0000
0000
0010
,
0100
0001
0100
1000
0010
0100
0001
1000
,
0001
0000
0000
0001
0010
0000
0000
0010
0100
0000
0000
0100
1000
0000
0000
1000
,
0001
1000
0100
0001
0100
0010
0001
1000
,
0100
0000
0000
0100
1000
0000
0000
1000
0001
0000
0000
0001
0100
0000
0000
0100
,
0010
1000
0001
0100
0010
1000
0001
0010
,
0200
0010
0310
1001
,
0001
0000
0100
0000
0010
0000
1000
0001
0000
1000
0001
0000
0010
0000
0000
0000
,
0100
1000
0010
0100
0001
0010
0001
0100
,
0010
0000
0000
0000
0110
0000
0000
0000
0001
0000
0000
1000
0000
0000
0001
0000
,
0000
0000
1000
0000
0100
0000
1000
0100
0000
1000
0000
0001
0100
0000
0001
0000
,
1000
0000
0001
0000
0010
0000
0001
0100
0000
0001
0100
0000
0010
0000
0000
0000
,
1000
0001
1000
0010
0100
0001
1000
0100
,
0010
0000
0000
0000
1001
0000
0000
0000
0110
0000
0000
1001
0000
0000
0110
0000
,
0000
0001
1000
0001
0100
0010
1000
0000
,
0001
0100
1000
0100
0001
0010
1000
0010
,
0200
0000
0000
0000
,
1300
0010
1000
0100
0001
0100
1000
0010
,
2000
0000
0000
0000
,
3001
0100
1000
0100
0010
0001
0010
1000
,
0002
0000
0000
0000
,
0013
0100
0001
0100
1000
0010
0100
0001
,
0020
0000
0000
0000
,
0030
0000
0000
0000
;

//--------------- dance-single - forcednature ----------------
#NOTES:
     dance-single:
     forcednature:
     Hard:
     14:
     0,0,0,0,0:
0000
0000
0000
0000
,
0000
0000
0000
0000
,
0000
0000
0000
0000
,
0000
0000
0000
0000
,
0000
0000
0000
0000
,
1001
0000
0001
0100
0001
0000
1000
0000
0010
0000
1000
0100
1000
0000
0010
0000
,
0210
0001
1000
0310
,
1001
0000
0001
0010
0001
0000
0100
0000
0110
0000
0010
1000
0010
0000
1000
0000
,
1002
0100
0010
1003
,
1000
0100
0010
0001
0100
0010
1000
0001
0010
0000
0000
0000
1001
0000
0000
0000
,
1000
0100
1000
0000
0001
0100
0000
0010
0000
1000
0001
0000
0010
0000
0001
0000
,
1000
0010
0100
0010
1000
0001
0100
0000
0001
0010
0100
1000
0010
1000
0100
0000
,
1001
0000
0000
0000
0110
0000
0000
0000
0101
0000
0000
1010
0000
0000
1001
0000
,
0000
0000
1000
0000
0010
0000
1000
0100
0000
0010
0000
0001
0100
0000
0010
0000
,
1000
0001
1000
0000
0010
0100
0000
0001
0000
0010
0001
0000
1000
0000
0010
0000
,
1000
0100
0010
0100
1000
0001
0100
0000
0010
1000
0001
0010
0001
1000
0010
0000
,
0100
0010
0100
0000
0001
1000
0001
0000
0010
0001
0100
0010
1000
0010
0100
0000
,
0001
0000
0000
0010
0100
0000
0000
1000
0001
1000
0001
0000
1100
0000
0000
0000
,
1000
0000
0100
0010
0100
0000
1000
0000
0001
0000
0100
0010
0100
0000
0001
0000
,
0010
0000
0000
0010
0100
0000
0000
0100
1000
0000
0000
1000
0001
0000
0000
0001
,
0100
0000
0010
1000
0010
0000
0100
0000
0001
0000
0010
0100
0010
0000
0001
0000
,
0100
0000
0000
0100
0010
0000
0000
0010
1000
0000
0000
1000
0001
0000
0000
0001
,
0010
0000
0100
1000
0100
0000
0010
0000
0001
0000
1000
0010
1000
0000
0001
0000
,
0100
0000
0000
0100
1000
0000
0000
1000
0100
0000
0000
0100
0001
0000
0000
0001
,
0010
0000
0100
1000
0100
0000
0010
0000
0001
0000
1000
0010
1000
0000
0001
0000
,
0100
0000
0000
0100
0001
0000
0000
0001
0010
0000
0000
0010
0001
0000
0000
0001
,
0100
0000
0010
1000
0010
0000
0100
0000
0001
0000
0010
1000
0010
0000
0001
0000
,
0100
0010
0100
0000
0001
1000
0000
0100
0000
1000
0001
0000
0010
0001
0010
0000
,
0001
0000
0100
0010
0100
0000
0001
0000
1000
0000
0100
0010
0100
0000
1000
0000
,
0001
0000
0100
0000
0010
0000
1000
0001
0000
0100
0010
0000
1000
0100
1000
0100
,
0010
0000
0001
0100
0001
0000
0010
0000
0100
0000
0001
0100
0001
0000
0100
0000
,
1000
0001
1000
0000
0010
0100
0000
0001
0000
1000
0000
0100
0000
0010
0001
0000
,
1000
0000
0010
0100
0010
0000
1000
0000
0001
0000
0010
0100
0010
0000
0001
0000
,
0010
0100
0000
0100
1000
0000
1000
0001
0000
0001
0100
0000
0010
1000
0000
0001
,
0100
0001
1000
0100
0010
0001
1000
0010
0100
0000
0001
1000
0001
0000
0100
0000
,
0210
0000
0302
0000
2003
0000
3001
0100
,
1000
0100
0010
1000
0100
0001
1000
0010
,
0002
0000
0203
0000
0320
0000
1030
0100
,
0001
1000
0010
0001
0100
1000
0100
0010
,
2010
3002
2003
3200
,
0310
1000
0001
0100
0010
0001
0100
0010
,
0200
0000
0302
0000
0023
0000
0130
1000
,
0010
0000
0100
0000
1000
0000
0100
0000
0001
0000
0001
0000
1000
0001
1000
0001
,
2000
0000
3020
0000
0230
0000
0301
0100
,
1000
0001
0010
1000
0100
0001
1000
0010
,
0012
0000
2003
0000
3002
0000
0013
0100
,
1000
0000
0001
0000
0100
0000
0010
0000
1000
0000
0001
1000
0001
0100
0010
1000
,
0001
0001
0010
0010
0100
0100
1000
1000
,
1010
0010
0100
0100
0001
0001
1000
1000
,
0100
1000
0100
1000
0001
1000
0001
1000
0001
0100
0001
0100
0001
1000
0001
1000
,
0100
1000
0010
0100
0001
0010
0001
1000
,
0010
0000
0100
0001
0100
0000
0010
0000
0001
0000
0010
0100
0010
0000
1000
0000
,
0010
1000
0010
0000
1000
0001
1000
0000
0001
0100
0001
0000
1000
0001
1000
0000
,
0100
0000
0010
1000
0010
0000
0100
0000
1000
0000
0010
0100
0010
0000
1000
0000
,
0001
0010
0001
0000
0100
0010
0100
0000
0001
1000
0001
0000
0010
0100
0010
0000
,
0001
0000
1000
0010
1000
0000
0001
0000
0010
0000
0100
0001
0100
0000
1000
0000
,
0010
1000
0010
0000
0100
0001
0100
0000
0001
0010
0001
0000
0100
0010
0100
0000
,
0001
0000
1000
0100
1000
0000
0010
0000
0001
0000
0010
0100
0010
0000
1000
0000
,
0200
0010
0310
0110
,
1000
0001
1000
0000
0001
0100
0000
0010
0000
1000
0100
0000
0010
0000
0001
0000
,
0100
0010
1000
0010
0100
0001
1000
0000
0100
1000
0001
0010
0100
1000
0010
0000
,
1001
0000
0000
0000
1100
0000
0000
0000
0101
0000
0000
0110
0000
0000
1001
0000
,
0000
0000
0001
0000
0010
0000
0100
1000
0000
0100
0000
0001
0100
0000
1000
0000
,
0010
1000
0010
0000
0100
0001
0000
1000
0000
0100
1000
0000
0010
0000
0100
0000
,
0001
0010
0001
1000
0100
1000
0010
0000
0100
0001
0010
0100
1000
0010
0100
0000
,
0110
0000
0000
0000
0101
0000
0000
0000
1100
0000
0000
0110
0000
0000
1001
0000
,
0000
0000
1000
0010
0100
0000
0001
0010
0100
1000
0100
0010
0001
0000
0000
0000
,
0100
0000
0001
1000
0001
0000
0010
0000
0100
0000
1000
0010
1000
0000
0001
0000
,
0100
0010
0100
0000
0001
1000
0001
0000
1000
0010
1000
0000
0001
0010
0001
0000
,
0100
0000
0001
0010
0001
0000
1000
0000
0010
0000
0100
0001
0100
0000
0001
0000
,
0010
0100
0010
0000
0001
1000
0001
0000
0100
0001
0100
0000
0010
1000
0010
0000
,
1000
0000
0010
0001
0010
0000
0100
0000
0001
0000
0010
1000
0010
0000
0100
0000
,
1000
0010
1000
0001
0100
0001
1000
0100
0010
0100
1000
0001
0010
0100
0010
0001
,
0100
0000
0000
0000
0001
1000
0001
0000
0100
0000
0000
0000
0010
0000
0000
0000
1000
0000
0000
0000
0100
0010
0100
0000
1000
0000
0000
0000
0010
0000
0000
0000
,
0200
0000
0000
0000
,
0300
0000
0000
0000
;

//--------------- dance-double - forcednature ----------------
#NOTES:
     dance-double:
     forcednature:
     Easy:
     7:
     0,0,0,0,0:
00000000
00000000
00000000
00000000
,
00000000
00000000
00000000
00000000
,
00000000
00000000
00000000
00000000
,
00000000
00000000
00000000
00000000
,
00000000
00000000
00000000
00000000
,
00011000
00000000
00000000
00000000
00000000
00000000
00000000
01000000
,
00010000
00000000
00000000
00000000
,
10010000
00000000
01100000
00000000
,
00022000
00000000
00000000
00000000
,
00033000
00000000
00000000
00000000
,
00010000
00001000
00000100
00000001
,
00000010
00000100
00000010
00000000
00000001
00001000
00000001
00000000
,
00000100
00000000
00000000
00000000
00000010
00000000
00000000
00000000
00000100
00000000
00000000
00001000
00000000
00000000
00010000
00000000
,
00000000
00001000
00010000
01000000
,
01100000
00010000
10000000
00100000
,
10000000
01000000
10000000
00000000
00010000
00100000
00010000
00000000
,
01000000
00000000
00000000
00000000
00001000
00000000
00000000
00000000
00010000
00000000
00000000
00000010
00000000
00000000
00001000
00000000
,
00000000
00000100
00000100
00000010
,
00000001
00000100
00000001
00000000
00000010
00000100
00000010
00000000
,
00000001
00000100
00001000
00010000
,
00000100
00001000
00000100
00000000
00010000
00000010
00010000
00000000
,
00001000
00100000
00001000
00010000
,
00100000
01000000
00100000
00000000
10000000
00010000
10000000
00000000
,
01000000
00010000
01000000
00100000
,
00001000
00010000
00001000
00000000
00010000
00000010
00010000
00000000
,
00000100
00001000
00000001
00000100
,
00001000
00010000
00001000
00000100
,
00001000
00010000
01000000
10000000
,
00100000
00010000
00100000
10000000
,
01000000
00010000
00001000
00000100
,
00000001
00000010
00000001
00000100
,
00000001
00000010
00001000
00010000
,
00100000
01000000
00100000
00010000
,
00001000
00100000
01000000
10000000
,
01000000
00100000
01000000
00100000
01000000
00000000
00000000
00000000
,
01000000
00010000
00001000
00000100
,
00000001
00000010
00000100
00001000
,
00000001
00000100
00001000
00010000
,
01000000
10000000
00010000
10000000
,
10010000
00010000
01000000
00001000
,
00010000
00000100
00000010
00001000
,
00010000
00000010
00001000
00000001
,
00000100
00000000
00001000
00000000
00010000
01000000
00010000
01000000
,
00010000
00001000
00010000
00100000
,
10000000
00010000
10000000
01000000
,
01100000
00100000
00001000
00010000
,
00000100
00000000
00001000
00000000
00000001
00000100
00000001
00000000
,
00001001
00000001
00000100
00001000
,
00011000
00001000
00010000
01000000
,
01100000
00010000
00022000
00000000
,
00033000
00000000
00000000
00000000
,
00010000
00000100
00010000
00000000
00001000
00100000
00001000
00000000
,
00010000
00100000
01000000
00010000
,
10000000
01000000
10000000
00000000
00100000
01000000
00100000
00000000
,
10000000
01000000
00010000
00001000
,
00000100
00000010
00000100
00000000
00000001
00000010
00000001
00000000
,
00001000
00000010
00001000
00000100
,
00010000
00001000
00010000
00000000
00000100
00001000
00000100
00000000
,
00010000
00000010
00010000
00001000
,
01000000
00010000
00100000
01000000
,
10000000
00100000
10000000
00000000
00010000
01000000
00010000
00000000
,
01000000
00000000
00000000
00000000
00001000
00000000
00000000
00000000
00010000
00000000
00000000
00000100
00000000
00000000
00001000
00000000
,
00000000
00000010
00000100
00000001
,
00000110
00000001
00000100
00001000
,
00010000
00000100
00010000
00000000
00001000
00100000
00001000
00000000
,
00010000
00000000
00000000
00000000
00100000
00000000
00000000
00000000
10000000
00000000
00000000
01000000
00000000
00000000
00010000
00000000
,
00000000
00001000
00000100
00001000
,
00010000
01000000
00010000
00000000
00001000
00010000
00001000
00000000
,
00000200
00000000
00000000
00000000
,
00000301
00000010
00000001
00000000
00000100
00000010
00000100
00000000
,
00000002
00000000
00000000
00000000
,
00001003
00000010
00001000
00000000
00000100
00001000
00000100
00000000
,
00020000
00000000
00000000
00000000
,
00031000
01000000
00001000
00000000
00100000
01000000
00100000
00000000
,
00020000
00000000
00000000
00000000
,
00030000
00000000
00000000
00000000
;

//--------------- dance-double - forcednature ----------------
#NOTES:
     dance-double:
     forcednature:
     Medium:
     12:
     0,0,0,0,0:
00000000
00000000
00000000
00000000
,
00000000
00000000
00000000
00000000
,
00000000
00000000
00000000
00000000
,
00000000
00000000
00000000
00000000
,
00000000
00000000
00000000
00000000
,
00011000
00000000
00100000
00000000
01000000
00000000
10000000
00010000
,
01000000
00001000
00000100
00000010
,
00000110
00000001
00000110
00001000
,
00022000
00000000
00000000
00033000
,
00000100
00010000
00001000
01000000
00001000
00000000
00011000
00000000
,
00000100
00001000
00000010
00000000
00000100
00000001
00000010
00000000
,
00000001
00000100
00001000
00010000
01000000
10000000
00100000
00000000
,
01100000
00000000
00000000
00000000
00001000
00000000
00000000
00000000
00010000
00000000
00000000
00000010
00000000
00000000
00001000
00000000
,
00000000
00000010
00000100
00000001
00000010
00001000
00010000
00001000
,
00010000
01000000
00100000
00000000
00010000
10000000
00100000
00000000
,
00010000
00001000
00100000
00001000
00010000
00000010
00001000
00000100
,
00000010
00000010
00000100
00010000
00001000
00001000
01000000
00010000
,
00100000
00000000
01100000
00000000
10000000
00010000
10000000
00000000
,
00100000
10000000
01000000
00010000
01000000
00100000
00001000
00010000
,
00000020
00000100
00010000
00001000
,
00000130
00000001
00001000
00000100
00010000
00000010
00010000
00001000
,
00200000
01000000
10000000
00010000
,
00301000
00010000
01000000
00100000
00010000
10000000
00100000
00010000
,
00002000
00000100
00010000
00100000
,
00013000
00001000
00000010
00000100
00001000
00000001
00000100
00001000
,
00020000
01000000
00001000
00000100
,
00031000
00000000
00000000
00010000
00001000
00000000
00000000
00000000
01000000
00000000
00000000
00010000
01000000
00000000
00000000
00000000
,
00100000
10000000
01000000
10000000
00100000
00010000
00001000
00000000
,
00000010
00000000
00000000
00000100
00001000
00000000
00000000
00000000
00000010
00000000
00000000
00000100
00000001
00000000
00000000
00000000
,
00001000
00000100
00000010
00001000
00100000
00010000
01000000
00000000
,
00100000
00000000
00000000
10000000
00010000
00000000
00000000
00000000
00100000
00000000
00000000
00010000
10000000
00000000
00000000
00000000
,
01000000
00010000
00001000
00000100
00001000
00010000
00000100
00000000
,
00000010
00000000
00000000
00001000
00010000
00000000
00000000
00000000
00100000
00000000
00000000
00010000
00001000
00000000
00000000
00000000
,
00010000
01000000
10000000
00010000
01000000
00100000
00010000
00001000
,
00000010
00000100
00001000
00000001
00000100
00000000
00001001
00000000
,
00000001
00000000
00000000
00000001
00000100
00000000
00000000
00000100
00001000
00000000
00000000
00001000
00010000
00000000
00000000
00010000
,
00000100
00000000
00000000
00000100
00010000
00000000
00000000
00010000
00001000
00000000
00000000
00001000
00100000
00000000
00000000
00100000
,
00010000
00000000
00000000
00010000
10000000
00000000
00000000
10000000
01000000
00000000
00000000
01000000
00010000
00000000
00000000
00010000
,
00001000
00000000
00000000
00001000
00000010
00000000
00000000
00000010
00000001
00000000
00000000
00000001
00000100
00000000
00000000
00000100
,
00000010
00000000
00000000
00000010
00000100
00000000
00000000
00000100
00001000
00000000
00000000
00001000
00010000
00000000
00000000
00010000
,
01000000
00000000
00000000
01000000
10000000
00000000
00000000
10000000
00010000
00000000
00000000
00010000
01000000
00000000
00000000
01000000
,
00001000
00000000
00000000
00001000
00010000
00000000
00000000
00010000
00000100
00000000
00000000
00000100
00001000
00000000
00000000
00001000
,
00000001
00000000
00000000
00000001
00000100
00000000
00000000
00000100
00000010
00000000
00000010
00000000
00000100
00000000
00000000
00000000
,
00001000
00000000
00000000
00001000
00010000
00000000
00000000
00010000
01000000
00000000
00000000
01000000
00100000
00000000
00000000
00100000
,
00010000
00000000
00000000
00010000
10000000
00000000
00000000
10000000
00100000
00000000
00000000
00100000
00010000
00000000
00000000
00010000
,
00001000
00000000
00000000
00001000
00000010
00000000
00000000
00000010
00000100
00000000
00000000
00000100
00001000
00000000
00000000
00001000
,
00000001
00000000
00000000
00000001
00000100
00000000
00000000
00000100
00001000
00000000
00010000
00000000
00000100
00000000
00000000
00000000
,
00010000
01000000
10000000
00010000
01000000
00001000
00010000
00000010
,
00001000
00000100
00000010
00000001
00000100
00001000
00010000
00000100
,
00000010
00000000
00001000
00000000
00010000
00000000
00100000
00000000
01000000
00010000
01000000
00000000
00100000
10000000
00100000
00000000
,
10000000
01000000
00100000
00010000
01000000
00100000
10000000
00010000
,
00100000
00001000
00000100
00001000
00010000
00000100
00000010
00000001
,
00000200
00001000
00000010
00000001
,
00001300
00010000
00000100
00010000
01000000
00100000
00010000
10000000
,
00200000
00001000
00010000
10000000
,
01300000
00001000
00100000
01000000
00010000
00001000
00000010
00000001
,
00000200
00010000
00000001
00000010
,
00001300
00010000
00000100
00000001
00000100
00000010
00001000
00010000
,
00200000
01000000
00001000
00010000
,
10300000
00000000
01000000
00000000
10000000
00000000
00010000
00100000
00000000
00010000
00100000
00000000
00001000
00000000
00000000
00000000
,
00010000
00000100
00000010
00001000
00010000
00000010
00000100
00000001
,
00000010
00000000
00000000
00000000
00000110
00000000
00000000
00000000
00000100
00000000
00000000
00010000
00000000
00000000
01000000
00000000
,
00000000
00000000
00100000
00000000
00001000
00000000
00010000
00000100
00000000
00010000
00000000
00001000
01000000
00000000
00001000
00000000
,
00000010
00000000
00001000
00000000
00010000
00000000
00000100
00001000
00000000
00000100
00001000
00000000
00000010
00000000
00010000
00000000
,
00001000
01000000
00010000
00100000
01000000
10000000
00100000
00010000
,
00001000
00000000
00000000
00000000
00011000
00000000
00000000
00000000
00010100
00000000
00000000
00011000
00000000
00000000
01001000
00000000
,
00000000
00001000
00000100
00000001
00000010
00001000
00010000
00000000
,
00100000
10000000
01000000
00010000
00001000
00000100
00000001
00000010
,
00000200
00000000
00000000
00000000
,
00010300
00000010
00000100
00001000
01000000
00001000
00010000
01000000
,
20000000
00000000
00000000
00000000
,
30100000
01000000
00001000
00000010
00000001
00000100
00010000
00100000
,
02000000
00000000
00000000
00000000
,
03010000
00000100
00001000
00000010
00010000
00100000
01000000
00010000
,
00000020
00000000
00000000
00000000
,
00000030
00000000
00000000
00000000
;

//--------------- dance-double - forcednature ----------------
#NOTES:
     dance-double:
     forcednature:
     Hard:
     15:
     0,0,0,0,0:
00000000
00000000
00000000
00000000
,
00000000
00000000
00000000
00000000
,
00000000
00000000
00000000
00000000
,
00000000
00000000
00000000
00000000
,
00000000
00000000
00000000
00000000
,
00011000
00000000
00001000
01000000
00001000
00000000
00010000
00000000
00100000
00000000
10000000
01000000
10000000
00000000
10100000
00000000
,
02010000
03002000
00023000
00030200
,
00000310
00000000
00000001
00000100
00000001
00000000
00000010
00000000
00001100
00000000
00010000
00001000
00010000
00000000
00000010
00000000
,
00001020
00000230
00002300
00023000
,
01030000
00100000
01000000
10000000
00010000
01000000
00100000
10000000
00010000
00000000
00000000
00000000
10010000
00000000
00000000
00000000
,
00010000
01000000
00010000
00000000
00100000
00001000
00000000
00010000
00000000
00000100
00001000
00000000
00000001
00000000
00000100
00000000
,
00000010
00001000
00000100
00000010
00000100
00010000
00001000
00000000
00100000
00010000
01000000
00010000
10000000
00100000
01000000
00000000
,
01010000
00000000
00000000
00000000
01001000
00000000
00000000
00000000
00011000
00000000
00000000
00010100
00000000
00000000
00001010
00000000
,
00000000
00000000
00000001
00000000
00000100
00000000
00001000
00010000
00000000
01000000
00000000
00100000
00010000
00000000
10000000
00000000
,
00100000
10000000
00100000
00000000
01000000
00010000
00000000
00100000
00000000
01000000
00010000
00000000
00001000
00000000
00000010
00000000
,
00001000
00010000
00000100
00010000
00001000
00100000
00001000
00000000
00010000
00000010
00010000
00001000
01000000
00001000
00010000
00000000
,
00000100
00010000
00000100
00010000
00001000
00010000
00001000
00010000
00001000
01000000
00001000
01000000
00001000
00010000
00001000
00010000
,
00000100
00000000
00001000
00000010
00000100
00000000
00000001
00000010
00000100
00001000
00000010
00000100
00000001
00000000
00000000
00000000
,
00000010
00000000
00000100
00001000
00000100
00000000
00010000
00000000
00001000
00000000
00100000
01000000
00100000
00000000
00010000
00000000
,
10000000
00100000
10000000
00000000
00010000
01000000
00010000
00000000
00100000
01000000
00100000
00000000
00001000
00010000
00001000
00000000
,
00000100
00000000
00000010
00001000
00000010
00000000
00010000
00000000
00000100
00000000
00000010
00000001
00000010
00000000
00001000
00000000
,
00010000
00000100
00010000
00000000
00001000
00100000
00001000
00000000
00010000
00001000
00010000
00000000
01000000
00100000
01000000
00000000
,
10000000
00000000
00010000
01000000
00010000
00000000
00100000
00000000
01000000
00000000
10000000
00100000
10000000
00000000
00010000
00000000
,
01000000
00001000
01000000
00000000
00001000
00010000
00001000
00000000
00000100
00000010
00000100
00000000
00000001
00001000
00000001
00000000
,
00000010
00000000
00000100
00001000
00000100
00000000
00010000
00000000
00001000
00000000
00000100
00000010
00000100
00000000
00000001
00000000
,
00001000
00000010
00001000
00000000
00000100
00001000
00000100
00000000
00010000
00001000
00010000
00000000
00001000
01000000
00001000
00000000
,
00100000
00000000
01000000
10000000
01000000
00000000
00100000
00000000
00001000
00000000
01000000
00010000
01000000
00000000
00001000
00000000
,
00000100
00000010
00001000
00000000
00000001
00000010
00000000
00000100
00000000
00001000
00000001
00000000
00000100
00001000
00010000
00000000
,
00000100
00000000
00010000
00001000
00010000
00000000
00100000
00000000
01000000
00000000
00010000
10000000
00010000
00000000
00100000
00000000
,
00001000
00000000
00010000
00000000
00000100
00000000
00001000
00000001
00000000
00000100
00001000
00000000
00010000
00001000
00010000
00001000
,
00010000
00000000
00000100
00000010
00000100
00000000
00001000
00000000
00000001
00000000
00000100
00001000
00000100
00000000
00010000
00000000
,
01000000
00100000
01000000
00000000
00010000
10000000
00000000
00100000
00000000
01000000
00000000
00001000
00000000
00000100
00000010
00000000
,
00001000
00000000
00000001
00000010
00000001
00000000
00000100
00000000
00000010
00000000
00010000
00001000
00010000
00000000
00000100
00000000
,
00000010
00001000
00000000
00001000
00010000
00000000
00010000
00100000
00000000
00100000
00010000
00000000
00001000
00010000
00001000
01000000
,
00010000
00100000
01000000
10000000
00010000
01000000
00001000
00010000
00001000
00000000
00010000
00001000
00010000
00000000
00001000
00000000
,
00010000
00000010
00000100
00001000
00010000
00000100
00000010
00001000
,
00010000
00100000
10000000
00010000
00100000
10000000
00100000
01000000
,
10000000
00100000
00010000
00001000
00000010
00000001
00000100
00000010
,
00001000
00000001
00000010
00001000
00010000
00000010
00000100
00001000
,
00010000
01000000
00100000
00010000
10000000
00100000
00010000
00100000
,
01000000
00001000
00010000
01000000
10000000
00100000
00010000
00001000
,
00000010
00000100
00010000
00001000
00000100
00010000
01000000
00001000
,
00010000
00000000
00000100
00000000
00000010
00000000
00001000
00000000
00010000
00000000
00100000
00000000
10000000
00010000
10000000
00010000
,
10000000
01000000
00010000
00001000
00000100
00000010
00001000
00000001
,
00000010
00001000
00010000
00000010
00000100
00001000
00010000
01000000
,
00100000
00010000
10000000
01000000
00001000
01000000
00100000
00001000
,
00000100
00000000
00000010
00000000
00001000
00000000
00000001
00000000
00000010
00000000
00000100
00001000
00000001
00001000
00000001
00001000
,
00000010
00000010
00010000
00010000
01000000
01000000
00001000
00001000
,
00000100
00000100
00010000
00010000
00100000
00100000
00001000
00001000
,
00000010
00001000
00000010
00001000
00000001
00000010
00000001
00000010
00000100
00001000
00000100
00001000
00000001
00001000
00000001
00001000
,
00000010
00010000
00100000
00010000
00001000
00010000
01000000
10000000
,
00100000
00000000
01000000
00010000
01000000
00000000
00100000
00000000
00010000
00000000
00001000
00000010
00001000
00000000
00010000
00000000
,
00000100
00001000
00000100
00000000
00000010
00000001
00000010
00000000
00000001
00000100
00000001
00000000
00001000
00000100
00001000
00000000
,
01000000
00000000
00100000
00010000
00100000
00000000
01000000
00000000
10000000
00000000
00100000
01000000
00100000
00000000
00010000
00000000
,
00001000
00100000
00001000
00000000
00010000
00000100
00010000
00000000
00000010
00001000
00000010
00000000
00000100
00000001
00000100
00000000
,
00001000
00000000
00010000
00000100
00010000
00000000
00001000
00000000
00100000
00000000
00010000
10000000
00010000
00000000
01000000
00000000
,
00100000
00010000
00100000
00000000
01000000
00010000
01000000
00000000
00001000
00010000
00001000
00000000
00100000
00010000
00100000
00000000
,
00001000
00000000
00010000
00000010
00010000
00000000
00000100
00000000
00000010
00000000
00000001
00001000
00000001
00000000
00000100
00000000
,
00002000
00010000
00013000
00011000
,
00100000
00010000
00100000
00000000
01000000
10000000
00000000
00010000
00000000
01000000
00100000
00000000
00010000
00000000
00001000
00000000
,
00000010
00001000
00000010
00000100
00001000
00000001
00000100
00000000
00000010
00010000
00001000
00010000
00000100
00001000
00000010
00000000
,
00001100
00000000
00000000
00000000
00011000
00000000
00000000
00000000
00110000
00000000
00000000
10010000
00000000
00000000
01100000
00000000
,
00000000
00000000
10000000
00000000
01000000
00000000
10000000
00100000
00000000
00010000
00000000
00001000
00000010
00000000
00000001
00000000
,
00000100
00000010
00000100
00000000
00000001
00001000
00000000
00000100
00000000
00000010
00001000
00000000
00010000
00000000
00100000
00000000
,
01000000
00010000
01000000
00001000
00100000
00010000
01000000
00000000
00001000
00010000
00000100
00001000
00000010
00010000
00000100
00000000
,
00000110
00000000
00000000
00000000
00001001
00000000
00000000
00000000
00000101
00000000
00000000
00001100
00000000
00000000
00011000
00000000
,
00000000
00000000
00100000
00010000
00100000
00000000
01000000
10000000
00010000
01000000
00001000
00010000
00001000
00000000
00000000
00000000
,
00100000
00000000
00001000
00010000
00001000
00000000
00000100
00000000
00000010
00000000
00010000
00001000
00010000
00000000
01000000
00000000
,
00100000
00010000
00100000
00000000
00001000
00010000
00001000
00000000
00010000
00000100
00010000
00000000
00000010
00001000
00000010
00000000
,
00000100
00000000
00000001
00000010
00000001
00000000
00000100
00000000
00001000
00000000
00010000
00000100
00010000
00000000
00001000
00000000
,
00100000
00010000
00100000
00000000
01000000
10000000
01000000
00000000
10000000
00100000
10000000
00000000
00010000
01000000
00010000
00000000
,
00100000
00000000
00001000
00010000
00001000
00000000
00000100
00000000
00000010
00000000
00001000
00000001
00001000
00000000
00000100
00000000
,
00000010
00000001
00000010
00000100
00010000
00001000
00010000
00100000
01000000
00010000
10000000
01000000
00100000
00010000
01000000
00001000
,
00010000
00000000
00000000
00000000
00000100
00001000
00000100
00000000
00000010
00000000
00000000
00000000
00000001
00000000
00000000
00000000
00000100
00000000
00000000
00000000
00001000
00010000
00001000
00000000
00100000
00000000
00000000
00000000
01000000
00000000
00000000
00000000
,
20000000
00000000
00000000
00000000
,
30000000
00000000
00000000
00000000
;
