#TITLE:8bit Voyager;
#SUBTITLE:;
#ARTIST:Lime;
#TITLETRANSLIT:;
#SUBTITLETRANSLIT:;
#ARTISTTRANSLIT:;
#GENRE:;
#CREDIT:;
#BANNER:8bit Voyager.png;
#BACKGROUND:8bit Voyager-bg.png;
#LYRICSPATH:;
#CDTITLE:;
#MUSIC:8bit Voyager.ogg;
#OFFSET:-0.055519;
#SAMPLESTART:23.783079;
#SAMPLELENGTH:10.549448;
#SELECTABLE:YES;
#BPMS:0.000000=182.000000
,294.000000=91.000000
,311.000000=182.000000
,343.000000=91.000000
,347.000000=182.000000
;
#STOPS:
;
#BGCHANGES:;
#KEYSOUNDS:;
#ATTACKS:;

//---------------dance-single - ----------------
#NOTES:
     dance-single:
     :
     Challenge:
     18:
     0.931724,1.383794,0.150179,0.307510,0.997619,912.000000,891.000000,21.000000,43.000000,0.000000,0.000000,0.931724,1.383794,0.150179,0.307510,0.997619,912.000000,891.000000,21.000000,43.000000,0.000000,0.000000:
// measure 0
0000
0000
0000
0000
,  // measure 1
0000
0000
0000
0000
,  // measure 2
0000
0000
0000
0000
,  // measure 3
0000
0000
0000
0000
,  // measure 4
0000
0000
0000
0000
,  // measure 5
0000
0000
0000
0000
,  // measure 6
0000
0000
0000
0000
,  // measure 7
0000
0000
0000
0000
,  // measure 8
0000
0000
0000
0000
,  // measure 9
0000
0000
0000
0000
,  // measure 10
1000
0000
0001
0000
0100
0000
0000
0000
0100
0000
0010
0100
0001
0000
0010
0000
,  // measure 11
0001
0000
0100
0000
0001
0000
0010
0000
0100
0000
0010
0100
1000
0000
0001
0000
,  // measure 12
1000
0000
0001
0000
0010
0000
0000
0000
0010
0000
0100
0010
0001
0000
0100
0000
,  // measure 13
0001
0000
0010
0000
0100
0000
1000
0000
0010
0000
0100
0001
1000
0000
0100
0000
,  // measure 14
0010
0100
0010
0001
0010
0001
1000
0001
,  // measure 15
1000
0010
1000
0010
0100
0010
0100
0001
,  // measure 16
0100
0001
0100
0010
1000
0001
1000
0100
0010
0001
1000
0001
0010
0100
1000
0010
,  // measure 17
0200
0300
0000
0000
0200
0300
0000
0000
0200
0300
0001
1000
0010
0000
0100
0000
,  // measure 18
0001
0000
0010
0000
0100
0010
0001
1000
0010
0000
0100
0000
0001
0000
0001
0000
,  // measure 19
0100
0000
1000
0000
0100
0000
0001
1000
0010
0000
0100
0000
0010
0000
1000
0000
,  // measure 20
0100
0000
1000
0000
0010
0100
0001
1000
0100
0000
0010
0000
0001
0000
0001
0000
,  // measure 21
0010
0000
1000
0000
0010
0000
0100
0010
0100
0000
1000
0100
0010
0000
0001
1000
,  // measure 22
0001
0000
0000
0000
2002
0000
3003
0000
1000
0010
0100
0001
1000
0000
0100
0000
,  // measure 23
0001
0000
1000
0000
0010
0000
0001
0000
0100
0000
0001
1000
0010
0000
1000
0000
,  // measure 24
0100
0000
0010
0001
0010
0000
0100
0000
0010
0001
0010
0100
1000
0000
1020
0000
,  // measure 25
0000
0000
0130
0000
0001
0000
0021
0000
0000
0000
0130
0000
1000
0100
0010
0001
,  // measure 26
1000
0000
0010
0000
0100
0010
1000
0001
0010
0000
0100
0000
1000
0000
1000
0000
,  // measure 27
0010
0000
0001
0000
0010
0000
1000
0001
0100
0000
0001
0000
0010
0000
1000
0000
,  // measure 28
0010
0000
0001
0000
0100
0001
1000
0100
0010
0000
0001
0000
0100
0000
0100
0000
,  // measure 29
0010
0000
1000
0000
0000
0000
1000
0001
1000
0000
0100
0010
0001
0000
0010
0100
,  // measure 30
1000
0001
1000
0001
1000
0000
0000
0000
0001
1000
0100
0010
0001
0000
0100
0000
,  // measure 31
1000
0001
0010
1000
0001
0010
1000
0010
,  // measure 32
0001
0000
1000
0100
1000
0000
0001
0000
1000
0100
1000
0010
0100
0000
0102
0000
,  // measure 33
0000
0000
1000
0000
0000
0000
1003
0000
0100
0000
1000
0001
0010
0000
0100
0000
,  // measure 34
0120
0000
0100
0000
0130
1000
0200
0001
,  // measure 35
0000
0010
0000
1000
0300
0000
1000
0010
,  // measure 36
0120
0000
0100
0000
0130
0001
2000
0010
,  // measure 37
0000
3001
0010
0100
0000
1000
0010
0100
,  // measure 38
0001
0100
0001
1000
0100
1000
0100
0010
,  // measure 39
0001
0010
0001
1000
0010
1000
0010
0100
,  // measure 40
0010
1000
0010
0100
0010
1000
0100
0010
0001
0010
0100
0010
0001
0100
0010
1000
,  // measure 41
0001
0000
1000
0010
0000
0100
2002
3003
,  // measure 42
0001
0100
0001
0100
0010
0000
1000
0010
0000
0010
0100
0000
0010
0100
0000
0100
,  // measure 43
0001
0000
1000
0001
0000
0001
1000
0000
2200
0000
0000
0000
3300
0000
0010
0001
,  // measure 44
1000
0001
1000
0000
0100
1000
0000
0100
0010
0000
0100
1000
0000
0001
0100
0000
,  // measure 45
0010
1000
0000
0001
0010
0000
0100
1000
0000
0000
0022
0000
0000
0000
0033
0000
,  // measure 46
1000
0001
1000
0100
0010
0000
0001
0010
0000
0010
0100
0000
0010
0100
0000
0100
,  // measure 47
1000
0000
0001
1000
0000
1000
0001
0000
0202
0000
0000
0000
0303
0000
0010
1000
,  // measure 48
0001
1000
0001
0000
0100
0001
0000
0100
0010
0000
0100
0001
0000
1000
0100
0000
,  // measure 49
0010
0001
0000
1000
0010
0000
0100
0001
0000
0000
0010
0000
0100
0000
0010
0001
,  // measure 50
1000
0100
1000
0100
0010
0000
0001
0100
0001
0000
1000
0000
0001
0010
0001
0000
,  // measure 51
1000
0000
0001
0100
0001
0000
1000
0000
0010
0000
0001
0000
0010
0000
0100
0010
,  // measure 52
0100
0001
1000
0000
0100
0010
0100
0000
1000
0000
0001
0100
0001
0000
1000
0000
,  // measure 53
0100
0010
0100
0000
1000
0000
0001
0010
0100
0000
1000
0000
0001
0100
0010
1000
,  // measure 54
0001
0100
0001
0100
0010
0000
1000
0100
1000
0000
0001
0000
1000
0010
1000
0000
,  // measure 55
0001
0000
1000
0100
1000
0000
0010
0000
1000
0000
0100
0000
0001
0000
0100
0010
,  // measure 56
0100
0010
0001
0000
0010
1000
0000
0010
0001
0000
0100
0010
0000
0100
0001
0000
,  // measure 57
0000
1000
0000
0000
0010
0000
0000
1000
0000
0000
0001
1000
0100
0010
0001
1000
,  // measure 58
0010
1000
0001
0010
0100
1000
0001
0010
0001
1000
0010
0100
0001
1000
0001
0100
,  // measure 59
0010
1000
0100
0010
0001
1000
0010
0100
0001
1000
0001
0010
0100
1000
0020
0000
,  // measure 60
0130
0000
0002
0000
1003
0000
0200
0000
0310
0000
0001
0000
0010
0100
2000
0000
,  // measure 61
3001
0000
0020
0000
0130
0000
2000
0000
3001
0000
0010
0000
0100
0010
0001
1000
,  // measure 62
0100
1000
0001
1000
0010
0100
0001
1000
0001
0010
0100
1000
0001
1000
0100
0010
,  // measure 63
0001
0100
0010
1000
0001
0010
0100
1000
0001
0010
0001
0100
0010
1000
0001
1000
,  // measure 64
0200
0000
0000
0000
0310
0001
0010
0001
0200
0000
0000
0000
0310
1000
0010
1000
,  // measure 65
0002
0003
0000
0000
0002
1003
0100
1000
0002
0003
0010
0100
1000
0000
0001
0000
,  // measure 66
0100
1000
0100
0001
1000
0010
0001
0010
,  // measure 67
1000
0001
1000
0001
1000
0100
0010
0001
0010
0100
0010
0100
0010
0000
0011
0000
,  // measure 68
0000
0000
1001
0000
1000
0000
0001
0010
0100
0010
0100
0010
0100
0000
1100
0000
,  // measure 69
0000
0000
1001
0000
0001
0000
1000
0001
1000
0100
0010
0001
1000
0000
0001
0100
,  // measure 70
0001
0010
0100
1000
0001
0100
0001
1000
0010
1000
0100
0010
0001
0010
0100
1000
,  // measure 71
0001
1000
0001
1000
0010
0100
0001
1000
0001
1000
0001
0010
0100
0010
0100
0010
,  // measure 72
0001
1000
1000
1000
1000
1000
1000
1000
,  // measure 73
2000
0000
0000
0000
3001
0000
0000
0000
0100
0000
0001
0000
2000
0000
0000
0000
3000
0000
0000
0000
0000
0000
0100
0010
0001
0000
0000
0000
0000
0100
0001
1000
,  // measure 74
0100
0000
0010
0000
0001
0000
0001
0000
0000
0000
0100
0000
0000
0000
0100
0010
1000
0000
0100
0000
1000
0000
0001
0000
0010
0000
0000
0000
0000
0001
1000
0100
,  // measure 75
1000
0000
0000
0000
0000
0000
0000
0000
0000
0000
0000
0000
0001
0000
0000
0000
0000
0000
0000
0000
0000
0000
0000
0000
0010
0000
0000
0000
0000
0000
0000
0000
0000
0000
0000
0000
0010
0000
0000
0000
0000
0000
0000
0000
0000
0000
0000
0000
0000
0000
0000
0000
0000
0000
0000
0000
0000
0000
0000
0000
0100
0000
0000
0000
0000
0000
0000
0000
0000
0000
0000
0000
0000
0000
0000
0000
0000
0000
0000
0000
0000
0000
0000
0000
0100
0000
0000
0000
0000
0000
1000
0000
0000
0000
0000
0000
0010
0000
0000
0000
0000
0000
0000
0000
0000
0000
0000
0000
1000
0000
0000
0000
0010
0000
0000
0000
1000
0000
0000
0000
0010
0000
0000
0000
0000
0000
0000
0000
0000
0000
0000
0000
0100
0000
0000
0000
0001
0000
0000
0000
0100
0000
0000
0000
0001
0000
0000
0000
0000
0000
0000
0000
0000
0000
0000
0000
0000
0000
0000
0000
0000
0000
0000
0000
0000
0000
0000
0000
2200
0000
0000
0000
0000
0000
0000
0000
0000
0000
0000
0000
3300
0000
0000
0000
0000
0000
0000
0000
0000
0000
0000
0000
,  // measure 76
0001
0100
0010
1000
0001
0000
0200
0000
0000
0000
1000
0000
0000
0000
0301
0000
0000
0000
1000
0100
1000
0000
0001
0000
0100
0000
0010
0100
0001
0000
1000
0000
,  // measure 77
0100
0010
0001
1000
0001
0000
0102
0000
0000
0000
1003
0000
0000
0000
2010
0000
0000
0000
3001
0100
0010
0000
0100
0010
1000
0000
0000
0000
0001
0000
0000
0000
,  // measure 78
0100
0001
0100
0010
1000
0000
0100
0000
0010
0000
0010
0000
0100
0000
1000
0000
,  // measure 79
0001
0000
0010
0001
1000
0000
0100
0000
0001
0000
0100
0000
1000
0000
0001
0000
,  // measure 80
1000
0100
1000
0001
0010
0000
0001
0000
0100
0000
0100
0000
0010
0000
1000
0000
,  // measure 81
0000
0000
1000
0010
0100
0000
0010
1000
0100
0000
0010
0001
0100
0010
0100
0010
,  // measure 82
1000
0000
0000
0000
0001
1000
0010
0100
0001
0000
0010
0000
1000
0000
0001
0000
,  // measure 83
0100
0000
1000
0000
0001
0000
0100
0000
1000
0000
0100
0000
0001
0000
1000
0010
,  // measure 84
1000
0000
0100
0000
0010
0001
0010
0100
1000
0000
2010
0000
0000
0000
0001
0000
,  // measure 85
0000
0000
0000
0000
3001
0000
0000
0000
0100
0000
0000
0000
0010
0000
1000
0000
0001
0000
0000
0000
1000
0000
0000
0000
0100
0000
0010
0001
0010
0000
0100
0000
,  // measure 86
0010
0001
0010
0100
1000
0000
0002
0000
0000
0000
0100
0000
0000
0000
0103
0000
0010
0000
0100
0010
0100
0000
0001
0000
1000
0000
0000
0000
0001
0000
0100
0000
,  // measure 87
0010
0000
1000
0000
0001
0010
0100
1000
0001
0000
2001
0000
0000
0000
0010
0000
,  // measure 88
0000
0000
0010
0000
0000
0000
3100
0010
0001
0000
0100
0000
0010
0000
1000
0000
,  // measure 89
0100
0000
0000
0000
0100
0000
1000
0100
0010
0000
0001
0000
0100
0000
1000
0000
,  // measure 90
0100
0000
0001
0000
1000
0000
0001
1000
0001
0000
1000
0000
0010
0000
0100
0000
,  // measure 91
0001
0000
0000
0000
0001
0000
0100
0001
1000
0000
0010
0000
1000
0000
0001
0000
,  // measure 92
0010
0000
0100
0000
1000
0000
0001
1000
0001
0000
0100
0000
0010
0000
1000
0000
,  // measure 93
0010
1000
0001
1000
0001
0010
0001
0010
,  // measure 94
0100
0000
0010
0000
0100
0000
1000
0000
0100
0000
0010
0000
0001
1000
0010
1000
,  // measure 95
0001
0100
0010
0100
0001
1000
0100
0010
0100
1000
0020
0000
0000
0000
1030
0000
,  // measure 96
0001
0021
0000
0031
1000
0010
0110
0000
;
