#TITLE:777;
#SUBTITLE:;
#ARTIST:RoughSketch;
#TITLETRANSLIT:;
#SUBTITLETRANSLIT:;
#ARTISTTRANSLIT:;
#GENRE:;
#CREDIT:;
#BANNER:777.png;
#BACKGROUND:777-bg.png;
#LYRICSPATH:;
#CDTITLE:;
#MUSIC:777.ogg;
#OFFSET:-0.118075;
#SAMPLESTART:24.222155;
#SAMPLELENGTH:9.884169;
#SELECTABLE:YES;
#DISPLAYBPM:777.000000;
#BPMS:0.000000=388.500000
,152.000000=777.000000
,412.000000=388.500000
,672.000000=777.000000
,932.000000=388.500000
,944.000000=777.000000
;
#STOPS:152.000000=0.309000,
658.000000=0.154000,
663.000000=0.463000,
672.000000=0.927000,
944.000000=0.309000
;
#BGCHANGES:0.000=777.avi=1.000=0=0=1=====,
99999=-nosongbg-=1.000=0=0=0 // don't automatically add -songbackground-
;
#KEYSOUNDS:;
#ATTACKS:;

//---------------dance-single - ----------------
#NOTES:
     dance-single:
     :
     Challenge:
     19:
     1.112203,1.943665,0.330477,0.161396,0.253622,1013.000000,970.000000,43.000000,21.000000,0.000000,0.000000,1.112203,1.943665,0.330477,0.161396,0.253622,1013.000000,970.000000,43.000000,21.000000,0.000000,0.000000:
// measure 0
0000
0000
0000
0000
,  // measure 1
0000
0000
0000
0000
,  // measure 2
0000
0000
0000
0000
,  // measure 3
0000
0000
0000
0000
,  // measure 4
0000
0000
0000
0000
,  // measure 5
0000
0000
0000
0000
,  // measure 6
0000
0000
0000
0000
,  // measure 7
0000
0000
0000
0000
,  // measure 8
0000
0000
0000
0000
,  // measure 9
0000
0000
0000
0000
,  // measure 10
0000
0000
0000
0000
,  // measure 11
0000
0000
0000
0000
,  // measure 12
0000
0000
0000
0000
,  // measure 13
0000
0000
0000
0000
,  // measure 14
0000
0000
0000
0000
,  // measure 15
0000
0000
0000
0000
,  // measure 16
0000
0000
0000
0000
,  // measure 17
0000
0000
0000
0000
,  // measure 18
0000
0000
0000
0000
,  // measure 19
1000
0000
0101
0000
,  // measure 20
0001
0000
1100
0000
,  // measure 21
1000
0000
0011
0000
,  // measure 22
0001
0000
1010
0010
,  // measure 23
1000
0000
0011
0000
,  // measure 24
0001
0000
1010
0000
,  // measure 25
1000
0000
0101
0000
,  // measure 26
0001
0000
1100
0100
,  // measure 27
0010
0001
1000
0010
,  // measure 28
0001
0000
0010
0000
1000
0000
0001
1000
,  // measure 29
0001
1000
0100
0001
,  // measure 30
0100
0000
1000
0000
0010
0000
0100
0010
,  // measure 31
0100
0010
1000
0001
0010
0100
1000
0001
,  // measure 32
1000
0010
0100
0001
1000
0100
0010
0001
,  // measure 33
1000
0000
0000
0100
,  // measure 34
1000
0000
0010
0000
,  // measure 35
0101
0001
0100
0100
,  // measure 36
0010
0010
1000
1000
,  // measure 37
0001
0010
0100
1000
,  // measure 38
0000
0000
0000
0000
,  // measure 39
0010
0000
0010
0000
,  // measure 40
1000
0010
1000
0001
,  // measure 41
0010
0001
1000
0010
,  // measure 42
0100
0001
0010
0001
,  // measure 43
1000
0100
1000
0001
,  // measure 44
1000
0001
0010
0001
,  // measure 45
1000
0001
0100
0000
,  // measure 46
0001
0000
0000
1000
0000
0000
0001
0000
0010
0000
0100
0000
,  // measure 47
1000
0000
1000
0000
,  // measure 48
0001
0010
0001
1000
,  // measure 49
0010
1000
0001
0010
,  // measure 50
0100
1000
0001
1000
,  // measure 51
0001
0000
0010
0000
0001
0000
1000
0000
0000
0001
0000
0000
,  // measure 52
1000
0010
0100
0001
,  // measure 53
1000
0000
0010
0000
1000
0000
0001
0000
0000
0010
0000
0000
,  // measure 54
0100
0000
0010
0000
0100
0000
0010
0000
0100
0000
0010
0000
,  // measure 55
0100
0000
0100
0000
,  // measure 56
1000
0100
1000
0001
,  // measure 57
0100
0001
1000
0100
,  // measure 58
0010
0001
0100
0001
,  // measure 59
1000
0000
0100
0000
1000
0000
0001
0000
0000
1000
0000
0000
,  // measure 60
0001
0100
0010
1000
,  // measure 61
0001
0000
0000
1000
0000
0000
0010
0000
0100
0000
0010
0000
,  // measure 62
1000
0000
0000
0001
0000
0000
1000
0000
0010
0000
1000
0000
,  // measure 63
0001
0000
0001
0000
,  // measure 64
1000
0001
1000
0010
,  // measure 65
1000
0100
0010
0001
,  // measure 66
0100
0001
0010
0100
,  // measure 67
0010
0000
0001
0000
1000
0000
0100
0000
0000
1000
0000
0000
,  // measure 68
0010
0000
1000
0000
0001
0000
0100
0000
0000
0001
0000
0000
,  // measure 69
1000
0000
0000
0000
,  // measure 70
0001
0000
1000
0000
0001
0000
1000
0000
0001
0000
1000
0000
,  // measure 71
0001
0000
0010
0000
,  // measure 72
0100
0000
0100
0000
,  // measure 73
0001
0000
0100
0000
,  // measure 74
1000
0000
0010
1000
,  // measure 75
0001
0000
0100
0000
,  // measure 76
0010
0000
0010
0000
,  // measure 77
0001
0010
1000
0000
,  // measure 78
0001
0000
0010
1000
,  // measure 79
0010
0001
1000
0000
,  // measure 80
0100
0000
0100
0000
,  // measure 81
0001
0000
0100
0000
,  // measure 82
0010
0000
0001
0010
,  // measure 83
0100
0000
1000
0000
0100
0000
0010
0000
0000
0001
0000
0000
,  // measure 84
1000
0000
0010
0000
,  // measure 85
0100
0001
1000
0000
,  // measure 86
0001
0000
0010
0000
,  // measure 87
0210
0000
0000
0000
,  // measure 88
0310
0000
0010
0000
,  // measure 89
1000
0000
0010
0000
,  // measure 90
0001
0000
0100
0001
,  // measure 91
1000
0000
0010
0000
,  // measure 92
0100
0000
0100
0000
,  // measure 93
1000
0100
0001
0010
,  // measure 94
1000
0000
0010
0000
,  // measure 95
0001
0010
0001
0000
,  // measure 96
0010
0000
1000
0000
,  // measure 97
0001
0000
0100
0000
,  // measure 98
1000
0000
0010
1000
,  // measure 99
0001
0000
0100
0000
0001
0000
1000
0000
0000
0100
0000
0000
,  // measure 100
0010
0000
0001
0000
,  // measure 101
1010
0000
0000
0000
,  // measure 102
0011
0000
0000
0000
,  // measure 103
1001
1000
0100
0100
,  // measure 104
0010
0010
0001
0001
,  // measure 105
1000
0000
0010
0000
0100
0000
0001
0100
,  // measure 106
0010
1000
0000
1000
0001
0000
0010
0100
,  // measure 107
0010
0000
0100
0000
1000
0010
0000
0010
,  // measure 108
1000
0000
0001
0010
0001
0000
0100
0000
,  // measure 109
0010
1000
0001
0000
0010
0001
0000
0001
,  // measure 110
1000
0100
0001
0100
,  // measure 111
1100
0000
1000
0000
0001
0010
0000
0010
,  // measure 112
0001
0000
1000
0010
1000
0000
0100
0000
,  // measure 113
0010
0001
1000
0000
0010
1000
0000
1000
,  // measure 114
0001
0000
1000
0000
0220
0330
0000
0000
,  // measure 115
0001
0000
0010
0000
0001
0100
0000
0100
,  // measure 116
0001
0000
1000
0100
1000
0000
0001
0000
,  // measure 117
0100
0001
1000
0000
0001
0100
0000
0100
,  // measure 118
0001
0010
1000
0010
,  // measure 119
0011
0000
0001
0000
1000
0100
0000
0100
,  // measure 120
1000
0000
0001
1000
0001
0000
0100
0000
,  // measure 121
0001
1000
0001
1000
0001
1000
0001
1000
0001
1000
0001
1000
,  // measure 122
0020
0030
0000
0000
0020
0030
0000
0000
0020
0030
0000
0000
0000
0000
0000
0000
,  // measure 123
1000
0001
0010
0000
0100
0010
0000
0010
,  // measure 124
0001
0000
0010
0100
0010
0000
0001
0000
,  // measure 125
1000
0010
1000
0000
0001
0100
0000
0100
,  // measure 126
0001
0010
1000
0010
,  // measure 127
0001
1000
0010
0000
1000
0010
0000
0010
,  // measure 128
0100
0000
0010
0100
0010
0000
1000
0000
,  // measure 129
0001
0100
0001
0000
1000
0001
0000
0001
,  // measure 130
0010
0000
0100
0000
2002
3003
0000
0000
,  // measure 131
1000
0001
0100
0000
0010
0100
0000
0100
,  // measure 132
0001
0000
1000
0001
1000
0000
0100
0000
,  // measure 133
0010
0100
1000
0000
0001
0010
0000
0010
,  // measure 134
0001
0100
1000
0100
,  // measure 135
0001
1000
0100
0000
0010
0100
0000
0100
,  // measure 136
1000
0000
0001
0010
0001
0000
1000
0000
,  // measure 137
0010
0100
0001
0000
0010
0100
1000
0000
,  // measure 138
0001
0100
0010
0000
2020
0000
3030
0000
,  // measure 139
1000
0000
0101
0000
,  // measure 140
0001
0010
0000
0100
,  // measure 141
0001
0000
0100
0010
,  // measure 142
0000
0100
1000
0010
,  // measure 143
0100
0000
0001
0100
,  // measure 144
0000
0100
2000
0000
,  // measure 145
0000
3100
0010
0000
,  // measure 146
0010
1000
0001
0010
,  // measure 147
0100
0000
1100
0000
,  // measure 148
1000
0010
0000
0100
,  // measure 149
1000
0000
0100
0010
,  // measure 150
0000
0100
0001
0010
,  // measure 151
0100
0000
1000
0100
,  // measure 152
0000
0100
0020
0000
,  // measure 153
0030
0010
0010
0010
,  // measure 154
0010
0100
0010
0100
0010
0100
0010
0100
,  // measure 155
0010
0000
0001
0000
1000
0000
0001
0100
,  // measure 156
0001
0000
0100
0010
0000
0100
0001
1000
,  // measure 157
0010
0000
1000
0100
0000
1000
0001
0000
,  // measure 158
0000
0100
0001
0000
0001
0010
0100
1000
,  // measure 159
0001
0000
1000
0000
0010
0000
1000
0100
,  // measure 160
1000
0000
0100
0010
0000
0100
1000
0001
,  // measure 161
0010
0000
0001
0100
0000
0001
1000
0000
,  // measure 162
0100
1000
0010
0000
0100
0010
1000
0001
,  // measure 163
0100
0001
0100
0001
0100
0001
0100
0001
,  // measure 164
1000
0001
1000
0001
0000
0000
1000
0010
,  // measure 165
1000
0010
1000
0001
1000
0001
0000
0000
,  // measure 166
1000
0100
0010
0001
1000
0001
0010
0100
,  // measure 167
0002
0000
0103
1000
0020
0000
0031
0010
,  // measure 168
1000
0000
0000
0000
,  // measure 169
1000
0000
0011
0000
,  // measure 170
0001
0010
0100
1000
,  // measure 171
0001
1000
0100
0010
,  // measure 172
0000
0100
1000
0100
,  // measure 173
0010
0000
0100
1000
,  // measure 174
0000
0001
0100
0000
,  // measure 175
0010
1000
0001
0000
,  // measure 176
0001
0010
0100
1000
,  // measure 177
0001
0000
1010
0000
,  // measure 178
1000
0010
0100
0001
,  // measure 179
1000
0001
0100
0010
,  // measure 180
0000
1000
0010
0100
,  // measure 181
0001
0000
1000
0000
0001
0000
1000
0000
0000
0100
0000
0000
,  // measure 182
0000
0010
0001
0000
,  // measure 183
1000
0001
1000
0000
,  // measure 184
0010
1000
0001
1000
,  // measure 185
0100
0000
1100
0000
,  // measure 186
1000
0001
0010
0100
,  // measure 187
1000
0001
1000
0100
,  // measure 188
0000
1000
0001
0100
,  // measure 189
0010
0000
1000
0100
,  // measure 190
0000
0010
0100
0000
,  // measure 191
1000
0001
0010
0000
,  // measure 192
0010
0001
1000
0010
,  // measure 193
0100
0000
0101
0000
,  // measure 194
0001
1000
0100
0010
,  // measure 195
0001
1000
0001
0010
,  // measure 196
0100
0010
0100
0010
,  // measure 197
0001
0000
0100
0000
0001
0000
0100
0000
0000
0010
0000
0000
,  // measure 198
1000
0000
0001
0000
,  // measure 199
0010
1000
0010
0001
,  // measure 200
2000
0000
0000
0000
,  // measure 201
3001
0000
0101
0000
,  // measure 202
1001
0000
1010
0000
,  // measure 203
1000
0000
1100
0000
,  // measure 204
1001
0000
0001
0010
,  // measure 205
0001
0000
0010
0000
,  // measure 206
1000
0000
0010
0001
,  // measure 207
0100
1000
0100
0001
,  // measure 208
1000
0000
0010
0000
,  // measure 209
1000
0000
1010
0000
,  // measure 210
1001
0000
0101
0000
,  // measure 211
0001
0000
0011
0000
,  // measure 212
0001
1000
0001
0000
,  // measure 213
1000
0000
0100
0000
0010
0000
0001
0000
0000
1000
0000
0000
,  // measure 214
0100
0000
0001
0000
,  // measure 215
0100
1000
0001
0000
,  // measure 216
0100
1000
0100
0001
,  // measure 217
1000
0000
1010
0000
,  // measure 218
0110
0000
0101
0000
,  // measure 219
0001
0000
1001
0000
,  // measure 220
0001
1000
0200
0000
,  // measure 221
0310
0000
0011
0000
,  // measure 222
1001
0000
1100
0000
,  // measure 223
2000
3100
2000
3001
,  // measure 224
2000
3100
2000
3001
,  // measure 225
0010
0000
0000
0000
0001
1000
0001
0000
,  // measure 226
0000
0000
0100
0010
0100
0000
0000
0000
,  // measure 227
1010
0000
0000
0000
1000
0001
1000
0000
,  // measure 228
0000
0000
0100
0010
0100
0000
0000
0000
,  // measure 229
0011
0000
0000
0000
1000
0010
1000
0000
,  // measure 230
0000
0000
0001
0100
0001
0000
0000
0000
,  // measure 231
1001
0000
0000
0000
,  // measure 232
0001
1000
0020
0000
,  // measure 233
1030
1000
0100
0100
,  // measure 234
0010
0010
0001
0001
,  // measure 235
1000
0010
0100
0001
,  // measure 236
0000
0000
0000
0000
,  // measure 237
0010
0000
0010
0000
,  // measure 238
0001
0010
0001
1000
,  // measure 239
0010
0001
0010
1000
,  // measure 240
0010
0100
0010
1000
,  // measure 241
0001
0010
1000
0010
,  // measure 242
0001
1000
0010
0100
,  // measure 243
0001
1000
0001
0000
,  // measure 244
1000
0000
0000
0001
0000
0000
1000
0000
0010
0000
1000
0000
,  // measure 245
0001
0000
0001
0000
,  // measure 246
1000
0010
1000
0001
,  // measure 247
0010
1000
0010
0001
,  // measure 248
1000
0010
0100
0001
,  // measure 249
1000
0000
0010
0000
1000
0000
0001
0000
0000
1000
0000
0000
,  // measure 250
0100
0010
0100
1000
,  // measure 251
0001
0000
0010
0000
0001
0000
1000
0000
0000
0001
0000
0000
,  // measure 252
0100
0000
0010
0000
0100
0000
0010
0000
0100
0000
0010
0000
,  // measure 253
0100
0000
0100
0000
,  // measure 254
0001
0100
0001
1000
,  // measure 255
0100
0001
0100
1000
,  // measure 256
0001
0100
0010
0100
,  // measure 257
0001
0000
1000
0000
0010
0000
1000
0000
0000
0001
0000
0000
,  // measure 258
1000
0100
0001
0100
,  // measure 259
1000
0000
0000
0001
0000
0000
0100
0000
0010
0000
1000
0000
,  // measure 260
0001
0000
0000
1000
0000
0000
0100
0000
0010
0000
0001
0000
,  // measure 261
1000
0000
1000
0000
,  // measure 262
0001
0100
1000
0100
,  // measure 263
0001
1000
0010
0100
,  // measure 264
0010
1000
0001
0010
,  // measure 265
0100
0000
0010
0000
0001
0000
1000
0000
0000
0010
0000
0000
,  // measure 266
0100
0000
0010
0000
1000
0000
0001
0000
0000
0100
0000
0000
,  // measure 267
0001
0000
0000
0000
,  // measure 268
0001
0000
1000
0000
0001
0000
1000
0000
0001
0000
1000
0000
,  // measure 269
0001
0100
0001
0100
,  // measure 270
0001
0100
0001
0100
,  // measure 271
1000
0100
1000
0100
,  // measure 272
1000
0100
1000
0100
,  // measure 273
0010
0001
0010
0001
,  // measure 274
0010
0001
0010
0001
,  // measure 275
0010
1000
0010
1000
,  // measure 276
0010
1000
0010
1000
,  // measure 277
0001
1000
0001
1000
,  // measure 278
0001
1000
0001
1000
,  // measure 279
0001
1000
0001
1000
,  // measure 280
0001
1000
0001
1000
,  // measure 281
0001
0000
0000
0000
;
